#TITLE:The Baka Song;
#SUBTITLE:;
#ARTIST:Neon Genesis Evangalion;
#TITLETRANSLIT:;
#SUBTITLETRANSLIT:;
#ARTISTTRANSLIT:;
#CREDIT:This DWI is made by ObliVioN;
#BANNER:the_baka_song.jpg;
#BACKGROUND:the_baka_song-bg.jpg;
#LYRICSPATH:;
#CDTITLE:!tgb Title.png;
#MUSIC:baka2.mp3;
#OFFSET:-0.937;
#SAMPLESTART:52.914;
#SAMPLELENGTH:12.000;
#SELECTABLE:YES;
#BPMS:0.000=230.424,432.000=115.214,450.000=230.424;
#STOPS:;
#BGCHANGES:;
// cache tags:
#FIRSTBEAT:4.000;
#LASTBEAT:564.000;
#SONGFILENAME:Songs/IzzySM Keyboard Mega Pack/baka/baka.sm;
#HASMUSIC:1;
#HASBANNER:1;
#MUSICLENGTH:159.164;
// end cache tags

//---------------dance-single - Tjoho!!!----------------
#NOTES:
     dance-single:
     Tjoho!!!:
     Hard:
     12:
     0.951,1.000,1.000,0.107,0.060,697.000,346.000,17.000,0.000,0.000:
0000
0000
0000
0000
,
2000
3000
0000
0000
,
0000
0000
0000
0002
0000
0000
0000
0000
,
2000
0003
3000
0000
,
0101
1010
0101
1010
,
0101
1010
0101
0000
,
1100
0011
1100
0011
,
1100
0011
1100
0000
,
1001
0110
1001
0110
,
1001
0110
1001
0000
,
1010
1100
0101
0011
,
0110
1100
1001
0000
,
1000
0000
1000
1000
0001
0000
0001
0000
,
1100
1100
1100
0000
,
1000
0001
1000
0001
1000
0000
0011
0000
,
1100
1100
1100
0000
,
2100
0000
3001
0000
0100
0001
0100
0001
,
0200
0000
0300
0000
,
1000
0001
1000
0000
0101
0101
0101
0101
,
0000
0000
0000
0000
,
1001
1001
1001
1001
1001
1001
1001
1001
,
1001
1001
1001
1001
1001
1001
1001
1001
1001
1001
1001
1001
,
1001
1001
1001
1001
1001
1001
1001
1001
1001
1001
1001
1001
,
2002
3003
0000
0000
,
0001
0000
1000
0100
1000
0000
0001
0100
,
0001
0000
1000
0100
1000
0000
0000
0000
,
0001
0000
1000
0100
1000
0000
0001
0100
,
0001
0000
1000
0100
1000
0000
0000
0000
,
0001
0000
0001
1000
0001
0000
0001
0000
,
1000
0000
0100
1000
0000
0000
0000
0000
,
0000
0000
1000
0100
1000
0000
1001
0000
,
0110
0000
0011
1100
0000
0000
0000
0000
,
1000
0001
1000
0001
1000
0000
0100
0000
,
0220
0000
0000
0330
0000
0000
0000
0000
,
1000
0100
1000
0000
0101
0101
0101
0101
,
0000
0000
0000
0000
,
1001
1001
1001
1001
1001
1001
1001
1001
,
1001
1001
1001
1001
1001
1001
1001
1001
,
1001
0000
0000
1001
0000
0000
1001
0000
0000
1001
0000
0000
1001
0000
0000
1001
0000
0000
1001
0000
0000
1001
1001
0000
,
1001
1001
1001
1001
0000
0000
0000
0000
0000
0000
0000
0000
,
1000
0000
0001
0100
1000
0000
0001
0100
,
1000
0000
0001
0100
1000
0000
0000
0000
,
1000
0000
0001
0010
0100
0000
0001
0010
,
0100
0000
0001
0010
0100
0000
0000
0000
,
1000
0000
0100
1000
0100
0000
1000
0100
,
1000
0001
0100
0010
1000
0000
0000
0000
,
0000
1000
0001
1000
0100
0000
1000
0001
,
0100
0010
1000
0001
0100
0000
0000
0000
,
0010
1000
0100
0010
1000
0001
0100
0001
,
1000
0010
0100
0001
1000
0100
0001
0000
,
0000
0000
0001
1000
0001
1000
0001
0100
,
0010
1000
0001
0100
0010
1000
0100
1000
,
0001
0000
0000
0001
0000
0000
0000
0000
,
1000
1000
1000
0000
,
0101
0101
1100
1100
,
1001
0000
0200
0300
,
1001
0000
1100
1100
1100
0000
0101
0101
,
1100
1100
0101
0101
1100
1100
0101
0101
,
1100
1100
0101
0101
1100
1100
0101
0110
,
1100
0101
1001
0000
,
1100
0000
0101
1010
1100
0000
0101
1010
,
0101
0101
1010
1010
0101
0101
1010
1010
,
0101
0101
1010
1010
0101
0101
1010
0110
,
0101
1010
1001
0000
,
1000
0000
0001
0100
0010
0000
1000
0001
,
0100
0000
0010
1000
0002
0000
0003
0000
,
1000
0000
0001
0100
0010
0000
1000
0001
,
0100
0000
1000
0100
1000
0000
1000
0100
,
0001
0000
1000
0001
0100
0000
1000
0001
,
0100
0000
1000
0001
0100
0000
1000
0001
,
0100
0000
0001
1000
0100
0000
1000
0001
,
0100
0000
1000
0001
0100
0000
1000
0010
,
0100
0001
1000
0100
1000
0001
1000
0000
,
0010
0010
1000
0000
,
1000
0100
0010
0001
0010
0000
1010
0000
,
0011
1100
0101
0000
,
0001
0000
1000
0100
1000
0001
0100
0010
,
2000
0000
0000
3000
,
0001
0010
0001
0000
1100
1100
1100
1100
,
0000
0000
0000
0000
,
1001
1001
1001
1001
1001
1001
1001
1001
,
1001
1001
1001
1001
1001
1001
1001
1001
,
1001
1001
1001
1001
1001
1001
1001
1001
,
1001
0000
0200
0300
,
1000
0100
0010
1000
0001
0100
0010
1000
,
0100
0001
1000
0010
0100
0001
0010
0100
,
1000
0001
0100
0010
1000
0001
0100
0010
,
1000
0001
0010
0100
1000
0100
0010
0001
,
1000
0000
0100
1000
0010
0000
1000
0100
,
0101
0101
1010
1010
0110
0000
0000
0000
,
1100
0000
0001
0100
0010
0000
1000
0100
,
0011
0011
1100
1100
0110
0000
0000
0000
,
0110
0000
1000
0001
0010
0000
1000
0100
,
0010
1000
0001
0010
0100
0010
1000
0000
,
0100
0010
0100
0000
1000
0100
1000
0010
,
0100
0010
1000
0001
0100
0010
1000
0001
,
1100
0000
0000
1100
0000
0000
0000
0000
,
0110
0110
0110
0000
,
0011
0011
1100
1100
,
0110
0000
1001
0000
,
1100
0000
0101
0101
0101
0000
0110
0110
,
1100
1100
0110
0110
1100
1100
0110
0110
,
1100
1100
0110
0110
1100
1100
0110
0110
,
1001
0110
1001
0000
,
0101
0000
1010
1010
1010
0000
0011
0011
,
0110
0110
0011
0011
0110
0110
0011
0011
,
0110
0110
0011
0011
0110
0110
0011
0011
,
1100
0110
1001
0000
,
1001
0000
1000
1000
0001
0000
0100
1000
,
0001
0000
0100
0010
1000
0000
0001
0100
,
0010
0000
1000
0001
0100
0000
0010
1000
,
0001
0000
1000
0001
0100
0000
0010
1000
,
0001
0000
1000
0010
0101
0000
0101
0000
,
0101
0000
0101
0000
0101
0000
1000
0100
,
1000
0000
0001
0100
1100
1100
0101
0101
,
1001
0000
0000
0000
0100
0010
0100
0010
,
1100
0000
0001
0100
0001
1000
0100
1000
,
0001
0000
0000
0000
1000
0100
1000
0001
,
0100
0010
1000
0001
0100
0000
0100
0010
,
1000
0001
0100
0000
0000
0000
1000
0100
,
1000
0100
1000
0100
1000
0001
0010
0001
,
0010
0001
0010
0000
1010
0000
0000
1010
,
0000
0000
0101
0101
,
0101
0000
1100
1100
,
1100
1100
0110
0000
,
2002
0000
3003
0000
0110
0000
1100
1100
,
1100
0000
0110
0110
1001
1001
0110
0110
,
1001
1001
0110
0110
1001
1001
0110
0110
,
1001
1001
0110
0110
1001
0000
0110
0000
,
1001
0000
0000
0000
1100
0000
0011
0011
,
0011
0000
1100
0101
1100
0101
1100
0101
,
1100
0101
1100
0101
1100
0101
1100
0101
,
1100
0101
1100
0101
0110
0000
1001
0000
,
0110
0000
0000
0000
,
0220
0000
0000
0000
,
0000
0000
0000
0000
,
0000
0000
0000
0000
,
0000
0000
0000
0000
,
0000
0000
0000
0000
,
0000
0000
0000
0000
,
0000
0000
0000
0000
,
0330
0000
0000
0000
;
