#TITLE:Sulfur;
#SUBTITLE:;
#ARTIST:Slipknot;
#TITLETRANSLIT:;
#SUBTITLETRANSLIT:;
#ARTISTTRANSLIT:;
#CREDIT:;
#BANNER:../Beast - bn.png;
#BACKGROUND:../Beast - bg.png;
#LYRICSPATH:;
#CDTITLE:;
#MUSIC:Sulfur.ogg;
#OFFSET:0.265;
#SAMPLESTART:20.321;
#SAMPLELENGTH:11.980;
#SELECTABLE:YES;
#DISPLAYBPM:230.000;
#BPMS:0.000=189.000,37.000=200.000,100.000=210.250,196.000=200.000,228.000=203.000,232.000=207.000,236.000=209.500,292.000=210.000,356.000=190.000,368.000=200.000,372.000=201.750,404.000=210.050,468.000=210.400,500.000=213.750,504.500=212.500,512.000=209.500,516.000=210.000,532.000=232.750,552.000=232.650,564.000=231.950,592.000=233.000,596.000=232.750,656.000=233.000,660.000=218.000,788.000=229.000,804.000=231.000,812.000=233.000,820.000=235.000,848.000=229.000,850.000=225.000,852.000=223.750,908.000=230.000,924.000=226.000,944.000=238.000,948.000=235.000,956.000=230.000,964.000=232.000,972.000=290.000,973.500=240.000,974.000=234.500;
#STOPS:;
#BGCHANGES:;
// cache tags:
#FIRSTBEAT:4.000;
#LASTBEAT:979.500;
#SONGFILENAME:Songs/Beast Aoreo BEAST! 2/Sulfur - [Aoreo]/Sulfur.sm;
#HASMUSIC:1;
#HASBANNER:1;
#MUSICLENGTH:277.891;
// end cache tags

//---------------dance-single - ----------------
#NOTES:
     dance-single:
     :
     Challenge:
     14:
     1.000,1.000,0.155,0.540,0.747,2030.000,43.000,150.000,1.000,0.000:
0000
0000
0000
0000
,
2002
0000
3003
0000
,
0202
0000
0303
0000
,
2002
3003
2002
3003
,
0001
0100
0001
1000
0010
0100
0001
1000
0100
1000
0001
1000
0100
0010
0001
1000
,
0002
0000
0003
0000
,
2200
0000
3300
1000
1010
0010
0000
0000
,
0202
0303
2002
3003
,
0001
1000
0100
0010
0001
1000
0100
1000
0010
0100
0001
1000
0001
1000
0100
0010
,
0001
0000
0000
0000
1000
0100
1000
0001
0100
0010
0100
0001
1000
0100
0010
0100
,
0010
0001
1000
0001
1000
0010
0100
0010
1000
0001
0010
0100
0010
0001
1000
0100
,
1000
0001
0010
0100
1000
0001
0100
0001
1000
0010
1000
0010
0100
0001
1000
0100
,
0010
0001
1000
0100
0010
0100
1000
0001
0010
0100
0010
0001
1000
0001
0100
0010
,
0100
0001
1000
0100
1000
0001
0010
0100
0010
0100
1000
0001
0010
0001
1000
0100
,
1000
0001
0010
0100
1000
0001
1000
0100
0010
0001
1000
0100
0010
0100
0010
0001
,
1000
0100
1000
0001
0100
0001
1000
0010
0100
0001
1000
0100
0010
0000
0001
0000
,
1000
0100
0010
0100
1000
0001
0100
0010
0100
0001
1000
0100
1000
0001
0100
0010
,
1000
0000
0000
0000
0001
0100
0010
0100
0001
1000
0001
0010
0100
1000
0001
1000
,
0010
0100
0001
1000
0001
0010
0100
1000
0001
1000
0010
1000
0001
0100
0001
1000
,
0100
0010
0001
1000
0100
1000
0001
0100
0010
1000
0001
1000
0100
0010
0100
0010
,
0001
1000
0001
0100
0010
0100
0001
1000
0001
1000
0100
0010
0001
1000
0100
1000
,
0001
0100
0010
0100
0001
1000
0010
0100
0001
1000
0100
0010
0001
1000
0100
1000
,
0001
0100
0010
0100
0001
1000
0001
0010
0100
1000
0001
1000
0100
1000
0001
0100
,
0010
0100
0001
1000
0001
0010
0100
1000
0001
0000
1000
0100
1000
0000
0001
0000
,
0100
0001
0100
0010
1000
0010
0100
0001
1000
0100
0010
0001
1000
0000
0000
0000
,
M001
0010
0100
0000
0010
0000
0001
0000
0010
0000
0100
0000
0010
0000
0001
0000
,
1000
0010
0100
0000
0010
0000
1000
0000
0010
0000
0100
0000
0010
0000
1000
0000
,
0001
1000
0010
0000
1000
0000
0100
0000
0010
0000
0100
0000
0010
0000
0001
0000
,
1000
0010
1000
0010
0100
0001
0010
0100
,
1000
0001
0010
0000
0100
0000
0010
0000
0001
0000
0010
0000
0100
0000
0010
0000
,
0001
1000
0010
0000
0100
0000
0010
0000
1000
0000
0010
0000
0100
0000
0001
0000
,
1000
0000
0010
1000
0001
0000
0010
0000
0100
0000
0010
0000
0001
0000
1000
0000
,
0010
0100
0010
1000
0100
0010
0001
1000
,
1001
0000
0001
0010
0100
0010
0001
1000
,
0020
0030
0200
0300
0010
0000
1000
0000
0100
0000
0010
0000
0001
0000
1000
0000
,
0020
0030
2000
3000
0100
0000
0020
0030
0001
0000
1000
0000
0010
0000
0100
0000
,
0020
0030
2000
3000
0100
0000
0010
0000
0001
0000
1000
0000
0010
0000
0100
0000
,
0101
0000
0001
0010
0100
0010
0001
1000
,
0020
0030
0200
0300
0010
0000
1000
0000
0100
0000
0010
0000
0001
0000
1000
0000
,
0002
0003
0020
0030
0100
0000
0010
0000
0001
0000
1000
0000
0010
0000
1000
0000
,
0200
0300
0020
0030
0001
0000
1000
0000
0100
0000
0010
0000
0100
0000
1000
0000
,
0002
0003
2000
3000
0010
0000
1000
0000
0001
0000
1000
0000
0010
0000
1000
0000
,
0200
0300
0020
0030
0001
0000
0010
0000
0001
0000
0100
0000
0001
0000
1000
0000
,
0020
0030
0200
0300
0001
0000
2000
3000
0001
0000
0010
0000
0100
0000
0010
0000
,
0002
0003
2000
3000
0010
0000
0100
0000
0010
0000
1000
0000
0100
0000
0010
0000
,
0011
0000
0001
0100
0010
1000
0100
0010
,
0002
0003
2000
3000
0001
0000
0010
0000
0100
0000
0010
0000
0001
0000
1000
0000
,
0020
0030
0200
0300
0001
0000
0100
0000
0010
0000
1000
0000
0001
0000
0100
0000
,
0001
0010
0100
0010
0100
1000
0001
1000
0001
0010
0100
0010
0100
1000
0001
1000
,
0001
0000
0000
0000
1000
0010
1000
0010
0100
0001
0100
0001
1000
0010
0100
0010
,
1000
0001
0010
0001
1000
0001
0010
0100
1000
0001
0010
0001
1000
0100
1000
0001
,
1000
0100
0010
0001
1000
0100
1000
0001
0100
0001
1000
0010
0100
0010
1000
0001
,
0100
0001
1000
0001
0010
0100
1000
0001
0100
0001
1000
0010
1000
0001
0010
0100
,
1000
0100
1000
0001
0100
0010
0100
0001
1000
0100
0010
0001
1000
0100
1000
0001
,
0100
0001
0100
0010
1000
0010
1000
0001
0100
0001
1000
0100
0010
0001
1000
0001
,
0010
0001
1000
0100
1000
0010
0100
0001
1000
0000
0000
0000
0001
0000
0000
0000
,
1000
0000
0001
0010
0100
0000
0010
0000
0001
0000
1000
0000
0100
0000
1000
0000
,
0001
0010
0100
0000
0010
0000
0001
0000
0010
0000
0100
0000
0010
0000
0001
0000
,
1000
0100
0010
0000
0100
0000
1000
0000
0100
0000
0010
0000
0100
0000
1000
0000
,
0001
1000
0010
0000
1000
0000
0001
0000
1000
0000
0010
0000
1000
0000
0001
0000
,
0010
0100
1000
0000
0100
0000
0010
0000
0100
0000
1000
0000
0100
0000
0010
0000
,
0001
1000
0010
0000
1000
0000
0001
0000
0010
0000
0001
0000
1000
0000
0001
0000
,
0010
0100
1000
0000
0100
0000
0010
0000
0100
0000
1000
0000
0100
0000
0010
0000
,
0001
1000
0100
0000
1000
0000
0010
0000
0100
0000
0010
0000
1000
0000
0001
0000
,
0100
0000
0001
0100
0001
0000
1000
0000
0010
0000
0100
0000
0001
0000
0010
0000
,
0100
1000
0001
0000
1000
0000
0010
0000
1000
0000
0001
0000
1000
0000
0010
0000
,
0100
0001
1000
0000
0100
0000
0010
0000
0100
0000
1000
0000
0100
0000
0010
0000
,
0100
1000
0001
0000
0100
0000
0010
0000
0100
0000
0001
0000
0100
0000
0010
0000
,
1000
0001
0010
0000
0001
0000
1000
0000
0001
0000
0100
0000
0001
0000
1000
0000
,
0100
0010
0001
0000
0010
0000
0100
0000
0010
0000
0001
0000
0010
0000
0100
0000
,
1000
0001
0100
0000
0001
0000
1000
0000
0001
0000
0100
0000
0001
0000
1000
0000
,
0001
0010
0100
0000
0010
0000
0001
0000
1000
0000
0100
0000
1000
0000
0001
0000
,
0100
0001
0100
0001
1000
0010
1000
0010
0100
0001
1000
0001
1000
0000
0000
0000
,
1002
0000
0000
0103
0001
0010
0200
0000
,
0000
1300
0010
0100
0001
0010
0100
1000
,
0020
0000
0000
0130
0001
0010
0100
1000
,
0001
0000
0100
0001
0100
0000
0001
0000
0010
0000
0100
0000
1000
0000
0010
0000
,
0200
0000
0000
0301
1000
0100
2000
0000
,
0000
3001
0010
0100
0010
0001
1000
0010
,
0200
0000
0000
0000
0300
0000
0001
0100
0001
0000
0000
0000
1000
0000
0000
0000
,
0100
0000
0010
0001
0010
0000
0001
0000
1000
0000
0010
0000
0100
0000
0001
0000
,
1002
0000
0000
1003
0100
0010
0002
0000
,
0000
0103
0010
0100
0001
0010
0100
1000
,
0002
0000
0000
0103
0010
1000
0002
0000
,
1003
0000
0010
0100
0001
0000
0100
0000
0001
0000
1000
0000
0100
0000
0010
0000
,
0120
0000
0000
0130
1000
0010
0200
0000
,
0000
0301
0010
0100
0010
0100
1000
0001
,
0200
0000
0000
0301
1000
0100
0020
0000
,
0031
0010
0001
1000
0010
1000
0010
0100
0001
0100
0001
1000
0001
0010
0100
1000
,
0002
0003
0000
0000
,
2002
0000
0000
0000
0000
0000
3003
0000
0000
0001
0100
0001
0100
0000
0000
0000
0000
0000
0000
0000
0000
0000
0000
0000
,
0220
0330
0000
0000
0202
0303
0000
0000
,
1000
0001
1000
0100
0010
0100
0010
0001
1000
0001
1000
0100
1000
0001
0100
0001
,
1000
0000
0000
0000
0001
0100
0001
1000
0010
1000
0001
0100
0010
0100
0001
1000
,
0100
0010
0001
1000
0100
0010
0100
0010
0001
1000
0001
1000
0010
0100
0010
1000
,
0001
0010
0100
1000
0001
0010
0100
0010
0100
1000
0001
1000
0100
1000
0001
0100
,
0010
0100
0001
1000
0001
1000
0100
0010
0001
1000
0100
1000
0001
0100
0001
1000
,
0010
1000
0010
0100
0001
0100
0001
1000
0010
0100
0010
1000
0001
0100
0001
1000
,
0010
0100
0001
1000
0001
0010
0100
1000
0001
0010
0100
0010
0100
1000
0001
1000
,
0100
0010
0100
1000
0001
0100
0010
0100
0001
1000
0100
0010
0001
1000
0010
1000
,
0001
0100
0001
1000
0100
0010
0001
1000
0010
1000
0010
0100
0001
1000
0001
0010
,
0200
0300
1000
0100
0010
0100
1000
0001
,
0200
0300
0020
0030
0100
0000
0001
0000
0010
0000
0100
0000
1000
0000
0001
0000
,
0200
0300
0002
0003
0010
0000
0200
0300
1000
0000
0001
0000
0100
0000
0010
0000
,
0200
0300
0002
0003
0010
0000
0100
0000
1000
0000
0001
0000
0100
0000
0010
0000
,
1010
0000
1000
0100
0010
0100
1000
0001
,
0200
0300
0020
0030
0100
0000
0001
0000
0010
0000
0100
0000
1000
0000
0001
0000
,
2000
3000
0200
0300
0010
0000
0100
0000
1000
0000
0001
0000
0100
0000
0001
0000
,
0020
0030
0200
0300
1000
0000
0001
0000
0010
0000
0100
0000
0010
0000
0001
0000
,
2000
3000
0002
0003
0100
0000
0001
0000
1000
0000
0001
0000
0100
0000
0001
0000
,
0020
0030
0200
0300
1000
0000
0100
0000
1000
0000
0010
0000
1000
0000
0001
0000
,
0200
0300
0020
0030
1000
0000
0002
0003
1000
0000
0100
0000
0010
0000
0100
0000
,
2000
3000
0002
0003
0100
0000
0010
0000
0100
0000
0001
0000
0010
0000
0100
0000
,
1100
0000
1000
0010
0100
0001
0010
0100
,
2000
3000
0002
0003
1000
0000
0100
0000
0010
0000
0100
0000
1000
0000
0001
0000
,
0200
0300
0020
0030
1000
0000
0010
0000
0100
0000
0001
0000
1000
0000
0010
0000
,
0100
0000
0001
1000
0100
0000
1000
0000
0010
0000
0100
0000
0001
0000
0010
0000
,
1200
0000
0000
1300
0001
1000
0200
0000
,
0000
1300
0100
0010
0100
1000
0001
0100
,
0020
0000
0000
0130
0001
0010
0100
1000
,
0001
0000
0100
0001
0100
0000
0001
0000
0010
0000
0100
0000
1000
0000
0010
0000
,
0200
0000
0000
0301
1000
0100
2000
0000
,
0000
3001
0010
0100
0010
0001
1000
0010
,
0200
0000
0300
0001
0010
0100
1000
0010
,
0100
0000
0001
1000
0100
0000
1000
0000
0001
0000
0100
0000
0010
0000
1000
0000
,
2001
0000
0000
3001
0010
0100
2000
0000
,
0000
3010
0100
0010
1000
0100
0010
0001
,
2000
0000
0000
3010
0100
0001
2000
0000
,
3001
0010
0100
1000
0100
0010
0100
1000
0001
0100
0001
1000
,
0020
0000
0000
0130
0001
1000
0020
0000
,
0000
1030
0100
0010
0100
0010
0001
1000
,
0020
0000
0000
1030
0001
0010
0200
0000
,
1300
0100
1000
0001
0100
0001
0100
0010
1000
0010
1000
0001
1000
0100
0010
0001
,
1000
0001
0010
0100
0010
0001
1000
0100
,
1000
0001
1000
0001
1000
0001
1000
0100
,
0010
0001
0010
0100
1000
0010
0100
0010
,
1000
0001
0100
0001
0100
0001
0100
0010
,
1000
0100
0010
0100
1000
0001
0100
0001
,
1000
0100
1000
0100
1000
0100
1000
0001
,
0010
0100
1000
0001
0010
0100
0010
0001
,
1000
0010
1000
0010
1000
0010
1000
0001
,
0010
0100
0010
0001
1000
0100
0010
0001
,
1000
0010
1000
0010
1000
0010
1000
0001
,
0100
0010
1000
0100
0010
0100
1000
0010
,
0100
0001
0100
0001
0100
0001
0100
0010
,
1000
0100
0010
0001
0010
0100
1000
0001
,
0100
0010
0100
0010
0100
0010
0100
0001
,
1000
0100
0010
0100
1000
0001
0100
0010
,
1000
0000
0001
0000
1000
0000
0100
1000
0100
0000
1000
0000
0001
0000
0100
0000
,
0020
0000
0130
0001
0010
0100
2000
0000
,
3001
0000
0000
0010
0000
0000
0100
0000
0000
0010
0000
0000
0001
0000
1000
0000
0010
0000
0100
0000
0001
0000
1000
0000
,
0200
0000
1300
0100
0010
0100
1000
0000
,
0010
0000
0000
0100
0000
0000
0001
0000
0000
0010
0000
0000
0100
0000
0000
1000
0000
0000
0010
0000
0100
0000
0001
0000
,
0010
0100
1000
0001
1000
0100
0010
0100
1000
0001
0010
0100
,
1000
0001
0100
0001
1000
0010
0100
0010
1000
0001
0100
0001
,
1000
0010
0100
0001
0010
0100
1000
0001
1000
0100
0010
0100
,
1000
0001
0100
0010
0100
0001
0010
0100
1000
0001
0100
0001
,
2000
3000
0001
0010
0100
0010
0002
0003
,
1000
0100
0010
0001
1000
0010
0100
0010
,
2000
3000
0001
0010
0100
0010
0002
0003
,
1000
0000
0000
0010
0000
0000
0100
0000
0000
0001
0000
0000
1000
0000
0100
0000
1000
0000
0001
0000
0100
0000
0001
0000
,
1000
0010
0100
0010
1000
0001
0010
0100
1000
0100
0010
0001
,
0010
0100
1000
0001
0100
0001
1000
0010
0100
0010
1000
0001
,
0010
0100
0010
0001
1000
0100
1000
0001
0100
0010
1000
0001
,
1000
0000
0100
1000
0001
0000
0010
0000
0100
0000
0010
0000
0001
0000
1000
0000
,
2010
0000
0000
3010
0100
0001
0020
0000
,
0000
0130
1000
0010
0100
0001
1000
0100
,
0210
0000
0000
0310
0001
1000
0200
0000
,
1300
0000
0001
0100
0010
0000
0100
0000
0001
0000
0010
0000
0100
0000
1000
0000
,
2001
0000
0000
3001
0100
0010
0200
0000
,
0000
0301
1000
0100
1000
0100
0010
0001
,
2000
0000
0000
3010
0100
0001
0020
0000
,
0130
0000
1000
0001
0100
0000
0001
0000
0010
0000
0100
0000
1000
0000
0001
0000
,
0102
0000
0000
0103
0010
1000
0002
0000
,
0000
0013
0100
0010
0001
1000
0100
1000
,
0020
0000
0000
0130
0001
0010
0200
0000
,
1300
0000
0010
0100
0010
0000
0100
0000
0001
0000
1000
0000
0010
0000
0100
0000
,
0201
0000
0000
0301
1000
0100
0020
0000
,
0000
0031
1000
0100
0010
0100
1000
0010
,
0200
0000
0000
0301
0100
0001
0020
0000
,
0130
0000
1000
0001
0100
0000
0010
0000
0100
0000
0001
0000
1000
0000
0100
0000
,
0210
0000
0000
0310
0001
0010
0200
0000
,
0000
1300
0010
0100
0001
0010
0100
1000
,
0002
0000
0000
0103
0010
0100
0002
0000
,
1003
0001
0010
0100
1000
0001
0100
0001
1000
0010
0100
0001
,
0200
0000
0000
0301
1000
0100
0020
0000
,
0000
0031
0010
0001
1000
0100
0010
0100
,
1200
0000
0000
1300
0010
0100
0002
0000
,
0013
0000
0100
1000
0001
0000
0100
0000
0001
0000
0010
0000
0100
0000
1000
0000
,
2001
0000
0000
3010
0100
0001
0020
0000
,
0000
0130
1000
0100
0010
0001
1000
0010
,
0200
0000
0000
0301
1000
0100
2000
0000
,
3001
0010
0100
0010
0001
1000
0100
0010
0001
1000
0010
0100
,
0002
0000
0000
1003
0100
0010
0200
0000
,
0000
0000
1300
0000
0010
0000
0100
0000
0001
0000
0010
0000
0100
0000
1000
0001
,
2000
0000
3001
0000
0000
0000
1000
0100
1000
0000
0010
0000
0200
0000
0000
0000
,
0301
0000
0010
0100
1000
0000
0001
0000
0100
0000
0001
0000
1000
0000
0010
0000
,
0100
0001
0010
0100
0010
0001
1000
0100
,
1000
0001
1000
0001
1000
0001
1000
0100
,
0010
0001
0010
0100
1000
0010
0100
0010
,
1000
0001
0100
0001
0100
0001
0100
0010
,
1000
0100
0010
0100
1000
0001
0100
0001
,
1000
0100
1000
0100
1000
0100
1000
0001
,
0010
0100
1000
0001
0010
0100
0010
0001
,
1000
0010
1000
0010
1000
0010
1000
0001
,
0010
0100
0010
0001
1000
0100
0010
0001
,
1000
0010
1000
0010
1000
0010
1000
0001
,
0100
0010
1000
0100
0010
0100
1000
0010
,
0100
0001
0100
0001
0100
0001
0100
0010
,
1000
0100
0010
0001
0010
0100
1000
0001
,
0100
0010
0100
0010
0100
0010
0100
0001
,
1000
0100
0010
0100
1000
0001
0100
0010
,
1000
0000
0001
1000
0001
0000
1000
0000
0100
0000
0010
0000
0100
0000
1000
0000
,
0002
0000
0003
1000
0100
0000
1000
0000
,
0010
0100
0000
0100
0001
0000
0010
0000
,
0120
0000
0030
0100
1000
0000
0001
0000
,
1000
0001
0000
0001
0010
0000
0100
0000
,
1200
0000
0300
1000
0010
0000
0100
0000
,
0001
0100
0000
0100
0001
0000
1000
0000
,
2100
0000
3000
0100
0010
0000
0001
0000
,
0010
0100
0000
0100
1000
0000
0001
0001
,
2000
0000
3000
0001
0010
0000
0001
0000
,
0010
0100
0000
0100
1000
0000
0010
0000
,
0120
0000
0000
0130
0001
0000
1000
0000
,
0001
1000
0000
1000
0100
0000
0010
0000
,
0021
0000
0030
0001
0100
0000
0010
0000
,
1000
0010
0000
0010
0100
0000
0001
0000
,
0012
0000
0003
0010
0100
0000
1000
1000
,
0001
0100
0000
0100
0010
0000
1000
0001
,
1001
0000
0000
0010
0100
0000
1000
0000
,
0001
0100
0000
0100
0010
0000
0100
0000
,
0101
0000
0000
0001
0010
0000
0100
0000
,
1000
0100
0000
0100
1000
0000
0001
0000
,
1001
0000
0000
1000
0100
0000
0010
0000
,
0001
0100
0000
0100
0010
0000
0100
0000
,
0110
0000
0000
0010
1000
0000
0001
0000
,
1000
0100
0010
0001
1000
0010
0100
0000
,
0101
0000
0000
0001
0100
0000
0010
0000
,
1000
0100
0000
0100
1000
0000
0001
0000
,
1001
0000
0000
1000
0100
0000
0010
0000
,
0100
1000
0000
1000
0001
0000
0100
0000
,
0110
0000
0000
0010
1000
0000
0100
0000
,
0010
0001
0000
0001
0010
0000
0100
0000
,
1100
0000
0000
1000
0100
0000
1000
0010
,
0000
1000
0100
0000
1000
0010
0000
0100
;
