#TITLE:Run To Forest;
#SUBTITLE:;
#ARTIST:Pory;
#TITLETRANSLIT:;
#SUBTITLETRANSLIT:;
#ARTISTTRANSLIT:;
#CREDIT:;
#BANNER:runtoforest-bn.png;
#BACKGROUND:runtoforest-bg.png;
#LYRICSPATH:;
#CDTITLE:!Dan23!.png;
#MUSIC:Run To Forest.MP3;
#OFFSET:-0.560;
#SAMPLESTART:48.100;
#SAMPLELENGTH:12.000;
#SELECTABLE:YES;
#BPMS:0.000=160.000;
#STOPS:;
#BGCHANGES:;
// cache tags:
#FIRSTBEAT:16.000;
#LASTBEAT:261.000;
#SONGFILENAME:Songs/Fabulously Fresh Flock of Fantastic Files F5/(Dan23) Run To Forest/Run To Forest.sm;
#HASMUSIC:1;
#HASBANNER:1;
#MUSICLENGTH:112.195;
// end cache tags

//---------------dance-single - ----------------
#NOTES:
     dance-single:
     :
     Hard:
     12:
     1.000,1.000,1.000,0.446,1.000,672.000,150.000,50.000,0.000,0.000:
0000
0000
0000
0000
,
0000
0000
0000
0000
,
0000
0000
0000
0000
,
0000
0000
0000
0000
,
0010
0000
0100
0100
0000
0001
0001
1000
,
1100
0000
0010
0010
0000
1000
1000
0001
,
0001
0010
0100
1000
0010
0100
0001
1000
0100
1000
0001
0010
0100
1000
0100
0010
,
0001
0000
0000
0000
0000
0000
0100
0000
0000
0000
0000
0000
0010
0000
0000
0000
0000
0000
1000
0000
0000
0000
0000
0000
0100
0000
0000
0000
0000
0000
0010
0000
0000
0000
0000
0000
0001
0000
0000
0000
0000
0000
1000
0000
0000
0000
0000
0000
0100
0000
0000
0000
0000
0000
0010
0000
0000
0000
0000
0000
0001
0000
0000
0000
0000
0000
0100
0000
0000
0000
0000
0000
0010
0000
0000
0000
0000
0000
1000
0000
0000
0000
0000
0000
0001
0000
0000
0000
0000
0000
0010
0000
0000
0000
0000
0000
0100
0000
0000
0000
0000
0000
0000
0000
1000
0000
0000
0000
0000
0000
0000
0000
0010
0000
0000
0000
0000
0000
0000
0000
0100
0000
0000
0000
0000
0000
0000
0000
0001
0000
0000
0000
0000
0000
0000
0000
0010
0000
0000
0000
0000
0000
0000
0000
0100
0000
0000
0000
0000
0000
0000
0000
0000
0000
0000
0000
1000
0000
0000
0000
0000
0000
0000
0000
0000
0000
0000
0000
0010
0000
0000
0000
0000
0000
0000
0000
0000
0000
0000
0000
0100
0000
0000
0000
0000
0000
0000
0000
0000
0000
0000
0000
,
1001
0000
1000
0010
0100
0000
0101
0000
1000
0000
0001
0100
0010
1000
0000
0001
,
0101
0000
1000
0100
0010
0000
0011
0000
1100
1001
0000
0010
0100
0000
0110
0001
,
1000
0000
0010
0010
0100
0001
1000
0010
0100
0000
0001
1000
0110
0000
1010
0000
,
1001
0000
0000
0000
0000
0000
0110
0000
0000
0001
0000
0000
1000
0000
0000
0100
0000
0000
0010
0000
0000
0001
0000
0000
1100
0000
0000
0000
0000
0000
0100
0000
0000
0010
0000
0000
0001
0000
0010
0000
0100
0000
1000
0000
0010
0000
0100
0000
,
1001
0000
0100
0010
1100
0000
1001
0000
1000
0000
0010
0100
0001
0010
0100
1000
,
0110
0000
0010
0010
0100
0000
0010
0000
1001
0001
0000
1000
1100
0010
0100
0001
,
0011
0000
0100
0010
1000
0001
0110
0000
1000
0010
0100
0001
1000
0000
1000
0000
,
0101
0000
0000
0010
0000
0000
0000
0000
0000
1000
0000
0000
0110
0000
0000
0000
0000
0000
0001
0000
0000
0010
0000
0000
1100
0000
0000
0000
0000
0000
0001
0000
0000
0100
0000
0000
0010
0000
0000
0010
0000
0000
0010
0000
0000
0000
0010
0000
,
1100
0000
0001
0100
1010
0000
0101
0000
1000
0010
0100
0001
0010
0100
1000
0000
,
0101
0000
0100
0010
0100
0000
1010
0000
0001
0000
1100
0000
1001
0101
0000
0100
,
1001
0000
0010
0010
0100
0000
1100
0000
0001
0010
0100
1000
0101
0000
1001
0000
,
1010
0000
0010
0100
0001
0000
0001
0001
1000
0000
0110
0000
1001
0000
0010
0010
,
1010
0000
0110
0000
0101
0000
1000
0100
0010
0000
0011
0000
0001
0010
0100
0010
,
1001
0000
0001
1000
0001
0001
0001
0000
1010
0000
1000
0010
0100
0000
1010
0000
,
0101
0000
1001
0000
0010
0010
0110
0000
1100
0000
0010
0100
0001
0000
1100
0000
,
0101
0000
1001
0000
0000
0000
0100
0000
0010
0000
0000
0000
1010
0000
0000
0000
0101
0000
0000
0000
1000
0100
0010
0001
1000
0000
0010
0000
0100
0000
0001
0000
,
0110
0000
0220
0330
1000
0000
1000
0000
0000
0000
1000
0000
1000
0000
1000
0000
,
0101
0000
0000
0000
0010
0000
0010
0000
0000
0000
0001
0000
0001
0000
2000
3200
,
0320
0030
0000
0002
0000
0003
2000
0000
3000
0000
0010
0000
0010
0000
0010
0000
,
1001
0000
0100
0100
0000
0001
0010
0100
,
1000
0000
2020
3030
0001
0000
0001
0000
0000
0000
0001
0000
0001
0000
0100
0000
,
0110
0000
0000
0000
1000
0000
1010
0000
0000
0000
0001
0000
0100
0000
0002
0203
,
0320
0030
2000
0000
3000
0002
0000
0003
2000
0000
3000
0200
0000
0300
0010
0000
,
0022
0000
0000
0000
0000
0000
0033
0000
0100
0000
0010
0000
1000
0000
0000
0000
0001
0100
0010
1000
0100
0010
0001
0100
0010
0000
1000
0000
0010
0000
0100
0000
,
1001
0000
0100
0010
1000
0000
1010
0000
0010
0000
1100
0000
0001
0000
1000
1000
,
0101
0000
0100
0010
1001
0000
0100
0010
1000
0000
0011
0000
1100
0000
0010
0000
,
1001
0000
0100
0010
1000
1000
1000
0000
0101
0000
1000
0100
0010
0100
1000
0100
,
0010
0001
0010
0100
0010
0001
1000
0010
0100
0001
1000
0000
0110
0000
1000
0001
,
1100
0000
0010
0100
0001
0010
0100
1000
0100
0010
0001
1000
1000
0001
0110
0000
,
1001
0100
0010
1000
0101
0000
1010
0000
1000
0100
0010
0001
1100
0010
0100
0001
,
1000
0000
0110
0000
1100
0010
1000
0000
1001
0000
0100
0010
0100
0000
0100
0000
,
1010
0000
0011
0000
1000
0010
0100
0000
1010
0000
0001
0001
1000
0000
0110
0000
,
1010
0000
0001
0010
0100
0000
1100
0000
0110
0000
0010
0001
0010
0100
1000
0001
,
0110
0000
1000
0100
0010
0000
1001
0000
1100
0101
0000
1000
0110
0000
0001
0010
,
1100
0000
0001
0100
0010
1000
0010
0100
1001
0000
0100
0010
0100
0001
1000
0000
,
0101
0000
0000
0000
0000
0000
1000
0000
0000
0000
0000
0000
0010
0000
0000
0100
0000
0000
0010
0000
0000
1000
0000
0000
0100
0000
0000
0000
0000
0000
0010
0000
0000
0001
0000
0000
0100
0000
0000
0010
0000
0000
1000
0000
0001
0000
1000
0000
,
0110
0000
0100
0010
1000
0100
1000
0000
0001
0000
0101
0000
1100
0000
0010
0100
,
0001
0010
0000
0100
1000
0010
0100
0001
1000
1000
0000
1000
0010
0100
0001
1000
,
0110
0000
1100
0000
0001
0010
0100
1000
0101
0000
1000
0010
0100
0000
0100
0000
,
1001
0001
0000
0100
0010
1000
0001
0100
0010
0000
1001
0000
0010
0010
0010
0010
,
0101
0000
0100
0010
1000
0000
1001
0000
1100
0000
0101
0000
1000
0000
0010
0100
,
1001
0000
0100
0010
0100
0000
1001
0000
0110
0000
1100
0000
0011
0000
2000
3200
,
0320
0030
0000
0022
0000
0033
2002
0000
3003
0000
0100
1000
0100
0010
0001
0100
,
1001
0000
0100
0010
1000
0000
1000
0100
0010
0000
0001
0001
1000
0000
0010
0100
,
1001
0000
0100
0010
1000
0000
0101
0000
1001
0000
0110
0000
1000
0000
0110
0010
,
1001
0000
0100
0010
0100
0000
0101
0000
1010
0000
1000
0010
0100
0000
0002
0203
,
0320
0030
0000
2000
0000
3000
0002
0000
0023
0000
0030
0200
0000
0300
2000
0000
,
3001
0000
0000
0010
0000
0000
0100
0000
0000
1000
0000
0000
0010
0000
0000
0100
0000
0000
0001
0000
0000
1000
0000
0000
0100
0000
0000
0010
0000
0000
0001
0000
0000
0100
0000
0000
0010
0000
1000
0000
0001
0000
0010
0000
0100
0000
1000
0000
,
1001
0000
0100
0010
1100
0000
1001
0000
1000
0000
0010
0100
0001
0000
1000
0100
,
0011
0000
0100
1000
0110
0000
0011
0000
1100
0000
0010
0100
0001
0000
2000
3020
,
0230
0300
0000
0202
0000
0303
2002
0000
0000
3003
0100
1000
0010
0100
0001
0010
,
1100
0000
0001
1000
0010
0000
0110
0000
1010
0000
0001
0100
1010
0000
0001
0001
,
1100
0000
0101
0000
1001
0000
0100
0010
0100
0000
1010
0000
0101
0000
1000
0100
,
0010
0000
0011
0000
1100
1001
0000
0100
1001
0000
0010
0000
1100
0000
0002
0203
,
0320
0000
0000
0000
0030
0000
0000
0000
0000
0000
0000
0000
2000
0000
0000
0000
0000
0000
0000
0000
3000
0000
0000
0000
0002
0000
0000
0000
0000
0000
0000
0000
0203
0000
0000
0000
0000
0000
0000
0000
0300
0000
0000
0000
0020
0000
0000
0000
0000
0000
0000
0000
0030
0000
0000
0000
2000
0000
0000
0000
0000
0000
0000
3000
,
0101
0000
0000
1000
0000
0000
0010
0000
0000
0100
0000
0000
0001
0000
0000
0010
0000
0000
0100
0000
0000
1000
0000
0000
0001
0000
0000
0100
0000
0000
0010
0000
0000
1000
0000
0000
0001
0000
0010
0000
0100
0000
1000
0000
0010
0000
0100
0000
,
2002
0000
0000
0000
,
0000
3003
0000
0000
;
