#TITLE:Senses;
#SUBTITLE:;
#ARTIST:JT.1UP;
#TITLETRANSLIT:;
#SUBTITLETRANSLIT:;
#ARTISTTRANSLIT:;
#CREDIT:;
#BANNER:Senses--BN.png;
#BACKGROUND:Senses--BG.png;
#LYRICSPATH:;
#CDTITLE:;
#MUSIC:Senses.mp3;
#OFFSET:0.000;
#SAMPLESTART:49.992;
#SAMPLELENGTH:12.000;
#SELECTABLE:YES;
#BPMS:0.000=120.020;
#STOPS:;
#BGCHANGES:;
// cache tags:
#FIRSTBEAT:0.000;
#LASTBEAT:207.000;
#SONGFILENAME:Songs/toune 6/Senses/Senses.sm;
#HASMUSIC:1;
#HASBANNER:1;
#MUSICLENGTH:104.019;
// end cache tags

//---------------dance-single - ----------------
#NOTES:
     dance-single:
     :
     Beginner:
     2:
     0.174,0.174,0.000,0.154,0.000,111.000,0.000,16.000,0.000,0.000:
0000
1000
0100
0000
,
0010
0100
0000
0001
,
0010
0000
0100
0010
,
0000
1000
0100
0000
,
0100
0100
0000
0010
,
0100
0010
0000
1000
,
0100
0000
0010
0100
,
0000
0010
0010
0000
,
0100
0010
1000
0000
,
0200
0000
0300
0000
,
2000
0000
3000
0000
,
0020
0000
0030
0000
,
0100
0010
0000
1000
,
0000
0100
0000
0010
,
0100
0001
0001
0010
,
0000
1000
0000
0100
,
0010
0100
0000
0200
,
0000
0300
0000
0020
,
0000
0030
0000
2000
,
0000
3000
0000
0010
,
0100
0010
0000
0100
,
1000
0000
0000
0010
,
0100
0000
0001
0010
,
0000
0000
0100
0000
,
0010
0100
0100
0000
,
0000
1000
0100
0000
,
0010
0100
0000
0100
,
1000
0000
0000
0010
,
0000
0100
0010
0000
,
0000
0001
0010
0000
,
0200
0000
0000
0300
,
0020
0000
0000
0030
,
2000
0000
0000
3000
,
0200
0000
0000
0300
,
0000
1000
0100
0000
,
0010
0100
0000
0010
,
0001
0010
0000
0100
,
0010
0100
0000
1000
,
0100
0000
0010
0000
,
0100
0010
0100
0000
,
0200
0000
0000
0300
,
0000
2000
3100
0000
,
0010
0100
0010
0000
,
0002
0000
0000
0003
,
0010
0100
0000
2000
,
0000
3000
0000
0200
,
0000
0000
0300
0020
,
0000
0000
0030
1000
,
0100
0010
0000
0100
,
0010
0100
0000
0001
,
0010
0100
0000
1000
,
0100
0000
0000
0010
;

//---------------dance-single - ----------------
#NOTES:
     dance-single:
     :
     Easy:
     4:
     0.251,0.348,0.144,0.163,0.000,151.000,15.000,17.000,0.000,0.000:
2000
0000
0000
3000
,
0100
0010
0100
0010
,
0002
0000
0000
0003
,
0100
1000
0100
1000
,
0020
0000
0000
0030
,
0100
0010
0100
0001
,
0020
0000
0000
0030
,
0000
0000
1000
0001
1000
0000
0100
0000
,
0010
0100
2000
0000
,
0000
0000
3000
0000
0100
0010
0100
0000
,
1000
0001
1000
0000
,
0100
0010
0100
1000
,
0100
0110
1000
0101
,
0100
1010
0100
0100
,
0010
0100
0001
0020
,
0000
0000
0030
0000
,
2000
0000
0000
3000
,
1000
0100
0010
0000
0100
0000
0010
0000
,
0100
1000
0100
0010
,
0100
0001
0000
0110
,
1000
0010
0100
0001
,
0010
0100
0010
0000
,
0200
0000
0000
0000
,
0300
0000
1000
0100
0010
0000
0100
0000
,
0010
0100
0001
0010
,
0100
0100
0110
1000
,
1010
0100
0011
0010
,
0110
1000
0100
0010
,
0001
0020
0000
0000
,
0000
0030
0100
0200
,
0000
0000
0000
0300
,
1000
0100
0010
0000
0010
0000
0100
0010
,
0002
0000
0000
0003
,
0200
0000
0000
0300
,
2000
0000
0000
3000
,
0020
0000
0000
0000
,
0230
0000
0000
0000
,
0300
1000
0100
0010
,
0100
0010
0100
0001
,
0010
0100
1100
0010
,
0011
0000
0010
0000
0110
0000
1000
0100
,
0010
1000
0110
1000
,
1010
0100
0001
0010
,
0110
0000
0100
1000
,
0000
0000
1000
0100
,
0000
0010
0100
0010
,
0000
0000
1000
0000
0100
0010
0100
0000
,
1100
0010
0001
0010
,
0100
0000
0010
0100
,
0010
1000
0200
0000
,
0000
0300
0020
0000
,
0000
0000
0030
0000
0100
0010
0100
0000
;

//---------------dance-single - Copied from----------------
#NOTES:
     dance-single:
     Copied from:
     Medium:
     7:
     0.349,0.364,0.471,0.510,0.000,152.000,49.000,53.000,0.000,0.000:
2200
0000
0000
3300
,
0110
1010
0110
0011
,
0110
1001
0110
0110
,
1000
0000
0100
0000
0010
0001
0010
0000
,
0101
0000
1010
0000
0100
0000
0010
1000
,
0100
0100
0100
0010
,
0001
0120
0100
0100
,
0130
0000
1000
0001
1000
0001
1000
0001
,
2200
0000
0000
3300
,
0022
0000
0000
0033
,
0220
0000
0000
0330
,
2020
0000
0000
3030
,
0220
0000
0000
0330
,
1000
0100
0010
0000
0001
0010
0100
0000
,
0220
0000
0000
0330
,
2200
0000
0000
3300
,
0022
0000
0000
0033
,
0220
0000
0000
0330
,
1000
0100
0010
0000
0001
0010
0100
0000
,
0110
0000
1010
0000
0110
0000
0001
0010
,
0100
0000
1000
0100
0010
0000
0110
0000
,
1010
0011
1001
0220
,
0000
0000
0000
0330
,
2200
0000
0000
3300
,
0022
0000
0000
0033
,
1000
0100
0010
0000
0001
0010
0100
0000
,
0010
0100
0010
0000
1000
0100
0010
0000
,
2200
0000
0000
3300
,
0022
0000
0000
0033
,
0220
0000
0000
0330
,
2002
0000
0000
3003
,
2020
0000
0000
3030
,
0100
0010
0100
0000
0001
0010
0100
0000
,
0010
0100
1000
0000
0010
0100
0001
0000
,
0010
0100
1000
0000
0010
0100
0001
0000
,
0010
0100
1000
0000
0100
0010
1000
0000
,
0010
0100
0001
0000
0010
0001
0100
0000
,
0010
0100
0010
0000
2200
0000
0000
0000
,
0000
3300
0220
0000
,
0000
0330
0202
0000
,
0000
0303
2020
0000
,
0000
3030
0220
0000
,
0000
0000
0330
0000
1001
0000
0010
0100
,
0010
0000
1000
0100
0010
0000
0001
0010
,
0100
1010
0110
0011
,
0110
0000
2200
0000
,
0000
0000
0000
0000
3300
0000
0100
0010
,
0001
0000
0100
0010
0100
0000
1000
0100
,
0010
2200
0000
0000
,
0000
3300
0220
0000
,
0000
0000
0330
0000
;

//---------------dance-single - ----------------
#NOTES:
     dance-single:
     :
     Hard:
     9:
     0.409,0.443,0.327,0.365,0.062,226.000,34.000,38.000,0.000,0.000:
2020
0000
0000
3030
,
0220
0000
0000
0330
,
1000
0100
0010
0100
0010
0001
0010
0100
,
1000
1100
0110
0011
,
0010
0100
0010
0100
1000
0100
0010
0001
,
1000
0000
1100
0000
0010
0100
0010
0100
,
0001
0010
0100
1000
0000
0000
0000
0000
,
1000
0001
1000
0001
0000
0100
0010
0000
0100
0010
0000
1000
,
0200
0010
0020
0300
,
0000
0000
0000
0000
0030
0000
1000
0001
,
2020
0000
0000
0000
,
3030
2020
0000
0000
,
3030
0220
0000
0000
,
0330
0000
1100
0010
0001
0010
0100
0001
,
0110
0000
0100
0010
1000
0010
0100
0001
,
0010
0100
0010
0001
0010
0100
1000
0100
,
0010
0100
0001
1000
1000
0001
0010
0100
,
0000
2000
0000
0200
,
3000
0020
0300
0032
,
0000
0003
0010
0100
,
0001
0000
0000
1000
0100
0010
0100
0001
,
0010
0100
0010
0100
1000
0100
0001
0010
,
1000
0000
0100
0000
0010
0000
0100
0000
0001
0000
0010
0000
1100
0000
0000
0000
0000
0000
0100
0000
0000
0010
0000
0000
,
0100
0001
0010
0100
1000
0010
0100
0001
,
0000
0200
0020
0000
,
0300
0030
1100
0011
,
0110
0000
1010
0000
0100
0010
0100
0001
,
0010
0100
1000
0010
0100
0010
0100
0000
,
1100
0110
0002
0020
,
0000
0003
0030
0200
,
2000
0000
0300
3000
,
0220
0000
0000
0330
,
2000
0000
0200
0000
,
3300
0020
0002
0000
,
0033
0000
1100
0000
0110
0000
1000
0100
,
0010
0001
0010
0100
0010
0100
0001
0010
,
0100
1000
0010
0100
0001
0010
0100
1000
,
1100
0110
0011
0110
,
1010
0110
0011
0110
,
1010
0110
0011
2000
,
0020
0000
0000
3030
,
0200
0002
0000
0303
,
1000
0100
0010
0100
0001
0010
0100
0010
,
0100
0010
1000
0100
0010
0001
0000
0000
,
1100
0110
2000
0020
,
0000
0000
3030
0002
,
0000
0020
0000
0033
,
1000
0100
0010
0001
0000
0010
0100
0001
,
0001
0000
0000
0000
0000
0000
0100
0000
0000
1000
0000
0000
0010
0000
0000
0100
0000
0000
0000
0000
1000
0000
0001
0000
,
0010
0000
0100
0000
0010
0000
0001
0000
0000
1000
0000
0000
0100
0000
0000
0010
0000
0000
0100
0000
0000
0001
0000
0000
,
0010
0200
0020
0300
,
0100
0130
0000
0000
;
