#TITLE:Guitarstar;
#SUBTITLE:;
#ARTIST:Unknown artist;
#TITLETRANSLIT:;
#SUBTITLETRANSLIT:;
#ARTISTTRANSLIT:;
#CREDIT:;
#BANNER:Disc.bmp;
#BACKGROUND:Title.png;
#LYRICSPATH:;
#CDTITLE:;
#MUSIC:Song.mp3;
#OFFSET:-0.840;
#SAMPLESTART:22.943;
#SAMPLELENGTH:12.000;
#SELECTABLE:YES;
#BPMS:0.000=272.200;
#STOPS:;
#BGCHANGES:;
// cache tags:
#FIRSTBEAT:0.000;
#LASTBEAT:511.500;
#SONGFILENAME:Songs/juju steps/GUITAR STAR/GUITAR STAR.sm;
#HASMUSIC:1;
#HASBANNER:1;
#MUSICLENGTH:114.946;
// end cache tags

//---------------pump-single - crazy_1----------------
#NOTES:
     pump-single:
     crazy_1:
     Hard:
     8:
     0.843,0.946,0.270,0.557,0.674,581.000,31.000,64.000,0.000,4.000:
10000
00100
10000
00100
10000
00100
10000
00100
,
10000
00100
10000
00100
10000
00100
10000
00100
,
10000
00100
10000
00100
10000
00100
10000
00100
,
10000
00100
10000
00100
10000
00100
10000
00100
,
10000
00100
10000
00100
10000
00100
10000
00100
,
10000
00100
10000
00100
10000
00100
10000
00100
,
10000
00100
10000
00100
10000
00100
10000
00100
,
10000
00100
10000
00100
10000
00100
10000
00000
,
00101
00000
00101
00000
,
00000
00000
00000
00001
00100
00000
00110
00000
,
10000
00100
10000
00000
10000
00000
00000
00000
,
00000
00000
00000
10000
00100
00000
01100
00000
,
10000
01000
00100
10000
01000
00100
10000
01000
,
00100
10000
01000
00100
10000
01000
00100
10000
,
01000
00100
10000
01000
00100
10000
01000
00100
,
10000
00000
01000
00000
00100
10000
00000
01000
00000
00100
00000
01000
00100
00000
00000
00000
,
10000
01000
00100
01000
,
00100
10000
00001
00010
,
00100
10000
00100
00001
,
10000
01000
00101
00100
,
01000
00010
00100
01000
,
00001
00010
00100
01000
,
00100
01000
00100
00010
,
00100
01000
10100
00010
,
10000
00001
00010
00100
,
00010
00001
00100
01000
,
00100
10000
01000
00100
,
01000
10000
11000
10000
,
00001
00010
01000
10000
,
01000
10000
00001
00010
,
00100
01000
00100
10000
,
00001
00010
00100
11000
,
00011
00000
00000
00000
00100
00000
00000
00000
00010
00000
00000
00000
00000
00001
00000
00010
,
00000
00100
00000
01000
00000
10000
00000
01000
00000
00100
00000
00010
00000
00001
00000
00000
,
11000
00000
00000
00000
00100
00000
00000
00000
01000
00000
00000
00000
00000
10000
00000
01000
,
00000
00100
00000
00010
00000
00001
00000
00010
00000
00100
00000
01000
00000
10000
00000
00000
,
00101
00000
00000
00000
00100
00000
00000
00000
00010
00000
00000
00000
00000
00001
00000
00010
,
00000
00100
00000
01000
00000
10000
00000
01000
00000
00100
00000
00010
00000
00001
00000
00000
,
10100
00000
00000
00000
00100
00000
00000
00000
01000
00000
00000
00000
00000
10000
00000
01000
,
00000
00100
00000
00010
00000
00001
00000
00010
00000
00100
00000
01000
00000
10000
00000
00000
,
11000
00000
00000
00000
00100
00000
00000
00000
01000
00000
00000
00000
00000
10000
00000
00100
,
00000
10000
00000
00010
00000
10000
00000
00100
00000
10000
00000
00010
00000
10000
00000
00000
,
00011
00000
00000
00000
00100
00000
00000
00000
00010
00000
00000
00000
00000
00001
00000
00100
,
00000
00001
00000
01000
00000
00001
00000
00100
00000
00001
00000
01000
00000
00001
00000
00000
,
10101
00000
00000
00000
10000
00000
00000
00000
00001
00000
00000
00000
00000
00001
00000
00100
,
00000
10000
00000
00100
00000
00001
00000
00100
00000
10000
00000
00100
00000
00001
00000
00000
,
01110
00000
00000
00000
00001
00000
00000
00000
10000
00000
00000
00000
00000
01000
00000
00100
,
00000
00010
00000
00100
00000
01000
00000
00100
00000
00010
00000
00100
00000
01000
00000
00000
,
02020
00000
00100
00000
,
00000
00000
00000
03130
10000
00000
00101
00000
,
10000
10000
10100
00000
,
00000
00000
00000
01000
00100
00000
00010
00000
,
00001
00001
10000
00000
,
00000
00000
00000
00010
00100
00000
01000
00000
,
00010
01000
01010
00000
,
00000
00000
00000
10000
00010
00000
01000
00000
,
01000
00000
00010
00000
01010
00000
00000
00100
,
00000
00000
00000
00001
01000
00000
10001
00000
,
00001
10000
00001
00000
10001
00000
00000
00000
,
00000
00000
00000
00010
00001
00100
01000
00000
,
00001
10000
00001
00010
00100
01000
00001
00100
,
00001
01000
00001
10000
01000
00100
00010
10000
,
00100
10000
01000
10000
00010
00100
10000
00001
,
00010
00100
01000
10000
01000
00100
00010
00001
,
00001
00000
00000
00000
00000
00000
00000
00000
00000
00000
00000
00000
00020
00000
00000
00030
,
00200
02300
03020
02030
,
00000
23000
00000
00000
,
32000
03200
00320
02030
,
03010
00000
00000
00000
00000
00000
00000
00000
00000
00000
00000
00000
00000
00020
00000
00000
,
00000
00230
00000
00000
00000
00302
00000
00000
00000
02003
00000
00000
00000
23000
00000
00000
,
00000
00000
00000
00000
00000
00000
00000
00000
00000
31000
00000
00000
00000
10000
00000
00000
,
00000
00200
00000
00000
00000
00302
00000
00000
00000
00023
00000
00000
00000
00000
00000
00000
,
00000
20030
00000
00000
00000
00000
00000
00000
00000
00000
00000
00000
00000
32000
00000
00000
,
00000
03200
00000
00000
00000
00302
00000
00000
00000
00023
00000
00000
00000
20030
00000
00000
,
00000
00000
00000
00000
00000
30002
00000
00000
00000
00000
00000
00000
00000
00000
00000
00000
,
00000
00013
00000
00000
00000
00100
00000
00000
00000
01000
00000
00000
00000
20000
00000
00000
,
00000
30200
00000
00000
00000
00000
00000
00000
00000
00000
00000
00000
00000
02300
00000
00000
,
00000
23000
00000
00000
00000
30200
00000
00000
00000
00320
00000
00000
00000
00032
00000
00000
,
00000
00000
00000
00000
00000
00023
00000
00000
00000
00000
00000
00000
00000
00000
00000
00000
,
00000
00031
00000
00000
00000
00100
00000
00000
00000
01000
00000
00000
00000
10000
00000
00000
,
00000
20000
00000
00000
00000
00000
00000
00000
00000
00000
00000
00000
00000
31000
00000
00000
,
00000
00100
00000
00000
00000
00010
00000
00000
00000
02000
00000
00000
00000
03020
00000
00000
,
00000
00000
00000
00000
00000
00032
00000
00000
00000
00000
00000
00000
00000
00000
00000
00000
,
00000
00013
00000
00000
00000
00100
00000
00000
00000
02000
00000
00000
00000
03020
00000
00000
,
00000
01030
00000
00000
00000
00000
00000
00000
00000
00000
00000
00000
00000
02000
00000
00000
,
00000
03200
00000
00000
00000
20300
00000
00000
00000
30020
00000
00000
00000
00032
00000
00000
,
00000
00000
00000
00000
00000
00000
00000
00000
00000
00013
00000
00000
00000
00001
00000
00000
,
00000
00200
00000
00000
00000
20300
00000
00000
00000
32000
00000
00000
00000
00000
00000
00000
,
00000
03002
00000
00000
00000
00000
00000
00000
00000
00000
00000
00000
00000
00023
00000
00000
,
00000
00230
00000
00000
00000
20300
00000
00000
00000
32000
00000
00000
00000
03002
00000
00000
,
00000
00000
00000
00000
00000
20003
00000
00000
00000
00000
00000
00000
00000
00000
00000
00000
,
00000
31000
00000
00000
00000
00100
00000
00000
00000
00010
00000
00000
00000
00002
00000
00000
,
00000
00203
00000
00000
00000
00000
00000
00000
00000
00000
00000
00000
00000
00320
00000
00000
,
00000
00032
00000
00000
00000
00203
00000
00000
00000
02300
00000
00000
00000
23000
00000
00000
,
00000
00000
00000
00000
00000
32000
00000
00000
00000
00000
00000
00000
00000
00000
00000
00000
,
00000
13000
00000
00000
00000
00100
00000
00000
00000
00010
00000
00000
00000
00001
00000
00000
,
00001
00100
00001
00100
00001
00100
00001
00100
,
00001
00100
00001
00100
00001
00100
00001
00000
,
00000
00000
00000
00000
,
01000
00000
00100
00000
00010
00000
00000
00100
,
10000
00100
10000
00100
10000
00100
10000
00100
,
10000
00100
10000
00100
10000
00100
10000
00000
,
00000
00000
00000
00000
,
00000
00000
10000
00000
00000
00100
01000
00100
,
01000
00100
01000
00100
01000
00100
01000
00100
,
01000
00100
01000
00100
01000
00000
00000
00000
,
00000
00000
00000
00000
,
00000
00000
00100
00000
00000
00010
00100
00010
,
00100
00010
00100
00010
00100
00010
00100
00010
,
00100
00010
00100
00010
00100
00000
00000
00000
,
10000
01000
00100
00010
,
00100
01000
00001
00100
,
10000
00100
00011
01000
,
00100
01000
10000
00100
,
01000
10000
11000
00100
,
00010
00100
00010
00001
,
00100
01000
00110
00001
,
00100
10000
00100
00010
,
01000
00100
01010
10000
,
00100
00010
01000
10000
,
00110
00000
00000
00000
00001
00000
00000
00000
00101
00000
00000
00000
00000
10000
00000
00100
,
00000
10000
00000
00000
00000
00000
00001
00000
00100
00000
00000
00000
00110
00000
00000
00000
,
10000
00100
10000
00000
10000
00000
00000
00000
,
00000
00000
00000
00001
00100
00000
01100
00000
,
00001
00010
00100
10000
01000
00100
00010
00001
,
00010
00100
10000
01000
00100
00010
00001
00010
,
00100
10000
01000
00100
00010
00001
00010
00100
,
10000
01000
00100
00010
00001
00010
00100
01000
;
