#TITLE:Brain 30;
#SUBTITLE:(Train Psycho 303 Mix);
#ARTIST:D-Noiser;
#TITLETRANSLIT:;
#SUBTITLETRANSLIT:;
#ARTISTTRANSLIT:;
#CREDIT:owenviau1;
#BANNER:../Banner.png;
#BACKGROUND:../BG.png;
#LYRICSPATH:;
#CDTITLE:../CDTitleOV1.png;
#MUSIC:D-Noiser - Brain 30 (Train Psycho 303 Mix).ogg;
#OFFSET:-0.174;
#SAMPLESTART:237.773;
#SAMPLELENGTH:29.999;
#SELECTABLE:YES;
#BPMS:0.000=135.985;
#STOPS:;
#BGCHANGES:;
// cache tags:
#FIRSTBEAT:0.000;
#LASTBEAT:946.500;
#SONGFILENAME:Songs/Index Fusion - Part 2/Brain 30 (Train Psycho 303 Mix) -[Owen]/D-Noiser - Brain 30 (Train Psycho 303 Mix).sm;
#HASMUSIC:1;
#HASBANNER:1;
#MUSICLENGTH:420.153;
// end cache tags

//---------------dance-single - owenviau1----------------
#NOTES:
     dance-single:
     owenviau1:
     Hard:
     14:
     1.000,0.929,0.033,0.012,1.000,3105.000,14.000,5.000,24.000,0.000:
1000
0100
0010
0000
0010
0000
0000
0000
0001
1000
0100
0000
0100
0000
0000
0000
,
0010
0001
1000
0000
1000
0000
0000
0000
0010
0100
0001
0000
0001
0000
0000
0000
,
1000
0100
1000
0000
1000
0000
0000
0000
0010
0100
0001
0000
0001
0000
0000
0000
,
1000
0010
0100
0000
0100
0000
0000
0000
0001
1000
0001
0000
0001
0000
0000
0000
,
0010
0100
1000
0000
1000
0000
0000
0000
0100
0010
0001
0000
0001
0000
0000
0000
,
0100
0010
1000
0000
1000
0000
0000
0000
0010
0100
0001
0000
0001
0000
0000
0000
,
1000
0100
0010
0000
0010
0000
0000
0000
0001
1000
0010
0000
0010
0000
0000
0000
,
0100
0001
1000
0000
2000
0000
0000
0000
00M0
0M00
000M
0000
3100
0000
0010
0000
,
0001
1000
0010
1000
0100
0000
0010
0000
0001
1000
0100
1000
0010
0000
0100
0000
,
0001
1000
0100
1000
0010
0000
0100
0000
0001
1000
0001
0010
0100
0000
1000
0000
,
0001
0010
0001
0100
0010
0000
1000
0000
0100
1000
0001
0100
0010
0000
1000
0000
,
0010
0100
0001
0100
0010
0000
1000
0000
0001
0010
0100
1000
0010
0000
0100
0000
,
0001
1000
0100
1000
0010
0000
0100
0000
0001
1000
0001
0010
0100
0000
1000
0000
,
0010
0100
0001
1000
0100
0000
1000
0000
0001
0010
0100
1000
0001
0000
0100
0000
,
0010
1000
0010
0100
0001
0000
1000
0000
0100
0010
0001
1000
0001
0000
0100
0000
,
0010
1000
0010
0100
0001
0000
1000
0000
0100
0010
0001
1000
1001
0000
0010
0000
,
0100
0001
1000
0010
0100
0000
0010
0000
1000
0001
1000
0010
1000
0000
0100
0000
,
0010
0001
0010
0100
1000
0000
0001
0000
0100
0010
1000
0010
0100
0000
0001
0000
,
1000
0100
0010
0001
0100
0000
0010
0000
1000
0100
1000
0001
0100
0000
0010
0000
,
1000
0001
0010
0001
0100
0000
0010
0000
1000
0001
0100
0001
0010
0000
0100
0000
,
1000
0100
1000
0001
0100
0000
0010
0000
1000
0010
0100
0001
1000
0000
0100
0000
,
0010
0001
0010
0100
1000
0000
0001
0000
0100
0001
1000
0010
0100
0000
0010
0000
,
1000
0001
0100
0001
1000
0000
0100
0000
0010
0001
1000
0001
0100
0000
0010
0000
,
1000
0001
0100
0010
0100
0000
0001
0000
1000
0100
1000
0010
0110
0000
0100
0000
,
0001
1000
0010
0100
0001
0000
1000
0000
0100
0010
0001
1000
0001
0000
0100
0000
,
0010
1000
0010
0100
0001
0000
1000
0000
0100
1000
0001
0100
0010
0000
1000
0000
,
0001
0010
0100
1000
0010
0000
0100
0000
0001
1000
0001
0100
0010
0000
1000
0000
,
0100
0010
0001
0010
0100
0000
1000
0000
0001
0100
0010
1000
0010
0000
0100
0000
,
0001
1000
0001
0100
0010
0000
1000
0000
0100
0010
0001
1000
0100
0000
1000
0000
,
0010
0100
0001
1000
0010
0000
0100
0000
0001
1000
0001
0010
0100
0000
1000
0000
,
0001
0010
0100
1000
0010
0000
0100
0000
0001
1000
0001
0100
0010
0000
1000
0000
,
0001
0100
0001
1000
0100
0000
0010
0000
0001
1000
0010
0100
0102
0000
0000
0000
,
00M0
0000
0000
0000
0000
0000
0000
0000
0000
0M00
0000
0000
1003
0000
0100
0000
,
1000
0010
0100
0001
1000
0000
0100
0000
0010
0001
1000
0001
0100
0000
0010
0000
,
1000
0010
0100
0001
1000
0000
0100
0000
0010
0100
1000
0001
0100
0000
0010
0000
,
1000
0010
0100
0001
1000
0000
0100
0000
0010
0001
1000
0001
0100
0000
0010
0000
,
1000
0010
0100
0001
1000
0000
0100
0000
0010
0001
1000
0010
0110
0000
0100
0000
,
0001
1000
0100
1000
0010
0000
0100
0000
0001
0010
0100
1000
0010
0000
0100
0000
,
0001
1000
0001
0100
0010
0000
1000
0000
0100
1000
0001
0010
0001
0000
0100
0000
,
0010
1000
0010
0100
0001
0000
1000
0000
0100
0010
0001
1000
0001
0000
0100
0000
,
0010
1000
0010
0100
0001
0000
1000
0000
0010
0100
0010
1000
1001
0000
0001
0000
,
0010
0100
1000
0001
1000
0000
0100
0000
0010
0100
1000
0001
0100
0000
0010
0000
,
1000
0010
0100
0001
0100
0000
0010
0000
1000
0100
1000
0001
0010
0000
0100
0000
,
1000
0001
0100
0001
0010
0000
0100
0000
1000
0010
1000
0001
0100
0000
0010
0000
,
1000
0010
0100
0001
0100
0000
0010
0000
1000
0100
1000
0001
0010
0000
0100
0000
,
1000
0001
1000
0010
0100
0000
0001
0000
1000
0100
1000
0010
0100
0000
0001
0000
,
0010
0100
1000
0001
0100
0000
0010
0000
1000
0100
1000
0001
0100
0000
0010
0000
,
1000
0100
0010
0001
1000
0000
0100
0000
0010
0001
1000
0001
0100
0000
0010
0000
,
1000
0001
0100
0010
0100
0001
1001
1000
,
0100
0010
0001
1000
0001
0000
0100
0000
0010
1000
0010
0100
0001
0000
1000
0000
,
0100
0010
0001
0100
0010
0000
1000
0000
0010
0100
0010
1000
0001
0000
1000
0000
,
0100
0010
0001
1000
0001
0000
0100
0000
0010
1000
0010
0100
0001
0000
1000
0000
,
0100
1000
0001
0100
0010
0000
1000
0000
0010
1000
0001
0100
0110
0000
0010
0000
,
1000
0100
1000
0001
0100
0000
0010
0000
0100
0001
1000
0001
0010
0000
0100
0000
,
1000
0001
1000
0100
0010
0000
0001
0000
1000
0010
1000
0001
0100
0000
0010
0000
,
1000
0010
0100
0001
1000
0000
0100
0000
1000
0100
0010
0001
1000
0000
0100
0000
,
1000
0001
0100
0010
0100
0000
0001
0000
1000
0010
0100
0001
1001
0000
1000
0000
,
0100
0010
0001
1000
0001
0000
0100
0000
0010
1000
0010
0100
0001
0000
1000
0000
,
0100
1000
0001
0100
0010
0000
1000
0000
0010
0100
0001
0100
0010
0000
1000
0000
,
0001
1000
0100
0010
0001
0000
1000
0000
0001
1000
0001
0100
0010
0000
1000
0000
,
0001
0100
0001
0010
0100
0000
1000
0000
0100
1000
0001
0010
0110
0000
0100
0000
,
1000
0010
0100
0010
1000
0000
0001
0000
0100
0010
0100
0001
1000
0000
0100
0000
,
0010
0001
0010
0100
1000
0000
0001
0000
1000
0001
0100
0010
1000
0000
0010
0000
,
0100
0001
1000
0001
0010
0000
0100
0000
1000
0100
1000
0001
0100
0000
0010
0000
,
0100
0010
1000
0010
0100
0000
0001
0000
1000
0100
0010
0001
0101
0000
0100
0000
,
0010
1000
0010
0100
0001
0000
1000
0000
0100
1000
0010
0100
0001
0000
1000
0000
,
0001
0100
0001
1000
0010
0000
0100
0000
0010
1000
0010
0100
0001
0000
1000
0000
,
0100
0010
0001
1000
0001
0000
0100
0000
0010
1000
0010
0100
0001
0000
1000
0000
,
0010
0100
0010
1000
0001
0000
0010
0000
0100
1000
0001
1000
0010
0100
0001
0000
,
1000
0000
0100
0010
0000
0001
0100
0000
0010
1000
0010
0000
0100
0001
1000
0000
,
0100
0000
0010
0001
0000
1000
0010
0000
0100
0001
0100
0000
0010
1000
0001
0000
,
0010
0000
0100
1000
0000
0001
0100
0000
0010
1000
0010
0000
0100
0001
1000
0010
,
1000
0000
0000
0100
0000
0000
0010
0000
0000
0001
0000
0000
0100
0000
0010
0000
1000
0000
0010
0000
0100
0000
0001
0000
1000
0000
0001
0000
0010
0000
0100
0000
1000
0000
0001
0000
0200
0000
0000
0000
0000
0000
0000
0000
0000
0000
0000
0000
,
0300
0000
0000
0000
,
0000
0000
0000
0000
,
0000
0000
0000
0000
,
0000
0000
0000
0000
0000
0000
0000
0000
0000
0000
0000
0000
0010
1000
0010
1000
,
0001
1000
0010
1000
0010
1000
0010
1000
0010
0000
0000
0000
0000
0000
0000
0000
,
0000
0000
0000
0000
0000
0000
0000
0000
0000
0000
0000
0000
0100
0001
0100
0001
,
1000
0001
0100
0001
0100
0001
0100
0001
0200
0000
0000
0000
0000
0000
0000
0000
,
0000
0000
0000
0000
0000
0000
0000
0000
0000
0000
0000
0000
0301
1000
0001
1000
,
0010
1000
0100
1000
0100
1000
0100
1000
0100
0000
0000
0000
0000
0000
0000
0000
,
0000
0000
0000
0000
0000
0000
0000
0000
0000
0000
0000
0000
0010
0001
0010
0001
,
1000
0001
0100
0001
0100
0001
0100
0001
0100
0000
0000
0000
0000
0000
0000
0000
,
0000
0000
0000
0000
0000
0000
0000
0000
0000
0000
0000
0000
1000
0010
1000
0010
,
0100
0001
0100
0001
0100
0001
0100
0001
0100
0001
1000
0100
1000
0100
1000
0100
,
0010
0001
0010
0001
0010
0100
1000
0100
1000
0100
1000
0010
1000
0010
1000
0010
,
0100
0001
0100
0001
0100
0001
0100
0001
0100
0001
1000
0001
1000
0001
1000
0001
,
1000
0010
1000
0010
1000
0001
0100
0001
0100
0001
1000
0010
1000
0010
1000
0010
,
0100
0001
0100
0001
0100
0001
0100
0001
0100
0001
1000
0010
1000
0010
1000
0010
,
1000
0100
1000
0100
1000
0010
0100
0010
0100
0010
1000
0001
1000
0001
1000
0001
,
0100
0001
0100
0001
0100
0001
0100
0001
0100
0001
1000
0001
1000
0001
1000
0001
,
1000
0010
1000
0010
1000
0001
0100
0001
0100
0001
1000
0010
0100
0010
0100
0010
,
1000
0001
0100
0001
0100
0001
0100
0001
0100
0001
0010
0100
0010
0100
0010
0100
,
0010
0001
1000
0001
1000
0010
0100
0010
0100
0010
1000
0100
1000
0100
1000
0100
,
0010
0001
0100
0001
0100
0001
0100
0001
0100
0001
1000
0010
0100
0010
0100
0010
,
1000
0001
0100
0001
0100
0010
0100
0010
0100
0010
0100
0001
10M0
0100
1000
0100
,
0010
0001
1000
0100
1000
0100
1000
0100
1000
0100
0010
0001
0100
0010
0100
0010
,
1000
0001
1000
0010
1000
0010
0100
0010
0100
0010
0100
0001
1M00
0010
1000
0010
,
0100
0001
1000
0100
10M0
0100
1000
0100
1000
0100
1000
0010
M100
0001
0100
0001
,
M010
0100
1000
0100
100M
0010
0100
0010
M100
0010
0100
0001
1000
0000
00M0
0M00
,
10M0
0000
00M0
0M00
10M0
0000
00M0
0M00
10M0
0000
00M0
0M00
10M0
0000
0000
0000
,
2000
0000
0000
0000
0001
0000
0001
0000
0001
0000
0001
0000
3010
0100
0010
1000
,
0001
0100
0001
1000
0100
1000
0010
0100
0001
1000
0100
1000
0010
0100
0010
1000
,
0001
0100
0001
0010
0100
1000
0001
0010
0001
0100
0010
1000
0001
0100
0001
1000
,
0100
0010
0001
1000
0100
1000
0001
0100
0010
0100
0001
1000
0001
0100
0010
1000
,
0010
0100
0001
1000
0100
0010
0001
1000
0100
1000
0001
0010
0001
0100
0010
1000
,
0010
0100
0001
1000
0100
1000
0001
0010
0001
0100
0010
1000
0010
0100
0001
1000
,
0001
0100
0010
0100
0001
1000
0100
0010
0001
1000
0100
1000
0001
0010
0100
1000
,
0010
1000
0100
0010
0001
1000
0100
1000
0010
0100
0001
0100
0010
1000
0001
1000
,
0100
0010
0001
1000
0010
1000
0100
0010
0100
1000
0001
0010
0001
0100
0010
1000
,
0010
0100
0001
1000
0100
1000
0001
0100
0010
0100
0001
1000
0100
0010
0001
1000
,
0010
1000
0100
0010
0001
1000
0001
0100
0010
1000
0010
0100
0001
0100
0010
1000
,
0001
1000
0100
0010
0001
1000
0100
1000
0010
0100
0010
1000
0001
0100
0001
0010
,
0100
1000
0001
0010
0001
0100
0010
1000
0001
0100
0001
1000
0100
0010
0001
1000
,
0100
1000
0001
0100
0010
0100
0001
1000
0001
0100
0010
1000
0010
0100
0001
1000
,
0100
0010
0001
1000
0100
1000
0001
0010
0001
0100
0010
1000
0010
0100
0001
1000
,
0100
1000
0001
0010
0001
0100
0010
1000
0010
0100
0001
1000
0001
0100
0010
0100
,
0001
1000
0100
0010
0001
1000
0100
1000
0001
0010
0100
1000
0010
1000
0100
0010
,
0001
1000
0100
1000
0010
0100
0001
0100
0010
1000
0001
1000
0100
0010
0001
1000
,
0010
1000
0100
0010
0100
1000
0001
0010
0001
0100
0010
1000
0010
0100
0001
1000
,
0100
1000
0001
0100
0010
0100
0001
1000
0100
0010
0001
1000
0010
1000
0100
0010
,
0001
1000
0001
0100
0010
1000
0010
0100
0001
0100
0010
1000
0001
1000
0100
0010
,
0001
1000
0100
1000
0010
0100
0010
1000
0001
0100
0001
0010
0100
1000
0001
0010
,
0001
0100
0010
1000
0001
0100
0001
1000
0100
0010
0001
1000
0100
1000
0001
0100
,
0010
0100
0001
1000
0001
0100
0010
1000
0010
0100
0001
1000
0100
0010
0001
1000
,
0100
1000
0001
0010
0001
0100
0010
1000
0010
0100
0001
1000
0100
1000
0001
0010
,
0001
0100
0010
1000
0010
0100
0001
1000
0001
0100
0010
0100
0001
1000
0100
0010
,
0001
1000
0100
1000
0001
0010
0100
1000
0010
1000
0100
0010
0001
1000
0100
1000
,
0010
0100
0001
0100
0010
1000
0001
1000
0100
0010
0001
1000
0010
1000
0100
0010
,
0100
1000
0001
0010
0001
0100
0010
1000
0010
0100
0001
1000
0100
1000
0001
0100
,
0010
0100
0001
1000
0100
0010
0001
1000
0010
1000
0100
0010
0001
1000
0001
0100
,
0010
1000
0010
0100
0001
0100
0010
1000
0001
1000
0100
0010
0001
1000
0100
0010
,
0001
1000
0010
1000
0100
0010
0001
1000
0100
1000
0001
0100
0010
1000
0010
0100
,
0001
1000
0100
1000
0001
0010
0001
0100
0010
1000
0010
0100
0001
1000
0100
1000
,
0001
0010
0001
0100
0010
1000
0010
0100
0001
1000
0001
0100
0010
0100
0001
1000
,
0100
0010
0001
1000
0100
1000
0010
0100
0001
0100
0010
1000
0001
0010
0100
1000
,
0010
0100
0010
1000
0001
0100
0001
1000
0100
1000
0010
0100
0001
0100
0010
1000
,
0001
1000
0100
0010
0100
1000
0001
0100
0001
1000
0010
0100
0001
0100
0010
1000
,
0010
0100
0001
1000
0100
1000
0010
0100
0001
1000
0100
1000
0010
0100
0010
1000
,
0001
0100
0001
0010
0100
1000
0001
0010
0001
0100
0010
1000
0001
0100
0001
1000
,
0100
0010
0001
1000
0100
1000
0001
0100
0010
0100
0001
1000
0001
0100
0010
1000
,
0010
0100
0001
1000
0100
0010
0001
1000
0100
1000
0001
0010
0001
0100
0010
1000
,
0010
0100
0001
1000
0100
1000
0001
0010
0001
0100
0010
1000
0010
0100
0001
1000
,
0001
0100
0010
0100
0001
1000
0100
0010
0001
1000
0100
1000
0001
0010
0100
1000
,
0010
1000
0100
0010
0001
1000
0100
1000
0010
0100
0001
0100
0010
1000
0001
1000
,
0100
0010
0001
1000
0010
1000
0100
0010
0100
1000
0001
0010
0001
0100
0010
1000
,
0010
0100
0001
1000
0100
1000
0001
0100
0010
0100
0001
1000
0100
0010
0001
1000
,
0010
1000
0100
0010
0001
1000
0001
0100
0010
1000
0010
0100
0001
0100
0010
1000
,
0001
1000
0100
0010
0001
1000
0100
1000
0010
0100
0010
1000
0001
0100
0001
0010
,
0100
1000
0001
0010
0001
0100
0010
1000
0001
0100
0001
1000
0100
0010
0001
1000
,
0100
1000
0001
0100
0010
0100
0001
1000
0001
0100
0010
1000
0010
0100
0001
1000
,
0100
0010
0001
1000
0100
1000
0001
0010
0001
0100
0010
1000
0010
0100
0001
1000
,
0100
1000
0001
0010
0001
0100
0010
1000
0010
0100
0001
1000
0001
0100
0010
0100
,
0001
1000
0100
0010
0001
1000
0100
1000
0001
0010
0100
1000
0010
1000
0100
0010
,
0001
1000
0100
1000
0010
0100
0001
0100
0010
1000
0001
1000
0100
0010
0001
1000
,
0010
1000
0100
0010
0100
1000
0001
0010
0001
0100
0010
1000
0010
0100
0001
1000
,
0100
1000
0001
0100
0010
0100
0001
1000
0100
0010
0001
1000
0010
1000
0100
0010
,
0001
1000
0001
0100
0010
1000
0010
0100
0001
0100
0010
1000
0001
1000
0100
0010
,
0001
1000
0100
1000
0010
0100
0010
1000
0001
0100
0001
0010
0100
1000
0001
0010
,
0001
0100
0010
1000
0001
0100
0001
1000
0100
0010
0001
1000
0100
1000
0001
0100
,
0010
0100
0001
1000
0001
0100
0010
1000
0010
0100
0001
1000
0100
0010
0001
1000
,
0100
1000
0001
0010
0001
0100
0010
1000
0010
0100
0001
1000
0100
1000
0001
0010
,
0001
0100
0010
1000
0010
0100
0001
1000
0001
0100
0010
0100
0001
1000
0100
0010
,
0001
1000
0100
1000
0001
0010
0100
1000
0010
1000
0100
0010
0001
1000
0100
1000
,
0010
0100
0001
0100
0010
1000
0001
1000
0100
0010
0001
1000
0010
1000
0100
0010
,
0100
1000
0001
0010
0001
0100
0010
1000
0010
0100
0001
1000
0100
1000
0001
0100
,
0010
0100
0001
1000
0100
0010
0001
1000
0010
1000
0100
0010
0001
1000
0001
0100
,
0010
1000
0010
0100
0001
0100
0010
1000
0001
1000
0100
0010
0001
1000
0100
0010
,
0001
1000
0010
1000
0100
0010
0001
1000
0100
1000
0001
0100
0010
1000
0010
0100
,
0001
1000
0100
1000
0001
0010
0001
0100
0010
1000
0010
0100
0001
1000
0100
1000
,
0001
0010
0001
0100
0010
1000
0010
0100
0001
1000
0001
0100
0010
0100
0001
1000
,
0100
0010
0001
1000
0100
1000
0010
0100
0001
0100
0010
1000
0001
0100
0010
1000
,
0010
0100
0001
1000
0100
1000
0010
0100
0001
1000
0100
1000
0010
0100
0010
1000
,
0001
0100
0001
0010
0100
1000
0001
0010
0001
0100
0010
1000
0001
0100
0001
1000
,
0100
0010
0001
1000
0100
1000
0001
0100
0010
0100
0001
1000
0001
0100
0010
1000
,
0010
0100
0001
1000
0100
0010
0001
1000
0100
1000
0001
0010
0001
0100
0010
1000
,
0010
0100
0001
1000
0100
1000
0001
0010
0001
0100
0010
1000
0010
0100
0001
1000
,
0001
0100
0010
0100
0001
1000
0100
0010
0001
1000
0100
1000
0001
0010
0100
1000
,
0010
1000
0100
0010
0001
1000
0100
1000
0010
0100
0001
0100
0010
1000
0001
1000
,
0100
0010
0001
1000
0010
1000
0100
0010
0100
1000
0001
0010
0001
0100
0010
1000
,
0010
0100
0001
1000
0100
1000
0001
0100
0010
0100
0001
1000
0100
0010
0001
1000
,
0010
1000
0100
0010
0001
1000
0001
0100
0010
1000
0010
0100
0001
0100
0010
1000
,
0001
1000
0100
0010
0001
1000
0100
1000
0010
0100
0010
1000
0001
0100
0001
0010
,
0100
1000
0001
0010
0001
0100
0010
1000
0001
0100
0001
1000
0100
0010
0001
1000
,
0100
1000
0001
0100
0010
0100
0001
1000
0001
0100
0010
1000
0010
0100
0001
1000
,
0100
0010
0001
1000
0100
1000
0001
0010
0001
0100
0010
1000
0010
0100
0001
1000
,
0100
1000
0001
0010
0001
0100
0010
1000
0010
0100
0001
1000
0001
0100
0010
0100
,
0001
1000
0100
0010
0001
1000
0100
1000
0001
0010
0100
1000
0010
1000
0100
0010
,
0001
1000
0100
1000
0010
0100
0001
0100
0010
1000
0001
1000
0100
0010
0001
1000
,
0010
1000
0100
0010
0100
1000
0001
0010
0001
0100
0010
1000
0010
0100
0001
1000
,
0100
1000
0001
0100
0010
0100
0001
1000
0100
0010
0001
1000
0010
1000
0100
0010
,
0001
1000
0001
0100
0010
1000
0010
0100
0001
0100
0010
1000
0001
1000
0100
0010
,
0001
1000
0100
1000
0010
0100
0010
1000
0001
0100
0001
0010
0100
1000
0001
0010
,
0001
0100
0010
1000
0001
0100
0001
1000
0100
0010
0001
1000
0100
1000
0001
0100
,
0010
0100
0001
1000
0001
0100
0010
1000
0010
0100
0001
1000
0100
0010
0001
1000
,
0100
1000
0001
0010
0001
0100
0010
1000
0010
0100
0001
1000
0100
1000
0001
0010
,
0001
0100
0010
1000
0010
0100
0001
1000
0001
0100
0010
0100
0001
1000
0100
0010
,
0001
1000
0100
1000
0001
0010
0100
1000
0010
1000
0100
0010
0001
1000
0100
1000
,
0010
0100
0001
0100
0010
1000
0001
1000
0100
0010
0001
1000
0010
1000
0100
0010
,
0100
1000
0001
0010
0001
0100
0010
1000
0010
0100
0001
1000
0100
1000
0001
0100
,
0010
0100
0001
1000
0100
0010
0001
1000
0010
1000
0100
0010
0001
1000
0001
0100
,
0010
1000
0010
0100
0001
0100
0010
1000
0001
1000
0100
0010
0001
1000
0100
0010
,
0001
1000
0010
1000
0100
0010
0001
1000
0100
1000
0001
0100
0010
1000
0010
0100
,
0001
0000
0000
1000
0000
0000
0100
0000
0000
1000
0000
0000
0010
0000
0100
0000
0001
0000
1000
0000
0010
0000
1000
0000
0100
0000
0010
0000
0001
0000
1000
0000
0100
0000
1000
0000
0010
0000
0000
0000
0000
0000
0100
0000
0000
0000
0000
0000
,
0001
1000
0010
0100
0001
0000
1000
0000
0100
0010
0001
1000
0010
0000
0100
0000
,
0001
1000
0001
0100
0010
0000
1000
0000
0010
0100
0010
1000
0001
0000
0010
0000
,
0100
1000
0001
1000
0100
0000
0010
0000
0001
1000
0001
0100
0010
0000
1000
0000
,
0010
0100
0010
1000
0001
0000
1000
0000
0100
0010
0001
1000
1010
0000
0010
0000
,
0100
0001
1000
0100
1000
0000
0010
0000
0100
0001
1000
0001
0010
0000
0100
0000
,
1000
0100
0010
0001
1000
0000
0001
0000
0010
0100
1000
0001
1000
0000
0010
0000
,
0100
0010
1000
0010
0100
0000
0001
0000
1000
0001
0010
0100
1000
0000
0010
0000
,
0100
0001
0100
0010
1000
0000
0001
0000
1000
0010
0100
0010
1010
0000
1000
0000
,
0001
0010
0001
0100
0010
0000
1000
0000
0010
1000
0010
0100
0001
0000
1000
0000
,
0100
0010
0001
1000
0001
0000
0010
0000
0100
1000
0001
1000
0010
0000
0100
0000
,
0001
1000
0001
0100
0010
0000
1000
0000
0100
1000
0001
0100
0010
0000
1000
0000
,
0010
0100
0001
1000
0001
0000
0010
0000
0100
1000
0010
0100
0101
0000
0001
0000
,
1000
0010
1000
0100
0010
0000
0001
0000
1000
0001
0100
0010
1000
0000
0010
0000
,
0100
0001
1000
0001
0100
0000
0010
0000
1000
0100
1000
0001
0010
0000
0100
0000
,
1000
0001
1000
0100
0010
0000
0001
0000
1000
0100
1000
0001
0100
0000
0010
0000
,
1000
0010
0100
0001
1000
0000
0100
0000
0010
0001
1000
0010
0110
0000
0100
0000
,
0001
0001
1000
0010
0100
0100
0001
1000
,
0100
0100
0010
0001
1000
1000
0010
0100
,
0001
0001
1000
0010
0100
0100
0001
1000
,
0100
0100
0010
0001
1000
1000
0100
1000
,
0010
0010
0100
0001
1000
1000
0010
1000
,
0001
0001
0010
0100
1000
1000
0001
0100
,
0010
0010
1000
0100
1000
1000
0001
0010
,
0001
0001
0100
0010
1000
1000
0001
0100
,
0010
1000
0010
0100
0001
1000
0100
0010
,
0001
1000
0100
1000
0001
0010
0001
0100
,
0010
1000
0001
0100
0001
1000
0100
0010
,
0001
1000
0100
1000
0010
0100
0001
1000
,
0001
0010
0100
1000
0001
0010
0001
0100
,
0010
1000
0010
0100
0001
1000
0100
1000
,
0010
0100
0001
1000
0001
0010
0100
1000
,
0001
1000
0010
0100
0001
1000
0000
0000
,
0000
0000
0000
0000
;

//---------------dance-single - owenviau1----------------
#NOTES:
     dance-single:
     owenviau1:
     Challenge:
     18:
     1.000,1.000,0.033,0.012,1.000,3653.000,14.000,5.000,24.000,0.000:
1000
0100
0010
0000
0010
0000
0000
0000
0001
1000
0100
0000
0100
0000
0000
0000
,
0010
0001
1000
0000
1000
0000
0000
0000
0010
0100
0001
0000
0001
0000
0000
0000
,
1000
0100
1000
0000
1000
0000
0000
0000
0010
0100
0001
0000
0001
0000
0000
0000
,
1000
0010
0100
0000
0100
0000
0000
0000
0001
1000
0001
0000
0001
0000
0000
0000
,
0010
0100
1000
0000
1000
0000
0000
0000
0100
0010
0001
0000
0001
0000
0000
0000
,
0100
0010
1000
0000
1000
0000
0000
0000
0010
0100
0001
0000
0001
0000
0000
0000
,
1000
0100
0010
0000
0010
0000
0000
0000
0001
1000
0010
0000
0010
0000
0000
0000
,
0100
0001
1000
0000
2000
0000
0000
0000
00M0
0M00
000M
0000
3100
0000
0010
0000
,
0001
1000
0010
1000
0100
0000
0010
0000
0001
1000
0100
1000
0010
0000
0100
0000
,
0001
1000
0100
1000
0010
0000
0100
0000
0001
1000
0001
0010
0100
0000
1000
0000
,
0001
0010
0001
0100
0010
0000
1000
0000
0100
1000
0001
0100
0010
0000
1000
0000
,
0010
0100
0001
0100
0010
0000
1000
0000
0001
0010
0100
1000
0010
0000
0100
0000
,
0001
1000
0100
1000
0010
0000
0100
0000
0001
1000
0001
0010
0100
0000
1000
0000
,
0010
0100
0001
1000
0100
0000
1000
0000
0001
0010
0100
1000
0001
0000
0100
0000
,
0010
1000
0010
0100
0001
0000
1000
0000
0100
0010
0001
1000
0001
0000
0100
0000
,
0010
1000
0010
0100
0001
0000
1000
0000
0100
0010
0001
1000
1001
0000
0010
0000
,
0100
0001
1000
0010
0100
0000
0010
0000
1000
0001
1000
0010
1000
0000
0100
0000
,
0010
0001
0010
0100
1000
0000
0001
0000
0100
0010
1000
0010
0100
0000
0001
0000
,
1000
0100
0010
0001
0100
0000
0010
0000
1000
0100
1000
0001
0100
0000
0010
0000
,
1000
0001
0010
0001
0100
0000
0010
0000
1000
0001
0100
0001
0010
0000
0100
0000
,
1000
0100
1000
0001
0100
0000
0010
0000
1000
0010
0100
0001
1000
0000
0100
0000
,
0010
0001
0010
0100
1000
0000
0001
0000
0100
0001
1000
0010
0100
0000
0010
0000
,
1000
0001
0100
0001
1000
0000
0100
0000
0010
0001
1000
0001
0100
0000
0010
0000
,
1000
0001
0100
0010
0100
0000
0001
0000
1000
0100
1000
0010
0110
0000
0100
0000
,
0001
1000
0010
0100
0001
0000
1000
0000
0100
0010
0001
1000
0001
0000
0100
0000
,
0010
1000
0010
0100
0001
0000
1000
0000
0100
1000
0001
0100
0010
0000
1000
0000
,
0001
0010
0100
1000
0010
0000
0100
0000
0001
1000
0001
0100
0010
0000
1000
0000
,
0100
0010
0001
0010
0100
0000
1000
0000
0001
0100
0010
1000
0010
0000
0100
0000
,
0001
1000
0001
0100
0010
0000
1000
0000
0100
0010
0001
1000
0100
0000
1000
0000
,
0010
0100
0001
1000
0010
0000
0100
0000
0001
1000
0001
0010
0100
0000
1000
0000
,
0001
0010
0100
1000
0010
0000
0100
0000
0001
1000
0001
0100
0010
0000
1000
0000
,
0001
0100
0001
1000
0100
0000
0010
0000
0001
1000
0010
0100
0102
0000
0000
0000
,
00M0
0000
0000
0000
0000
0000
0000
0000
0000
0M00
0000
0000
1003
0000
0100
0000
,
1000
0010
0100
0001
1000
0000
0100
0000
0010
0001
1000
0001
0100
0000
0010
0000
,
1000
0010
0100
0001
1000
0000
0100
0000
0010
0100
1000
0001
0100
0000
0010
0000
,
1000
0010
0100
0001
1000
0000
0100
0000
0010
0001
1000
0001
0100
0000
0010
0000
,
1000
0010
0100
0001
1000
0000
0100
0000
0010
0001
1000
0010
0110
0000
0100
0000
,
0001
1000
0100
1000
0010
0000
0100
0000
0001
0010
0100
1000
0010
0000
0100
0000
,
0001
1000
0001
0100
0010
0000
1000
0000
0100
1000
0001
0010
0001
0000
0100
0000
,
0010
1000
0010
0100
0001
0000
1000
0000
0100
0010
0001
1000
0001
0000
0100
0000
,
0010
1000
0010
0100
0001
0000
1000
0000
0010
0100
0010
1000
1001
0000
0001
0000
,
0010
0100
1000
0001
1000
0000
0100
0000
0010
0100
1000
0001
0100
0000
0010
0000
,
1000
0010
0100
0001
0100
0000
0010
0000
1000
0100
1000
0001
0010
0000
0100
0000
,
1000
0001
0100
0001
0010
0000
0100
0000
1000
0010
1000
0001
0100
0000
0010
0000
,
1000
0010
0100
0001
0100
0000
0010
0000
1000
0100
1000
0001
0010
0000
0100
0000
,
1000
0001
1000
0010
0100
0000
0001
0000
1000
0100
1000
0010
0100
0000
0001
0000
,
0010
0100
1000
0001
0100
0000
0010
0000
1000
0100
1000
0001
0100
0000
0010
0000
,
1000
0100
0010
0001
1000
0000
0100
0000
0010
0001
1000
0001
0100
0000
0010
0000
,
1000
0001
0100
0010
0100
0001
1001
1000
,
0100
0010
0001
1000
0001
0000
0100
0000
0010
1000
0010
0100
0001
0000
1000
0000
,
0100
0010
0001
0100
0010
0000
1000
0000
0010
0100
0010
1000
0001
0000
1000
0000
,
0100
0010
0001
1000
0001
0000
0100
0000
0010
1000
0010
0100
0001
0000
1000
0000
,
0100
1000
0001
0100
0010
0000
1000
0000
0010
1000
0001
0100
0110
0000
0010
0000
,
1000
0100
1000
0001
0100
0000
0010
0000
0100
0001
1000
0001
0010
0000
0100
0000
,
1000
0001
1000
0100
0010
0000
0001
0000
1000
0010
1000
0001
0100
0000
0010
0000
,
1000
0010
0100
0001
1000
0000
0100
0000
1000
0100
0010
0001
1000
0000
0100
0000
,
1000
0001
0100
0010
0100
0000
0001
0000
1000
0010
0100
0001
1001
0000
1000
0000
,
0100
0010
0001
1000
0001
0000
0100
0000
0010
1000
0010
0100
0001
0000
1000
0000
,
0100
1000
0001
0100
0010
0000
1000
0000
0010
0100
0001
0100
0010
0000
1000
0000
,
0001
1000
0100
0010
0001
0000
1000
0000
0001
1000
0001
0100
0010
0000
1000
0000
,
0001
0100
0001
0010
0100
0000
1000
0000
0100
1000
0001
0010
0110
0000
0100
0000
,
1000
0010
0100
0010
1000
0000
0001
0000
0100
0010
0100
0001
1000
0000
0100
0000
,
0010
0001
0010
0100
1000
0000
0001
0000
1000
0001
0100
0010
1000
0000
0010
0000
,
0100
0001
1000
0001
0010
0000
0100
0000
1000
0100
1000
0001
0100
0000
0010
0000
,
0100
0010
1000
0010
0100
0000
0001
0000
1000
0100
0010
0001
0101
0000
0100
0000
,
0010
1000
0010
0100
0001
0000
1000
0000
0100
1000
0010
0100
0001
0000
1000
0000
,
0001
0100
0001
1000
0010
0000
0100
0000
0010
1000
0010
0100
0001
0000
1000
0000
,
0100
0010
0001
1000
0001
0000
0100
0000
0010
1000
0010
0100
0001
0000
1000
0000
,
0010
0100
0010
1000
0001
0000
0010
0000
0100
1000
0001
1000
0010
0100
0001
0000
,
1000
0000
0100
0010
0000
0001
0100
0000
0010
1000
0010
0000
0100
0001
1000
0000
,
0100
0000
0010
0001
0000
1000
0010
0000
0100
0001
0100
0000
0010
1000
0001
0000
,
0010
0000
0100
1000
0000
0001
0100
0000
0010
1000
0010
0000
0100
0001
1000
0010
,
1000
0000
0100
0000
0010
0000
0001
0000
0100
0010
1000
0010
0100
0001
1000
0001
0010
0100
1000
0001
0100
0010
1000
0001
0200
0000
0000
0000
0000
0000
0000
0000
,
0300
0000
0000
0000
,
0000
0000
0000
0000
,
0000
0000
0000
0000
,
0000
0000
0000
0000
0000
0000
0000
0000
0000
0000
0000
0000
0010
1000
0010
1000
,
0001
1000
0010
1000
0010
1000
0010
1000
0010
0000
0000
0000
0000
0000
0000
0000
,
0000
0000
0000
0000
0000
0000
0000
0000
0000
0000
0000
0000
0100
0001
0100
0001
,
1000
0001
0100
0001
0100
0001
0100
0001
0200
0000
0000
0000
0000
0000
0000
0000
,
0000
0000
0000
0000
0000
0000
0000
0000
0000
0000
0000
0000
0301
1000
0001
1000
,
0010
1000
0100
1000
0100
1000
0100
1000
0100
0000
0000
0000
0000
0000
0000
0000
,
0000
0000
0000
0000
0000
0000
0000
0000
0000
0000
0000
0000
0010
0001
0010
0001
,
1000
0001
0100
0001
0100
0001
0100
0001
0100
0000
0000
0000
0000
0000
0000
0000
,
0000
0000
0000
0000
0000
0000
0000
0000
0000
0000
0000
0000
1000
0010
1000
0010
,
0100
0001
0100
0001
0100
0001
0100
0001
0100
0001
1000
0100
1000
0100
1000
0100
,
0010
0001
0010
0001
0010
0100
1000
0100
1000
0100
1000
0010
1000
0010
1000
0010
,
0100
0001
0100
0001
0100
0001
0100
0001
0100
0001
1000
0001
1000
0001
1000
0001
,
1000
0010
1000
0010
1000
0001
0100
0001
0100
0001
1000
0010
1000
0010
1000
0010
,
0100
0001
0100
0001
0100
0001
0100
0001
0100
0001
1000
0010
1000
0010
1000
0010
,
1000
0100
1000
0100
1000
0010
0100
0010
0100
0010
1000
0001
1000
0001
1000
0001
,
0100
0001
0100
0001
0100
0001
0100
0001
0100
0001
1000
0001
1000
0001
1000
0001
,
1000
0010
1000
0010
1000
0001
0100
0001
0100
0001
1000
0010
0100
0010
0100
0010
,
1000
0001
0100
0001
0100
0001
0100
0001
0100
0001
0010
0100
0010
0100
0010
0100
,
0010
0001
1000
0001
1000
0010
0100
0010
0100
0010
1000
0100
1000
0100
1000
0100
,
0010
0001
0100
0001
0100
0001
0100
0001
0100
0001
1000
0010
0100
0010
0100
0010
,
1000
0001
0100
0001
0100
0010
0100
0010
0100
0010
0100
0001
10M0
0100
1000
0100
,
0010
0001
1000
0100
1000
0100
1000
0100
1000
0100
0010
0001
0100
0010
0100
0010
,
1000
0001
1000
0010
1000
0010
0100
0010
0100
0010
0100
0001
1M00
0010
1000
0010
,
0100
0001
1000
0100
10M0
0100
1000
0100
1000
0100
1000
0010
M100
0001
0100
0001
,
M010
0100
1000
0100
100M
0010
0100
0010
M100
0010
0100
0001
1000
0000
00M0
0M00
,
10M0
0000
00M0
0M00
10M0
0000
00M0
0M00
10M0
0000
00M0
0M00
10M0
0000
0000
0000
,
2000
0000
0000
0000
0000
0000
0001
0000
0000
0001
0000
0000
0001
0000
0000
0001
0000
0000
3010
0100
0010
1000
0001
0100
,
0001
1000
0100
0010
0001
1000
0100
1000
0010
0100
0001
0100
0010
1000
0001
1000
0100
0010
0001
1000
0100
1000
0001
0100
,
0010
1000
0010
0100
0001
1000
0100
0010
0001
1000
0100
1000
0001
0100
0010
1000
0010
0100
0001
1000
0100
0010
0001
1000
,
0100
1000
0010
0100
0001
1000
0001
0100
0010
0100
0001
1000
0100
0010
0001
1000
0100
1000
0010
0100
0010
1000
0001
0100
,
0001
0010
0100
1000
0001
0010
0001
0100
0010
1000
0100
1000
0001
0010
0001
0100
0010
1000
0010
0100
0001
1000
0001
0100
,
0010
0100
0001
1000
0100
1000
0010
0100
0001
0100
0010
1000
0100
0010
0001
1000
0100
1000
0001
0100
0010
1000
0010
0100
,
0001
1000
0001
0100
0010
0100
0001
1000
0100
0010
0100
1000
0001
0010
0001
0100
0010
1000
0010
0100
0001
1000
0100
1000
,
0001
0100
0010
0100
0001
1000
0010
1000
0100
0010
0001
1000
0100
1000
0001
0010
0001
0100
0010
1000
0010
0100
0001
1000
,
0001
0100
0010
1000
0010
0100
0001
1000
0100
1000
0001
0010
0001
0100
0010
1000
0010
0100
0001
1000
0100
0010
0001
1000
,
0100
1000
0010
0100
0001
0100
0010
1000
0001
1000
0100
0010
0001
1000
0100
1000
0001
0010
0001
0100
0010
1000
0010
0100
,
0001
1000
0001
0100
0010
0100
0001
1000
0010
1000
0100
0010
0001
1000
0100
1000
0010
0100
0001
1000
0100
1000
0001
0100
,
0010
0100
0001
1000
0100
0010
0001
1000
0100
1000
0001
0010
0001
0100
0010
1000
0010
0100
0001
1000
0001
0100
0010
0100
,
0001
1000
0100
0010
0001
1000
0100
1000
0010
0100
0001
1000
0001
0100
0010
0100
0001
1000
0100
1000
0010
0100
0001
1000
,
0001
0100
0010
1000
0010
0100
0001
1000
0100
1000
0010
0100
0001
1000
0001
0100
0010
1000
0010
0100
0001
1000
0100
0010
,
0001
0010
0100
1000
0001
0100
0001
1000
0010
0100
0001
0100
0010
1000
0001
1000
0100
0010
0001
1000
0100
1000
0010
0100
,
0001
1000
0100
1000
0001
0010
0001
0100
0010
1000
0010
0100
0001
1000
0010
1000
0001
0100
0001
1000
0100
0010
0001
1000
,
0100
1000
0010
0100
0001
1000
0100
1000
0010
0100
0001
1000
0010
0100
0010
1000
0001
0100
0001
1000
0100
0010
0001
1000
,
0100
1000
0010
0100
0001
0100
0010
1000
0001
1000
0100
0010
0001
1000
0100
1000
0001
0100
0010
1000
0010
0100
0001
1000
,
0100
0010
0001
1000
0100
1000
0001
0100
0010
1000
0010
0100
0001
1000
0100
0010
0001
1000
0100
1000
0010
0100
0001
1000
,
0001
0100
0010
0100
0001
1000
0100
0010
0001
1000
0100
1000
0010
0100
0010
1000
0001
0100
0001
0010
0100
1000
0001
0010
,
0001
0100
0010
1000
0100
1000
0001
0010
0001
0100
0010
1000
0010
0100
0001
1000
0001
0100
0010
0100
0001
1000
0100
1000
,
0010
0100
0001
0100
0010
1000
0100
0010
0001
1000
0100
1000
0001
0100
0010
1000
0010
0100
0001
1000
0001
0100
0010
0100
,
0001
1000
0100
0010
0100
1000
0001
0010
0001
0100
0010
1000
0010
0100
0001
1000
0100
1000
0001
0100
0010
0100
0001
1000
,
0010
1000
0100
0010
0001
1000
0100
1000
0001
0010
0001
0100
0010
1000
0010
0100
0001
1000
0001
0100
0010
1000
0010
0100
,
0001
1000
0100
1000
0001
0010
0001
0100
0010
1000
0010
0100
0001
1000
0100
0010
0001
1000
0100
1000
0010
0100
0001
0100
,
0010
1000
0001
1000
0100
0010
0001
1000
0100
1000
0001
0010
0001
0100
0010
1000
0010
0100
0001
1000
0001
0100
0010
0100
,
0001
1000
0010
1000
0100
0010
0001
1000
0100
1000
0010
0100
0001
1000
0100
1000
0001
0100
0010
0100
0001
1000
0100
0010
,
0001
1000
0100
1000
0001
0010
0001
0100
0010
1000
0010
0100
0001
1000
0001
0100
0010
0100
0001
1000
0100
0010
0001
1000
,
0100
1000
0010
0100
0001
1000
0001
0100
0010
0100
0001
1000
0100
1000
0010
0100
0001
1000
0001
0100
0010
1000
0010
0100
,
0001
1000
0100
1000
0010
0100
0001
1000
0001
0100
0010
1000
0010
0100
0001
1000
0100
0010
0001
0010
0100
1000
0001
0100
,
0001
1000
0010
0100
0001
0100
0010
1000
0001
1000
0100
0010
0001
1000
0100
1000
0010
0100
0001
1000
0100
1000
0001
0010
,
0001
0100
0010
1000
0010
0100
0001
1000
0010
1000
0001
0100
0001
1000
0100
0010
0001
1000
0100
1000
0010
0100
0001
1000
,
0100
1000
0010
0100
0001
1000
0010
0100
0001
1000
0100
1000
0001
0100
0010
0100
0001
1000
0100
0010
0001
1000
0001
0100
,
0010
1000
0010
0100
0001
1000
0100
0010
0001
1000
0001
0010
0100
1000
0001
0100
0001
0010
0100
1000
0001
0100
0001
1000
,
0010
0100
0010
1000
0001
0100
0001
1000
0100
0010
0001
1000
0100
1000
0010
0100
0001
1000
0001
0100
0010
0100
0001
1000
,
0100
0010
0001
1000
0100
1000
0010
0100
0010
1000
0001
0100
0001
1000
0100
0010
0001
1000
0010
1000
0100
0010
0001
1000
,
0100
0000
1000
0000
0001
0000
0100
0000
0010
0000
0100
0000
0001
0000
1000
0000
0100
0000
1000
0000
0010
0000
0100
0000
0001
0000
0100
0000
0010
0000
1000
0000
0100
0000
1000
0000
0001
0000
0000
0100
0000
0000
0010
0000
0000
1000
0000
0000
,
0010
0100
0001
1000
0100
1000
0010
0100
0001
1000
0100
1000
0010
0100
0010
1000
,
0001
0100
0001
0010
0100
1000
0001
0010
0001
0100
0010
1000
0001
0100
0001
1000
,
0100
0010
0001
1000
0100
1000
0001
0100
0010
0100
0001
1000
0001
0100
0010
1000
,
0010
0100
0001
1000
0100
0010
0001
1000
0100
1000
0001
0010
0001
0100
0010
1000
,
0010
0100
0001
1000
0100
1000
0001
0010
0001
0100
0010
1000
0010
0100
0001
1000
,
0001
0100
0010
0100
0001
1000
0100
0010
0001
1000
0100
1000
0001
0010
0100
1000
,
0010
1000
0100
0010
0001
1000
0100
1000
0010
0100
0001
0100
0010
1000
0001
1000
,
0100
0010
0001
1000
0010
1000
0100
0010
0100
1000
0001
0010
0001
0100
0010
1000
,
0010
0100
0001
1000
0100
1000
0001
0100
0010
0100
0001
1000
0100
0010
0001
1000
,
0010
1000
0100
0010
0001
1000
0001
0100
0010
1000
0010
0100
0001
0100
0010
1000
,
0001
1000
0100
0010
0001
1000
0100
1000
0010
0100
0010
1000
0001
0100
0001
0010
,
0100
1000
0001
0010
0001
0100
0010
1000
0001
0100
0001
1000
0100
0010
0001
1000
,
0100
1000
0001
0100
0010
0100
0001
1000
0001
0100
0010
1000
0010
0100
0001
1000
,
0100
0010
0001
1000
0100
1000
0001
0010
0001
0100
0010
1000
0010
0100
0001
1000
,
0100
1000
0001
0010
0001
0100
0010
1000
0010
0100
0001
1000
0001
0100
0010
0100
,
0001
1000
0100
0010
0001
1000
0100
1000
0001
0010
0100
1000
0010
1000
0100
0010
,
0001
1000
0100
1000
0010
0100
0001
0100
0010
1000
0001
1000
0100
0010
0001
1000
,
0010
1000
0100
0010
0100
1000
0001
0010
0001
0100
0010
1000
0010
0100
0001
1000
,
0100
1000
0001
0100
0010
0100
0001
1000
0100
0010
0001
1000
0010
1000
0100
0010
,
0001
1000
0001
0100
0010
1000
0010
0100
0001
0100
0010
1000
0001
1000
0100
0010
,
0001
1000
0100
1000
0010
0100
0010
1000
0001
0100
0001
0010
0100
1000
0001
0010
,
0001
0100
0010
1000
0001
0100
0001
1000
0100
0010
0001
1000
0100
1000
0001
0100
,
0010
0100
0001
1000
0001
0100
0010
1000
0010
0100
0001
1000
0100
0010
0001
1000
,
0100
1000
0001
0010
0001
0100
0010
1000
0010
0100
0001
1000
0100
1000
0001
0010
,
0001
0100
0010
1000
0010
0100
0001
1000
0001
0100
0010
0100
0001
1000
0100
0010
,
0001
1000
0100
1000
0001
0010
0100
1000
0010
1000
0100
0010
0001
1000
0100
1000
,
0010
0100
0001
0100
0010
1000
0001
1000
0100
0010
0001
1000
0010
1000
0100
0010
,
0100
1000
0001
0010
0001
0100
0010
1000
0010
0100
0001
1000
0100
1000
0001
0100
,
0010
0100
0001
1000
0100
0010
0001
1000
0010
1000
0100
0010
0001
1000
0001
0100
,
0010
1000
0010
0100
0001
0100
0010
1000
0001
1000
0100
0010
0001
1000
0100
0010
,
0001
1000
0010
1000
0100
0010
0001
1000
0100
1000
0001
0100
0010
1000
0010
0100
,
0001
1000
0100
1000
0001
0010
0001
0100
0010
1000
0010
0100
0001
1000
0100
1000
,
0001
0010
0001
0100
0010
1000
0010
0100
0001
1000
0001
0100
0010
0100
0001
1000
,
0100
0000
0000
0010
0000
0000
0001
0000
0000
1000
0000
0000
0100
0000
0000
1000
0000
0000
0010
0000
0000
0100
0000
0000
0001
0000
0000
0100
0000
0000
0010
0000
0000
1000
0000
0000
0001
0000
0100
0000
0001
0000
1000
0000
0100
0000
0010
0000
,
0001
1000
0100
1000
0010
0100
0001
0100
0010
1000
0001
1000
0100
0010
0001
1000
0100
1000
0001
0100
0010
1000
0010
0100
,
0001
1000
0100
0010
0001
1000
0100
1000
0001
0100
0010
1000
0010
0100
0001
1000
0100
0010
0001
1000
0100
1000
0010
0100
,
0001
1000
0001
0100
0010
0100
0001
1000
0100
0010
0001
1000
0100
1000
0010
0100
0010
1000
0001
0100
0001
0010
0100
1000
,
0001
0010
0001
0100
0010
1000
0100
1000
0001
0010
0001
0100
0010
1000
0010
0100
0001
1000
0001
0100
0010
0100
0001
1000
,
0100
1000
0010
0100
0001
0100
0010
1000
0100
0010
0001
1000
0100
1000
0001
0100
0010
1000
0010
0100
0001
1000
0001
0100
,
0010
0100
0001
1000
0100
0010
0100
1000
0001
0010
0001
0100
0010
1000
0010
0100
0001
1000
0100
1000
0001
0100
0010
0100
,
0001
1000
0010
1000
0100
0010
0001
1000
0100
1000
0001
0010
0001
0100
0010
1000
0010
0100
0001
1000
0001
0100
0010
1000
,
0010
0100
0001
1000
0100
1000
0001
0010
0001
0100
0010
1000
0010
0100
0001
1000
0100
0010
0001
1000
0100
1000
0010
0100
,
0001
0100
0010
1000
0001
1000
0100
0010
0001
1000
0100
1000
0001
0010
0001
0100
0010
1000
0010
0100
0001
1000
0001
0100
,
0010
0100
0001
1000
0010
1000
0100
0010
0001
1000
0100
1000
0010
0100
0001
1000
0100
1000
0001
0100
0010
0100
0001
1000
,
0100
0010
0001
1000
0100
1000
0001
0010
0001
0100
0010
1000
0010
0100
0001
1000
0001
0100
0010
0100
0001
1000
0100
0010
,
0001
1000
0100
1000
0010
0100
0001
1000
0001
0100
0010
0100
0001
1000
0100
1000
0010
0100
0001
1000
0001
0100
0010
1000
,
0010
0100
0001
1000
0100
1000
0010
0100
0001
1000
0001
0100
0010
1000
0010
0100
0001
1000
0100
0010
0001
0010
0100
1000
,
0001
0100
0001
1000
0010
0100
0001
0100
0010
1000
0001
1000
0100
0010
0001
1000
0100
1000
0010
0100
0001
1000
0100
1000
,
0001
0010
0001
0100
0010
1000
0010
0100
0001
1000
0010
1000
0001
0100
0001
1000
0100
0010
0001
1000
0100
1000
0010
0100
,
0001
1000
0100
1000
0010
0100
0001
1000
0010
0100
0010
1000
0001
0100
0001
1000
0100
0010
0001
1000
0100
1000
0010
0100
,
0001
0100
0010
1000
0001
1000
0100
0010
0001
1000
0100
1000
0001
0100
0010
1000
0010
0100
0001
1000
0100
0010
0001
1000
,
0100
1000
0001
0100
0010
1000
0010
0100
0001
1000
0100
0010
0001
1000
0100
1000
0010
0100
0001
1000
0001
0100
0010
0100
,
0001
1000
0100
0010
0001
1000
0100
1000
0010
0100
0010
1000
0001
0100
0001
0010
0100
1000
0001
0010
0001
0100
0010
1000
,
0100
1000
0001
0010
0001
0100
0010
1000
0010
0100
0001
1000
0001
0100
0010
0100
0001
1000
0100
1000
0010
0100
0001
0100
,
0010
1000
0100
0010
0001
1000
0100
1000
0001
0100
0010
1000
0010
0100
0001
1000
0001
0100
0010
0100
0001
1000
0100
0010
,
0100
1000
0001
0010
0001
0100
0010
1000
0010
0100
0001
1000
0100
1000
0001
0100
0010
0100
0001
1000
0010
1000
0100
0010
,
0001
1000
0100
1000
0001
0010
0001
0100
0010
1000
0010
0100
0001
1000
0001
0100
0010
1000
0010
0100
0001
1000
0100
1000
,
0001
0010
0001
0100
0010
1000
0010
0100
0001
1000
0100
0010
0001
1000
0100
1000
0010
0100
0001
0100
0010
1000
0001
1000
,
0100
0010
0001
1000
0100
1000
0001
0010
0001
0100
0010
1000
0010
0100
0001
1000
0001
0100
0010
0100
0001
1000
0010
1000
,
0100
0010
0001
1000
0100
1000
0010
0100
0001
1000
0100
1000
0001
0100
0010
0100
0001
1000
0100
0010
0001
1000
0100
1000
,
0001
0010
0001
0100
0010
1000
0010
0100
0001
1000
0001
0100
0010
0100
0001
1000
0100
0010
0001
1000
0100
1000
0010
0100
,
0001
1000
0001
0100
0010
0100
0001
1000
0100
1000
0010
0100
0001
1000
0001
0100
0010
1000
0010
0100
0001
1000
0100
1000
,
0010
0100
0001
1000
0001
0100
0010
1000
0010
0100
0001
1000
0100
0010
0001
0010
0100
1000
0001
0100
0001
1000
0010
0100
,
0001
0100
0010
1000
0001
1000
0100
0010
0001
1000
0100
1000
0010
0100
0001
1000
0100
1000
0001
0010
0001
0100
0010
1000
,
0010
0100
0001
1000
0010
1000
0001
0100
0001
1000
0100
0010
0001
1000
0100
1000
0010
0100
0001
1000
0100
1000
0010
0100
,
0001
0000
0000
0000
1000
0000
0000
0000
0010
0000
0000
0000
0100
0000
0000
0000
0001
0000
0000
0000
1000
0000
0000
0000
0100
0000
0000
0010
0000
0000
0001
0000
0000
1000
0000
0000
0001
0000
0000
0100
0000
0000
0010
0000
0000
1000
0000
0000
0010
0000
0000
0100
0000
0000
0001
0000
0000
1000
0000
0000
0001
0000
0000
0010
0000
0000
0100
0000
0000
1000
0000
0000
0001
0000
0000
0000
0000
0000
0000
0000
0000
0000
0000
0000
0100
0000
0000
0000
0000
0000
0000
0000
0000
0000
0000
0000
,
0010
1000
0010
0100
0001
0000
1000
0000
0100
0010
0001
1000
0010
0000
0100
0000
,
0001
1000
0001
0100
0010
0000
1000
0000
0010
0100
0010
1000
0001
0000
0010
0000
,
0100
1000
0001
1000
0100
0000
0010
0000
0001
1000
0001
0100
0010
0000
1000
0000
,
0010
0100
0010
1000
0001
0000
1000
0000
0100
0010
0001
1000
1010
0000
0010
0000
,
0100
0001
1000
0100
1000
0000
0010
0000
0100
0001
1000
0001
0010
0000
0100
0000
,
1000
0100
0010
0001
1000
0000
0001
0000
0010
0100
1000
0001
1000
0000
0010
0000
,
0100
0010
1000
0010
0100
0000
0001
0000
1000
0001
0010
0100
1000
0000
0010
0000
,
0100
0001
0100
0010
1000
0000
0001
0000
1000
0010
0100
0010
1010
0000
1000
0000
,
0001
0010
0001
0100
0010
0000
1000
0000
0010
1000
0010
0100
0001
0000
1000
0000
,
0100
0010
0001
1000
0001
0000
0010
0000
0100
1000
0001
1000
0010
0000
0100
0000
,
0001
1000
0001
0100
0010
0000
1000
0000
0100
1000
0001
0100
0010
0000
1000
0000
,
0010
0100
0001
1000
0001
0000
0010
0000
0100
1000
0010
0100
0101
0000
0001
0000
,
1000
0010
1000
0100
0010
0000
0001
0000
1000
0001
0100
0010
1000
0000
0010
0000
,
0100
0001
1000
0001
0100
0000
0010
0000
1000
0100
1000
0001
0010
0000
0100
0000
,
1000
0001
1000
0100
0010
0000
0001
0000
1000
0100
1000
0001
0100
0000
0010
0000
,
1000
0010
0100
0001
1000
0000
0100
0000
0010
0001
1000
0010
0110
0000
0100
0000
,
0001
0001
1000
0010
0100
0100
0001
1000
,
0100
0100
0010
0001
1000
1000
0010
0100
,
0001
0001
1000
0010
0100
0100
0001
1000
,
0100
0100
0010
0001
1000
1000
0100
1000
,
0010
0010
0100
0001
1000
1000
0010
1000
,
0001
0001
0010
0100
1000
1000
0001
0100
,
0010
0010
1000
0100
1000
1000
0001
0010
,
0001
0001
0100
0010
1000
1000
0001
0100
,
0010
1000
0010
0100
0001
1000
0100
0010
,
0001
1000
0100
1000
0001
0010
0001
0100
,
0010
1000
0001
0100
0001
1000
0100
0010
,
0001
1000
0100
1000
0010
0100
0001
1000
,
0001
0010
0100
1000
0001
0010
0001
0100
,
0010
1000
0010
0100
0001
1000
0100
1000
,
0010
0100
0001
1000
0001
0010
0100
1000
,
0001
1000
0010
0100
0001
1000
0000
0000
,
0000
0000
0000
0000
;

//---------------dance-single - Long 24th Streamz----------------
#NOTES:
     dance-single:
     Long 24th Streamz:
     Edit:
     19:
     1.000,1.000,0.033,0.012,1.000,3909.000,14.000,5.000,24.000,0.000:
1000
0100
0010
0000
0010
0000
0000
0000
0001
1000
0100
0000
0100
0000
0000
0000
,
0010
0001
1000
0000
1000
0000
0000
0000
0010
0100
0001
0000
0001
0000
0000
0000
,
1000
0100
1000
0000
1000
0000
0000
0000
0010
0100
0001
0000
0001
0000
0000
0000
,
1000
0010
0100
0000
0100
0000
0000
0000
0001
1000
0001
0000
0001
0000
0000
0000
,
0010
0100
1000
0000
1000
0000
0000
0000
0100
0010
0001
0000
0001
0000
0000
0000
,
0100
0010
1000
0000
1000
0000
0000
0000
0010
0100
0001
0000
0001
0000
0000
0000
,
1000
0100
0010
0000
0010
0000
0000
0000
0001
1000
0010
0000
0010
0000
0000
0000
,
0100
0001
1000
0000
2000
0000
0000
0000
00M0
0M00
000M
0000
3100
0000
0010
0000
,
0001
1000
0010
1000
0100
0000
0010
0000
0001
1000
0100
1000
0010
0000
0100
0000
,
0001
1000
0100
1000
0010
0000
0100
0000
0001
1000
0001
0010
0100
0000
1000
0000
,
0001
0010
0001
0100
0010
0000
1000
0000
0100
1000
0001
0100
0010
0000
1000
0000
,
0010
0100
0001
0100
0010
0000
1000
0000
0001
0010
0100
1000
0010
0000
0100
0000
,
0001
1000
0100
1000
0010
0000
0100
0000
0001
1000
0001
0010
0100
0000
1000
0000
,
0010
0100
0001
1000
0100
0000
1000
0000
0001
0010
0100
1000
0001
0000
0100
0000
,
0010
1000
0010
0100
0001
0000
1000
0000
0100
0010
0001
1000
0001
0000
0100
0000
,
0010
1000
0010
0100
0001
0000
1000
0000
0100
0010
0001
1000
1001
0000
0010
0000
,
0100
0001
1000
0010
0100
0000
0010
0000
1000
0001
1000
0010
1000
0000
0100
0000
,
0010
0001
0010
0100
1000
0000
0001
0000
0100
0010
1000
0010
0100
0000
0001
0000
,
1000
0100
0010
0001
0100
0000
0010
0000
1000
0100
1000
0001
0100
0000
0010
0000
,
1000
0001
0010
0001
0100
0000
0010
0000
1000
0001
0100
0001
0010
0000
0100
0000
,
1000
0100
1000
0001
0100
0000
0010
0000
1000
0010
0100
0001
1000
0000
0100
0000
,
0010
0001
0010
0100
1000
0000
0001
0000
0100
0001
1000
0010
0100
0000
0010
0000
,
1000
0001
0100
0001
1000
0000
0100
0000
0010
0001
1000
0001
0100
0000
0010
0000
,
1000
0001
0100
0010
0100
0000
0001
0000
1000
0100
1000
0010
0110
0000
0100
0000
,
0001
1000
0010
0100
0001
0000
1000
0000
0100
0010
0001
1000
0001
0000
0100
0000
,
0010
1000
0010
0100
0001
0000
1000
0000
0100
1000
0001
0100
0010
0000
1000
0000
,
0001
0010
0100
1000
0010
0000
0100
0000
0001
1000
0001
0100
0010
0000
1000
0000
,
0100
0010
0001
0010
0100
0000
1000
0000
0001
0100
0010
1000
0010
0000
0100
0000
,
0001
1000
0001
0100
0010
0000
1000
0000
0100
0010
0001
1000
0100
0000
1000
0000
,
0010
0100
0001
1000
0010
0000
0100
0000
0001
1000
0001
0010
0100
0000
1000
0000
,
0001
0010
0100
1000
0010
0000
0100
0000
0001
1000
0001
0100
0010
0000
1000
0000
,
0001
0100
0001
1000
0100
0000
0010
0000
0001
1000
0010
0100
0102
0000
0000
0000
,
00M0
0000
0000
0000
0000
0000
0000
0000
0000
0M00
0000
0000
1003
0000
0100
0000
,
1000
0010
0100
0001
1000
0000
0100
0000
0010
0001
1000
0001
0100
0000
0010
0000
,
1000
0010
0100
0001
1000
0000
0100
0000
0010
0100
1000
0001
0100
0000
0010
0000
,
1000
0010
0100
0001
1000
0000
0100
0000
0010
0001
1000
0001
0100
0000
0010
0000
,
1000
0010
0100
0001
1000
0000
0100
0000
0010
0001
1000
0010
0110
0000
0100
0000
,
0001
1000
0100
1000
0010
0000
0100
0000
0001
0010
0100
1000
0010
0000
0100
0000
,
0001
1000
0001
0100
0010
0000
1000
0000
0100
1000
0001
0010
0001
0000
0100
0000
,
0010
1000
0010
0100
0001
0000
1000
0000
0100
0010
0001
1000
0001
0000
0100
0000
,
0010
1000
0010
0100
0001
0000
1000
0000
0010
0100
0010
1000
1001
0000
0001
0000
,
0010
0100
1000
0001
1000
0000
0100
0000
0010
0100
1000
0001
0100
0000
0010
0000
,
1000
0010
0100
0001
0100
0000
0010
0000
1000
0100
1000
0001
0010
0000
0100
0000
,
1000
0001
0100
0001
0010
0000
0100
0000
1000
0010
1000
0001
0100
0000
0010
0000
,
1000
0010
0100
0001
0100
0000
0010
0000
1000
0100
1000
0001
0010
0000
0100
0000
,
1000
0001
1000
0010
0100
0000
0001
0000
1000
0100
1000
0010
0100
0000
0001
0000
,
0010
0100
1000
0001
0100
0000
0010
0000
1000
0100
1000
0001
0100
0000
0010
0000
,
1000
0100
0010
0001
1000
0000
0100
0000
0010
0001
1000
0001
0100
0000
0010
0000
,
1000
0001
0100
0010
0100
0001
1001
1000
,
0100
0010
0001
1000
0001
0000
0100
0000
0010
1000
0010
0100
0001
0000
1000
0000
,
0100
0010
0001
0100
0010
0000
1000
0000
0010
0100
0010
1000
0001
0000
1000
0000
,
0100
0010
0001
1000
0001
0000
0100
0000
0010
1000
0010
0100
0001
0000
1000
0000
,
0100
1000
0001
0100
0010
0000
1000
0000
0010
1000
0001
0100
0110
0000
0010
0000
,
1000
0100
1000
0001
0100
0000
0010
0000
0100
0001
1000
0001
0010
0000
0100
0000
,
1000
0001
1000
0100
0010
0000
0001
0000
1000
0010
1000
0001
0100
0000
0010
0000
,
1000
0010
0100
0001
1000
0000
0100
0000
1000
0100
0010
0001
1000
0000
0100
0000
,
1000
0001
0100
0010
0100
0000
0001
0000
1000
0010
0100
0001
1001
0000
1000
0000
,
0100
0010
0001
1000
0001
0000
0100
0000
0010
1000
0010
0100
0001
0000
1000
0000
,
0100
1000
0001
0100
0010
0000
1000
0000
0010
0100
0001
0100
0010
0000
1000
0000
,
0001
1000
0100
0010
0001
0000
1000
0000
0001
1000
0001
0100
0010
0000
1000
0000
,
0001
0100
0001
0010
0100
0000
1000
0000
0100
1000
0001
0010
0110
0000
0100
0000
,
1000
0010
0100
0010
1000
0000
0001
0000
0100
0010
0100
0001
1000
0000
0100
0000
,
0010
0001
0010
0100
1000
0000
0001
0000
1000
0001
0100
0010
1000
0000
0010
0000
,
0100
0001
1000
0001
0010
0000
0100
0000
1000
0100
1000
0001
0100
0000
0010
0000
,
0100
0010
1000
0010
0100
0000
0001
0000
1000
0100
0010
0001
0101
0000
0100
0000
,
0010
1000
0010
0100
0001
0000
1000
0000
0100
1000
0010
0100
0001
0000
1000
0000
,
0001
0100
0001
1000
0010
0000
0100
0000
0010
1000
0010
0100
0001
0000
1000
0000
,
0100
0010
0001
1000
0001
0000
0100
0000
0010
1000
0010
0100
0001
0000
1000
0000
,
0010
0100
0010
1000
0001
0000
0010
0000
0100
1000
0001
1000
0010
0100
0001
0000
,
1000
0000
0100
0010
0000
0001
0100
0000
0010
1000
0010
0000
0100
0001
1000
0000
,
0100
0000
0010
0001
0000
1000
0010
0000
0100
0001
0100
0000
0010
1000
0001
0000
,
0010
0000
0100
1000
0000
0001
0100
0000
0010
1000
0010
0000
0100
0001
1000
0010
,
1000
0000
0100
0000
0010
0000
0001
0000
0100
0010
1000
0010
0100
0001
1000
0001
0010
0100
1000
0001
0100
0010
1000
0001
0200
0000
0000
0000
0000
0000
0000
0000
,
0300
0000
0000
0000
,
0000
0000
0000
0000
,
0000
0000
0000
0000
,
0000
0000
0000
0000
0000
0000
0000
0000
0000
0000
0000
0000
0010
1000
0010
1000
,
0001
1000
0010
1000
0010
1000
0010
1000
0010
0000
0000
0000
0000
0000
0000
0000
,
0000
0000
0000
0000
0000
0000
0000
0000
0000
0000
0000
0000
0100
0001
0100
0001
,
1000
0001
0100
0001
0100
0001
0100
0001
0200
0000
0000
0000
0000
0000
0000
0000
,
0000
0000
0000
0000
0000
0000
0000
0000
0000
0000
0000
0000
0301
1000
0001
1000
,
0010
1000
0100
1000
0100
1000
0100
1000
0100
0000
0000
0000
0000
0000
0000
0000
,
0000
0000
0000
0000
0000
0000
0000
0000
0000
0000
0000
0000
0010
0001
0010
0001
,
1000
0001
0100
0001
0100
0001
0100
0001
0100
0000
0000
0000
0000
0000
0000
0000
,
0000
0000
0000
0000
0000
0000
0000
0000
0000
0000
0000
0000
1000
0010
1000
0010
,
0100
0001
0100
0001
0100
0001
0100
0001
0100
0001
1000
0100
1000
0100
1000
0100
,
0010
0001
0010
0001
0010
0100
1000
0100
1000
0100
1000
0010
1000
0010
1000
0010
,
0100
0001
0100
0001
0100
0001
0100
0001
0100
0001
1000
0001
1000
0001
1000
0001
,
1000
0010
1000
0010
1000
0001
0100
0001
0100
0001
1000
0010
1000
0010
1000
0010
,
0100
0001
0100
0001
0100
0001
0100
0001
0100
0001
1000
0010
1000
0010
1000
0010
,
1000
0100
1000
0100
1000
0010
0100
0010
0100
0010
1000
0001
1000
0001
1000
0001
,
0100
0001
0100
0001
0100
0001
0100
0001
0100
0001
1000
0001
1000
0001
1000
0001
,
1000
0010
1000
0010
1000
0001
0100
0001
0100
0001
1000
0010
0100
0010
0100
0010
,
1000
0001
0100
0001
0100
0001
0100
0001
0100
0001
0010
0100
0010
0100
0010
0100
,
0010
0001
1000
0001
1000
0010
0100
0010
0100
0010
1000
0100
1000
0100
1000
0100
,
0010
0001
0100
0001
0100
0001
0100
0001
0100
0001
1000
0010
0100
0010
0100
0010
,
1000
0001
0100
0001
0100
0010
0100
0010
0100
0010
0100
0001
10M0
0100
1000
0100
,
0010
0001
1000
0100
1000
0100
1000
0100
1000
0100
0010
0001
0100
0010
0100
0010
,
1000
0001
1000
0010
1000
0010
0100
0010
0100
0010
0100
0001
1M00
0010
1000
0010
,
0100
0001
1000
0100
10M0
0100
1000
0100
1000
0100
1000
0010
M100
0001
0100
0001
,
M010
0100
1000
0100
100M
0010
0100
0010
M100
0010
0100
0001
1000
0000
00M0
0M00
,
10M0
0000
00M0
0M00
10M0
0000
00M0
0M00
10M0
0000
00M0
0M00
10M0
0000
0000
0000
,
2000
0000
0000
0000
0000
0000
0001
0000
0000
0001
0000
0000
0001
0000
0000
0001
0000
0000
3010
0100
0010
1000
0001
0100
,
0001
1000
0100
0010
0001
1000
0100
1000
0010
0100
0001
0100
0010
1000
0001
1000
0100
0010
0001
1000
0100
1000
0001
0100
,
0010
1000
0010
0100
0001
1000
0100
0010
0001
1000
0100
1000
0001
0100
0010
1000
0010
0100
0001
1000
0100
0010
0001
1000
,
0100
1000
0010
0100
0001
1000
0001
0100
0010
0100
0001
1000
0100
0010
0001
1000
0100
1000
0010
0100
0010
1000
0001
0100
,
0001
0010
0100
1000
0001
0010
0001
0100
0010
1000
0100
1000
0001
0010
0001
0100
0010
1000
0010
0100
0001
1000
0001
0100
,
0010
0100
0001
1000
0100
1000
0010
0100
0001
0100
0010
1000
0100
0010
0001
1000
0100
1000
0001
0100
0010
1000
0010
0100
,
0001
1000
0001
0100
0010
0100
0001
1000
0100
0010
0100
1000
0001
0010
0001
0100
0010
1000
0010
0100
0001
1000
0100
1000
,
0001
0100
0010
0100
0001
1000
0010
1000
0100
0010
0001
1000
0100
1000
0001
0010
0001
0100
0010
1000
0010
0100
0001
1000
,
0001
0100
0010
1000
0010
0100
0001
1000
0100
1000
0001
0010
0001
0100
0010
1000
0010
0100
0001
1000
0100
0010
0001
1000
,
0100
1000
0010
0100
0001
0100
0010
1000
0001
1000
0100
0010
0001
1000
0100
1000
0001
0010
0001
0100
0010
1000
0010
0100
,
0001
1000
0001
0100
0010
0100
0001
1000
0010
1000
0100
0010
0001
1000
0100
1000
0010
0100
0001
1000
0100
1000
0001
0100
,
0010
0100
0001
1000
0100
0010
0001
1000
0100
1000
0001
0010
0001
0100
0010
1000
0010
0100
0001
1000
0001
0100
0010
0100
,
0001
1000
0100
0010
0001
1000
0100
1000
0010
0100
0001
1000
0001
0100
0010
0100
0001
1000
0100
1000
0010
0100
0001
1000
,
0001
0100
0010
1000
0010
0100
0001
1000
0100
1000
0010
0100
0001
1000
0001
0100
0010
1000
0010
0100
0001
1000
0100
0010
,
0001
0010
0100
1000
0001
0100
0001
1000
0010
0100
0001
0100
0010
1000
0001
1000
0100
0010
0001
1000
0100
1000
0010
0100
,
0001
1000
0100
1000
0001
0010
0001
0100
0010
1000
0010
0100
0001
1000
0010
1000
0001
0100
0001
1000
0100
0010
0001
1000
,
0100
1000
0010
0100
0001
1000
0100
1000
0010
0100
0001
1000
0010
0100
0010
1000
0001
0100
0001
1000
0100
0010
0001
1000
,
0100
1000
0010
0100
0001
0100
0010
1000
0001
1000
0100
0010
0001
1000
0100
1000
0001
0100
0010
1000
0010
0100
0001
1000
,
0100
0010
0001
1000
0100
1000
0001
0100
0010
1000
0010
0100
0001
1000
0100
0010
0001
1000
0100
1000
0010
0100
0001
1000
,
0001
0100
0010
0100
0001
1000
0100
0010
0001
1000
0100
1000
0010
0100
0010
1000
0001
0100
0001
0010
0100
1000
0001
0010
,
0001
0100
0010
1000
0100
1000
0001
0010
0001
0100
0010
1000
0010
0100
0001
1000
0001
0100
0010
0100
0001
1000
0100
1000
,
0010
0100
0001
0100
0010
1000
0100
0010
0001
1000
0100
1000
0001
0100
0010
1000
0010
0100
0001
1000
0001
0100
0010
0100
,
0001
1000
0100
0010
0100
1000
0001
0010
0001
0100
0010
1000
0010
0100
0001
1000
0100
1000
0001
0100
0010
0100
0001
1000
,
0010
1000
0100
0010
0001
1000
0100
1000
0001
0010
0001
0100
0010
1000
0010
0100
0001
1000
0001
0100
0010
1000
0010
0100
,
0001
1000
0100
1000
0001
0010
0001
0100
0010
1000
0010
0100
0001
1000
0100
0010
0001
1000
0100
1000
0010
0100
0001
0100
,
0010
1000
0001
1000
0100
0010
0001
1000
0100
1000
0001
0010
0001
0100
0010
1000
0010
0100
0001
1000
0001
0100
0010
0100
,
0001
1000
0010
1000
0100
0010
0001
1000
0100
1000
0010
0100
0001
1000
0100
1000
0001
0100
0010
0100
0001
1000
0100
0010
,
0001
1000
0100
1000
0001
0010
0001
0100
0010
1000
0010
0100
0001
1000
0001
0100
0010
0100
0001
1000
0100
0010
0001
1000
,
0100
1000
0010
0100
0001
1000
0001
0100
0010
0100
0001
1000
0100
1000
0010
0100
0001
1000
0001
0100
0010
1000
0010
0100
,
0001
1000
0100
1000
0010
0100
0001
1000
0001
0100
0010
1000
0010
0100
0001
1000
0100
0010
0001
0010
0100
1000
0001
0100
,
0001
1000
0010
0100
0001
0100
0010
1000
0001
1000
0100
0010
0001
1000
0100
1000
0010
0100
0001
1000
0100
1000
0001
0010
,
0001
0100
0010
1000
0010
0100
0001
1000
0010
1000
0001
0100
0001
1000
0100
0010
0001
1000
0100
1000
0010
0100
0001
1000
,
0100
1000
0010
0100
0001
1000
0010
0100
0001
1000
0100
1000
0001
0100
0010
0100
0001
1000
0100
0010
0001
1000
0001
0100
,
0010
1000
0010
0100
0001
1000
0100
0010
0001
1000
0001
0010
0100
1000
0001
0100
0001
0010
0100
1000
0001
0100
0001
1000
,
0010
0100
0010
1000
0001
0100
0001
1000
0100
0010
0001
1000
0100
1000
0010
0100
0001
1000
0001
0100
0010
0100
0001
1000
,
0100
0010
0001
1000
0100
1000
0010
0100
0010
1000
0001
0100
0001
1000
0100
0010
0001
1000
0010
1000
0100
0010
0001
1000
,
0100
1000
0001
0100
0010
0100
0001
1000
0100
1000
0010
0100
0001
0100
0010
1000
0100
1000
0001
0010
0001
0100
0010
1000
,
0010
0100
0001
1000
0001
0100
0010
0100
0001
1000
0010
1000
0100
0010
0001
1000
0100
1000
0010
0100
0001
1000
0100
1000
,
0001
0100
0010
0100
0001
1000
0100
0010
0001
1000
0100
1000
0001
0010
0001
0100
0010
1000
0010
0100
0001
1000
0001
0100
,
0010
0100
0001
1000
0100
0010
0001
1000
0100
1000
0010
0100
0001
1000
0001
0100
0010
0100
0001
1000
0100
1000
0010
0100
,
0001
1000
0001
0100
0010
1000
0010
0100
0001
1000
0100
1000
0010
0100
0001
1000
0001
0100
0010
1000
0010
0100
0001
1000
,
0100
0010
0001
0010
0100
1000
0001
0100
0001
1000
0010
0100
0001
0100
0010
1000
0001
1000
0100
0010
0001
1000
0100
1000
,
0010
0100
0001
1000
0100
1000
0001
0010
0001
0100
0010
1000
0010
0100
0001
1000
0010
1000
0001
0100
0001
1000
0100
0010
,
0001
1000
0100
1000
0010
0100
0001
1000
0100
1000
0010
0100
0001
1000
0010
0100
0001
1000
0100
1000
0001
0100
0010
0100
,
0001
1000
0100
0010
0001
1000
0001
0100
0010
1000
0010
0100
0001
1000
0100
0010
0001
1000
0001
0010
0100
1000
0001
0100
,
0001
0010
0100
1000
0001
0100
0001
1000
0010
0100
0010
1000
0001
0100
0001
1000
0100
0010
0001
1000
0100
1000
0010
0100
,
0001
1000
0001
0100
0010
0100
0001
1000
0100
0010
0001
1000
0100
1000
0010
0100
0010
1000
0001
0100
0001
1000
0100
0010
,
0001
1000
0010
1000
0100
0010
0001
1000
0100
1000
0001
0100
0010
0100
0001
1000
0100
1000
0010
0100
0001
0100
0010
1000
,
0001
0010
0001
0100
0010
1000
0010
0100
0001
1000
0001
0100
0010
0100
0001
1000
0010
1000
0100
0010
0001
1000
0100
1000
,
0010
0100
0001
1000
0100
1000
0001
0100
0010
0100
0001
1000
0100
0010
0001
1000
0100
1000
0001
0010
0001
0100
0010
1000
,
0010
0100
0001
1000
0001
0100
0010
0100
0001
1000
0100
0010
0001
1000
0100
1000
0010
0100
0001
1000
0001
0100
0010
0100
,
0001
1000
0100
1000
0010
0100
0001
1000
0001
0100
0010
1000
0010
0100
0001
1000
0100
1000
0010
0100
0001
1000
0001
0100
,
0010
1000
0010
0100
0001
1000
0100
0010
0001
0010
0100
1000
0001
0100
0001
1000
0010
0100
0001
0100
0010
1000
0001
1000
,
0100
0010
0001
1000
0100
1000
0010
0100
0001
1000
0100
1000
0001
0010
0001
0100
0010
1000
0010
0100
0001
1000
0010
1000
,
0001
0100
0001
1000
0100
0010
0001
1000
0100
1000
0010
0100
0001
1000
0100
1000
0010
0100
0001
1000
0010
0100
0001
1000
,
0100
1000
0001
0100
0010
0100
0001
1000
0100
0010
0001
1000
0001
0100
0010
1000
0010
0100
0001
1000
0100
0010
0001
1000
,
0001
0010
0100
1000
0001
0100
0001
0010
0100
1000
0001
0100
0001
1000
0010
0100
0010
1000
0001
0100
0001
1000
0100
0010
,
0001
1000
0100
1000
0010
0100
0001
1000
0001
0100
0010
0100
0001
1000
0100
0010
0001
1000
0100
1000
0010
0100
0010
1000
,
0001
0100
0001
1000
0100
0010
0001
1000
0010
1000
0100
0010
0001
1000
0100
1000
0001
0100
0010
0100
0001
1000
0100
1000
,
0010
0100
0001
0100
0010
1000
0100
1000
0001
0010
0100
1000
0001
1000
0010
0100
0001
0100
0010
1000
0100
1000
0001
0010
,
0001
0100
0010
1000
0010
0100
0001
1000
0100
0010
0001
1000
0100
1000
0010
0100
0001
1000
0001
0100
0010
0100
0001
1000
,
0100
0010
0001
1000
0100
1000
0010
0100
0001
0100
0010
1000
0001
1000
0100
0010
0001
1000
0100
1000
0001
0010
0001
0100
,
0010
1000
0010
0100
0001
1000
0001
0100
0010
0100
0001
1000
0100
0010
0001
1000
0100
1000
0010
0100
0001
0100
0010
1000
,
0001
1000
0100
0010
0001
1000
0100
1000
0001
0100
0010
0100
0001
1000
0010
1000
0100
0010
0001
1000
0010
1000
0100
0010
,
0001
1000
0001
0100
0010
1000
0010
0100
0001
1000
0001
0100
0010
0100
0001
1000
0100
1000
0010
0100
0001
0100
0010
1000
,
0001
1000
0100
0010
0001
1000
0100
1000
0010
0100
0001
1000
0001
0010
0100
1000
0001
0010
0001
0100
0010
1000
0010
0100
,
0001
0100
0010
1000
0001
1000
0100
0010
0001
1000
0100
1000
0010
0100
0001
0100
0010
1000
0001
1000
0010
0100
0010
1000
,
0001
0100
0001
0010
0100
1000
0100
0010
0001
1000
0100
1000
0010
0100
0001
0100
0010
1000
0001
1000
0100
0010
0100
1000
,
0001
0000
0010
0000
0001
0000
0100
0000
0010
0000
1000
0000
0010
0000
0100
0000
0001
0000
1000
0000
0010
0000
1000
0000
0100
0000
0010
0000
0001
0000
1000
0000
0010
0000
0100
0000
0001
0000
0000
1000
0000
0000
0100
0000
0000
1000
0000
0000
,
0001
0010
0001
0100
0010
1000
0010
0100
0001
1000
0001
0100
0010
0100
0001
1000
,
0100
0000
0000
0010
0000
0000
0001
0000
0000
1000
0000
0000
0100
0000
0000
1000
0000
0000
0010
0000
0000
0100
0000
0000
0001
0000
0000
0100
0000
0000
0010
0000
0000
1000
0000
0000
0001
0000
0100
0000
0001
0000
1000
0000
0100
0000
0010
0000
,
0001
1000
0100
1000
0010
0100
0001
0100
0010
1000
0001
1000
0100
0010
0001
1000
0100
1000
0001
0100
0010
1000
0010
0100
,
0001
1000
0100
0010
0001
1000
0100
1000
0001
0100
0010
1000
0010
0100
0001
1000
0100
0010
0001
1000
0100
1000
0010
0100
,
0001
1000
0001
0100
0010
0100
0001
1000
0100
0010
0001
1000
0100
1000
0010
0100
0010
1000
0001
0100
0001
0010
0100
1000
,
0001
0010
0001
0100
0010
1000
0100
1000
0001
0010
0001
0100
0010
1000
0010
0100
0001
1000
0001
0100
0010
0100
0001
1000
,
0100
1000
0010
0100
0001
0100
0010
1000
0100
0010
0001
1000
0100
1000
0001
0100
0010
1000
0010
0100
0001
1000
0001
0100
,
0010
0100
0001
1000
0100
0010
0100
1000
0001
0010
0001
0100
0010
1000
0010
0100
0001
1000
0100
1000
0001
0100
0010
0100
,
0001
1000
0010
1000
0100
0010
0001
1000
0100
1000
0001
0010
0001
0100
0010
1000
0010
0100
0001
1000
0001
0100
0010
1000
,
0010
0100
0001
1000
0100
1000
0001
0010
0001
0100
0010
1000
0010
0100
0001
1000
0100
0010
0001
1000
0100
1000
0010
0100
,
0001
0100
0010
1000
0001
1000
0100
0010
0001
1000
0100
1000
0001
0010
0001
0100
0010
1000
0010
0100
0001
1000
0001
0100
,
0010
0100
0001
1000
0010
1000
0100
0010
0001
1000
0100
1000
0010
0100
0001
1000
0100
1000
0001
0100
0010
0100
0001
1000
,
0100
0010
0001
1000
0100
1000
0001
0010
0001
0100
0010
1000
0010
0100
0001
1000
0001
0100
0010
0100
0001
1000
0100
0010
,
0001
1000
0100
1000
0010
0100
0001
1000
0001
0100
0010
0100
0001
1000
0100
1000
0010
0100
0001
1000
0001
0100
0010
1000
,
0010
0100
0001
1000
0100
1000
0010
0100
0001
1000
0001
0100
0010
1000
0010
0100
0001
1000
0100
0010
0001
0010
0100
1000
,
0001
0100
0001
1000
0010
0100
0001
0100
0010
1000
0001
1000
0100
0010
0001
1000
0100
1000
0010
0100
0001
1000
0100
1000
,
0001
0010
0001
0100
0010
1000
0010
0100
0001
1000
0010
1000
0001
0100
0001
1000
0100
0010
0001
1000
0100
1000
0010
0100
,
0001
1000
0100
1000
0010
0100
0001
1000
0010
0100
0010
1000
0001
0100
0001
1000
0100
0010
0001
1000
0100
1000
0010
0100
,
0001
0100
0010
1000
0001
1000
0100
0010
0001
1000
0100
1000
0001
0100
0010
1000
0010
0100
0001
1000
0100
0010
0001
1000
,
0100
1000
0001
0100
0010
1000
0010
0100
0001
1000
0100
0010
0001
1000
0100
1000
0010
0100
0001
1000
0001
0100
0010
0100
,
0001
1000
0100
0010
0001
1000
0100
1000
0010
0100
0010
1000
0001
0100
0001
0010
0100
1000
0001
0010
0001
0100
0010
1000
,
0100
1000
0001
0010
0001
0100
0010
1000
0010
0100
0001
1000
0001
0100
0010
0100
0001
1000
0100
1000
0010
0100
0001
0100
,
0010
1000
0100
0010
0001
1000
0100
1000
0001
0100
0010
1000
0010
0100
0001
1000
0001
0100
0010
0100
0001
1000
0100
0010
,
0100
1000
0001
0010
0001
0100
0010
1000
0010
0100
0001
1000
0100
1000
0001
0100
0010
0100
0001
1000
0010
1000
0100
0010
,
0001
1000
0100
1000
0001
0010
0001
0100
0010
1000
0010
0100
0001
1000
0001
0100
0010
1000
0010
0100
0001
1000
0100
1000
,
0001
0010
0001
0100
0010
1000
0010
0100
0001
1000
0100
0010
0001
1000
0100
1000
0010
0100
0001
0100
0010
1000
0001
1000
,
0100
0010
0001
1000
0100
1000
0001
0010
0001
0100
0010
1000
0010
0100
0001
1000
0001
0100
0010
0100
0001
1000
0010
1000
,
0100
0010
0001
1000
0100
1000
0010
0100
0001
1000
0100
1000
0001
0100
0010
0100
0001
1000
0100
0010
0001
1000
0100
1000
,
0001
0010
0001
0100
0010
1000
0010
0100
0001
1000
0001
0100
0010
0100
0001
1000
0100
0010
0001
1000
0100
1000
0010
0100
,
0001
1000
0001
0100
0010
0100
0001
1000
0100
1000
0010
0100
0001
1000
0001
0100
0010
1000
0010
0100
0001
1000
0100
1000
,
0010
0100
0001
1000
0001
0100
0010
1000
0010
0100
0001
1000
0100
0010
0001
0010
0100
1000
0001
0100
0001
1000
0010
0100
,
0001
0100
0010
1000
0001
1000
0100
0010
0001
1000
0100
1000
0010
0100
0001
1000
0100
1000
0001
0010
0001
0100
0010
1000
,
0010
0100
0001
1000
0010
1000
0001
0100
0001
1000
0100
0010
0001
1000
0100
1000
0010
0100
0001
1000
0100
1000
0010
0100
,
0001
0000
0000
0000
1000
0000
0000
0000
0010
0000
0000
0000
0100
0000
0000
0000
0001
0000
0000
0000
1000
0000
0000
0000
0100
0000
0000
0010
0000
0000
0001
0000
0000
1000
0000
0000
0001
0000
0000
0100
0000
0000
0010
0000
0000
1000
0000
0000
0010
0000
0000
0100
0000
0000
0001
0000
0000
1000
0000
0000
0001
0000
0000
0010
0000
0000
0100
0000
0000
1000
0000
0000
0001
0000
0000
0000
0000
0000
0000
0000
0000
0000
0000
0000
0100
0000
0000
0000
0000
0000
0000
0000
0000
0000
0000
0000
,
0010
1000
0010
0100
0001
0000
1000
0000
0100
0010
0001
1000
0010
0000
0100
0000
,
0001
1000
0001
0100
0010
0000
1000
0000
0010
0100
0010
1000
0001
0000
0010
0000
,
0100
1000
0001
1000
0100
0000
0010
0000
0001
1000
0001
0100
0010
0000
1000
0000
,
0010
0100
0010
1000
0001
0000
1000
0000
0100
0010
0001
1000
1010
0000
0010
0000
,
0100
0001
1000
0100
1000
0000
0010
0000
0100
0001
1000
0001
0010
0000
0100
0000
,
1000
0100
0010
0001
1000
0000
0001
0000
0010
0100
1000
0001
1000
0000
0010
0000
,
0100
0010
1000
0010
0100
0000
0001
0000
1000
0001
0010
0100
1000
0000
0010
0000
,
0100
0001
0100
0010
1000
0000
0001
0000
1000
0010
0100
0010
1010
0000
1000
0000
,
0001
0010
0001
0100
0010
0000
1000
0000
0010
1000
0010
0100
0001
0000
1000
0000
,
0100
0010
0001
1000
0001
0000
0010
0000
0100
1000
0001
1000
0010
0000
0100
0000
,
0001
1000
0001
0100
0010
0000
1000
0000
0100
1000
0001
0100
0010
0000
1000
0000
,
0010
0100
0001
1000
0001
0000
0010
0000
0100
1000
0010
0100
0101
0000
0001
0000
,
1000
0010
1000
0100
0010
0000
0001
0000
1000
0001
0100
0010
1000
0000
0010
0000
,
0100
0001
1000
0001
0100
0000
0010
0000
1000
0100
1000
0001
0010
0000
0100
0000
,
1000
0001
1000
0100
0010
0000
0001
0000
1000
0100
1000
0001
0100
0000
0010
0000
,
1000
0010
0100
0001
1000
0000
0100
0000
0010
0001
1000
0010
0110
0000
0100
0000
,
0001
0001
1000
0010
0100
0100
0001
1000
,
0100
0100
0010
0001
1000
1000
0010
0100
,
0001
0001
1000
0010
0100
0100
0001
1000
,
0100
0100
0010
0001
1000
1000
0100
1000
,
0010
0010
0100
0001
1000
1000
0010
1000
,
0001
0001
0010
0100
1000
1000
0001
0100
,
0010
0010
1000
0100
1000
1000
0001
0010
,
0001
0001
0100
0010
1000
1000
0001
0100
,
0010
1000
0010
0100
0001
1000
0100
0010
,
0001
1000
0100
1000
0001
0010
0001
0100
,
0010
1000
0001
0100
0001
1000
0100
0010
,
0001
1000
0100
1000
0010
0100
0001
1000
,
0001
0010
0100
1000
0001
0010
0001
0100
,
0010
1000
0010
0100
0001
1000
0100
1000
,
0010
0100
0001
1000
0001
0010
0100
1000
,
0001
1000
0010
0100
0001
1000
0000
0000
,
0000
0000
0000
0000
;

//---------------dance-single - ----------------
#NOTES:
     dance-single:
     :
     Medium:
     22:
     1.000,1.000,0.050,0.014,1.000,3328.000,21.000,6.000,17.000,0.000:

1000
0100
0010
0000
0010
0000
0000
0000
0001
1000
0100
0000
0100
0000
0000
0000
,
0010
0001
1000
0000
1000
0000
0000
0000
0010
0100
0001
0000
0001
0000
0000
0000
,
1000
0100
1000
0000
1000
0000
0000
0000
0010
0100
0001
0000
0001
0000
0000
0000
,
1000
0010
0100
0000
0100
0000
0000
0000
0001
1000
0001
0000
0001
0000
0000
0000
,
0010
0100
1000
0000
1000
0000
0000
0000
0100
0010
0001
0000
0001
0000
0000
0000
,
0100
0010
1000
0000
1000
0000
0000
0000
0010
0100
0001
0000
0001
0000
0000
0000
,
1000
0100
0010
0000
0010
0000
0000
0000
0001
1000
0010
0000
0010
0000
0000
0000
,
0100
0001
1000
0000
2000
0000
0000
0000
00M0
0M00
000M
0000
3100
0000
0010
0000
,
0001
1000
0010
1000
0100
0000
0010
0000
0001
1000
0100
1000
0010
0000
0100
0000
,
0001
1000
0100
1000
0010
0000
0100
0000
0001
1000
0001
0010
0100
0000
1000
0000
,
0001
0010
0001
0100
0010
0000
1000
0000
0100
1000
0001
0100
0010
0000
1000
0000
,
0010
0100
0001
0100
0010
0000
1000
0000
0001
0010
0100
1000
0010
0000
0100
0000
,
0001
1000
0100
1000
0010
0000
0100
0000
0001
1000
0001
0010
0100
0000
1000
0000
,
0010
0100
0001
1000
0100
0000
1000
0000
0001
0010
0100
1000
0001
0000
0100
0000
,
0010
1000
0010
0100
0001
0000
1000
0000
0100
0010
0001
1000
0001
0000
0100
0000
,
0010
1000
0010
0100
0001
0000
1000
0000
0100
0010
0001
1000
1001
0000
0010
0000
,
0100
0001
1000
0010
0100
0000
0010
0000
1000
0001
1000
0010
1000
0000
0100
0000
,
0010
0001
0010
0100
1000
0000
0001
0000
0100
0010
1000
0010
0100
0000
0001
0000
,
1000
0100
0010
0001
0100
0000
0010
0000
1000
0100
1000
0001
0100
0000
0010
0000
,
1000
0001
0010
0001
0100
0000
0010
0000
1000
0001
0100
0001
0010
0000
0100
0000
,
1000
0100
1000
0001
0100
0000
0010
0000
1000
0010
0100
0001
1000
0000
0100
0000
,
0010
0001
0010
0100
1000
0000
0001
0000
0100
0001
1000
0010
0100
0000
0010
0000
,
1000
0001
0100
0001
1000
0000
0100
0000
0010
0001
1000
0001
0100
0000
0010
0000
,
1000
0001
0100
0010
0100
0000
0001
0000
1000
0100
1000
0010
0110
0000
0100
0000
,
0001
1000
0010
0100
0001
0000
1000
0000
0100
0010
0001
1000
0001
0000
0100
0000
,
0010
1000
0010
0100
0001
0000
1000
0000
0100
1000
0001
0100
0010
0000
1000
0000
,
0001
0010
0100
1000
0010
0000
0100
0000
0001
1000
0001
0100
0010
0000
1000
0000
,
0100
0010
0001
0010
0100
0000
1000
0000
0001
0100
0010
1000
0010
0000
0100
0000
,
0001
1000
0001
0100
0010
0000
1000
0000
0100
0010
0001
1000
0100
0000
1000
0000
,
0010
0100
0001
1000
0010
0000
0100
0000
0001
1000
0001
0010
0100
0000
1000
0000
,
0001
0010
0100
1000
0010
0000
0100
0000
0001
1000
0001
0100
0010
0000
1000
0000
,
0001
0100
0001
1000
0100
0000
0010
0000
0001
1000
0010
0100
0102
0000
0000
0000
,
00M0
0000
0000
0000
0000
0000
0000
0000
0000
0M00
0000
0000
1003
0000
0100
0000
,
1000
0000
0010
0000
0100
0001
1000
0100
0010
0000
0000
0000
0001
0000
0000
0000
0010
0000
0001
0000
1000
0100
0010
0001
0100
0000
0000
0000
0010
0000
0000
0000
,
1000
0000
0010
0000
0100
0001
0100
0010
1000
0000
0000
0000
0001
0000
0000
0000
0010
0000
0100
0000
1000
0001
0100
0010
0100
0000
0000
0000
0010
0000
0000
0000
,
1000
0000
0010
0000
0100
0001
0100
0010
1000
0000
0000
0000
0100
0000
0000
0000
0010
0000
0001
0000
1000
0001
0100
0010
0100
0000
0000
0000
0010
0000
0000
0000
,
1000
0010
0100
0001
1000
0000
0100
0000
0010
0001
1000
0010
0110
0000
0100
0000
,
0001
0000
1000
0000
0100
0010
0001
0010
0100
0000
0000
0000
1000
0000
0000
0000
0001
0000
0010
0000
0100
1000
0100
0010
0001
0000
0000
0000
0100
0000
0000
0000
,
0001
0000
1000
0000
0001
0100
0010
0100
0010
0000
0000
0000
1000
0000
0000
0000
0100
0000
1000
0000
0001
0010
0001
1000
0001
0000
0000
0000
0100
0000
0000
0000
,
0010
0000
1000
0000
0010
0100
0001
0100
0001
0000
0000
0000
1000
0000
0000
0000
0100
0000
0010
0000
0001
1000
0001
0100
0001
0000
0000
0000
0100
0000
0000
0000
,
0010
1000
0010
0100
0001
0000
1000
0000
0010
0100
0010
1000
1001
0000
0001
0000
,
0010
0000
0100
0000
1000
0100
0010
0001
1000
0000
0000
0000
0100
0000
0000
0000
0010
0000
0100
0000
1000
0100
0010
0001
0100
0000
0000
0000
0010
0000
0000
0000
,
1000
0000
0010
0000
0100
0001
0100
0010
0100
0000
0000
0000
0001
0000
0000
0000
1000
0000
0100
0000
1000
0001
0010
0100
0010
0000
0000
0000
0100
0000
0000
0000
,
1000
0000
0001
0000
0100
0001
0010
0100
1000
0000
0000
0000
0100
0000
0000
0000
1000
0000
0010
0000
1000
0001
0100
0010
0100
0000
0000
0000
0010
0000
0000
0000
,
1000
0000
0010
0000
0100
0001
0100
0010
1000
0000
0000
0000
0010
0000
0000
0000
1000
0000
0100
0000
1000
0010
0100
0001
0010
0000
0000
0000
0100
0000
0000
0000
,
1000
0000
0001
0000
1000
0100
0010
0001
0100
0000
0000
0000
0001
0000
0000
0000
1000
0000
0100
0000
1000
0100
0010
0001
0100
0000
0000
0000
0001
0000
0000
0000
,
0010
0000
0100
0000
1000
0001
0100
0001
0010
0000
0000
0000
0100
0000
0000
0000
1000
0000
0100
0000
1000
0001
0100
0010
0100
0000
0000
0000
0010
0000
0000
0000
,
1000
0100
0010
0001
1000
0000
0100
0000
0010
0001
1000
0001
0100
0000
0010
0000
,
1000
0001
0100
0010
0100
0001
1001
1000
,
0100
0000
0010
0000
0001
0100
0010
1000
0001
0000
0000
0000
0100
0000
0000
0000
0010
0000
1000
0000
0010
0100
0001
0100
0001
0000
0000
0000
1000
0000
0000
0000
,
0100
0000
0010
0000
0001
0100
0010
1000
0010
0000
0000
0000
1000
0000
0000
0000
0010
0000
0100
0000
0010
1000
0010
0100
0001
0000
0000
0000
1000
0000
0000
0000
,
0100
0000
0010
0000
0001
0010
0100
0010
0001
0000
0000
0000
0100
0000
0000
0000
0010
0000
1000
0000
0010
0100
0001
0100
0001
0000
0000
0000
1000
0000
0000
0000
,
0100
1000
0001
0100
0010
0000
1000
0000
0010
1000
0001
0100
0110
0000
0010
0000
,
1000
0000
0100
0000
1000
0001
0010
0100
1000
0000
0000
0000
0010
0000
0000
0000
0100
0000
0001
0000
1000
0010
0100
0001
0010
0000
0000
0000
0100
0000
0000
0000
,
1000
0000
0001
0000
1000
0100
0010
0001
0010
0000
0000
0000
0001
0000
0000
0000
1000
0000
0010
0000
1000
0001
0100
0010
0100
0000
0000
0000
0010
0000
0000
0000
,
1000
0000
0010
0000
0100
0001
0100
0010
1000
0000
0000
0000
0100
0000
0000
0000
1000
0000
0100
0000
0010
0001
0100
0010
1000
0000
0000
0000
0100
0000
0000
0000
,
1000
0001
0100
0010
0100
0000
0001
0000
1000
0010
0100
0001
1001
0000
1000
0000
,
0100
0000
0010
0000
0001
1000
0001
0100
0001
0000
0000
0000
0100
0000
0000
0000
0010
0000
1000
0000
0010
0100
0010
0100
0001
0000
0000
0000
1000
0000
0000
0000
,
0100
0000
1000
0000
0001
0100
0010
0100
0010
0000
0000
0000
1000
0000
0000
0000
0010
0000
0100
0000
0001
1000
0100
0010
0001
0000
0000
0000
1000
0000
0000
0000
,
0001
0000
1000
0000
0100
0010
0001
0010
0001
0000
0000
0000
1000
0000
0000
0000
0001
0000
1000
0000
0001
0010
0100
1000
0010
0000
0000
0000
1000
0000
0000
0000
,
0001
0100
0001
0010
0100
0000
1000
0000
0100
1000
0001
0010
0110
0000
0100
0000
,
1000
0010
0100
0010
1000
0000
0001
0000
0100
0010
0100
0001
1000
0000
0100
0000
,
0010
0001
0010
0100
1000
0000
0001
0000
1000
0001
0100
0010
1000
0000
0010
0000
,
0100
0001
1000
0001
0010
0000
0100
0000
1000
0100
1000
0001
0100
0000
0010
0000
,
0100
0010
1000
0010
0100
0000
0001
0000
1000
0100
0010
0001
0101
0000
0100
0000
,
0010
1000
0010
0100
0001
0000
1000
0000
0100
1000
0010
0100
0001
0000
1000
0000
,
0001
0100
0001
1000
0010
0000
0100
0000
0010
1000
0010
0100
0001
0000
1000
0000
,
0100
0010
0001
1000
0001
0000
0100
0000
0010
1000
0010
0100
0001
0000
1000
0000
,
0010
0100
0010
1000
0001
0000
0010
0000
0100
1000
0001
1000
0010
0100
0001
0000
,
1000
0000
0100
0010
0000
0001
0100
0000
0010
1000
0010
0000
0100
0001
1000
0000
,
0100
0000
0010
0001
0000
1000
0010
0000
0100
0001
0100
0000
0010
1000
0001
0000
,
0010
0000
0100
1000
0000
0001
0100
0000
0010
1000
0010
0000
0100
0001
1000
0010
,
1000
0000
0100
0000
0010
0000
0001
0000
0100
0010
1000
0001
0100
0010
1000
0100
0010
0001
0010
0100
1000
0001
0100
0010
0200
0000
0000
0000
0000
0000
0000
0000
,
0300
0000
0000
0000
,
0000
0000
0000
0000
,
0000
0000
0000
0000
,
0000
0000
0000
0000
0000
0000
0000
0000
0000
0000
0000
0000
1000
1000
1000
1000
,
0100
0010
0010
0010
0010
0010
0010
0010
0010
0000
0000
0000
0000
0000
0000
0000
,
0000
0000
0000
0000
0000
0000
0000
0000
0000
0000
0000
0000
0001
0001
0001
0001
,
0010
0100
0100
0100
0100
0100
0100
0100
0200
0000
0000
0000
0000
0000
0000
0000
,
0000
0000
0000
0000
0000
0000
0000
0000
0000
0000
0000
0000
0301
0001
0001
0001
,
0010
0100
0100
0100
0100
0100
0100
0100
0100
0000
0000
0000
0000
0000
0000
0000
,
0000
0000
0000
0000
0000
0000
0000
0000
0000
0000
0000
0000
0001
0001
0001
0001
,
1000
0100
0100
0100
0100
0100
0100
0100
0100
0000
0000
0000
0000
0000
0000
0000
,
0000
0000
0000
0000
0000
0000
0000
0000
0000
0000
0000
0000
1000
1000
1000
1000
,
0100
0010
0010
0010
0010
0010
0010
0010
0010
0010
0001
0100
0100
0100
0100
0100
,
0010
1000
1000
1000
0010
0010
0100
0100
0001
0001
1000
0100
0100
0100
0100
0100
,
0010
0001
0001
0001
0001
0001
0001
0001
0001
0001
0010
0100
0100
0100
0100
0100
,
1000
0100
0100
0100
0010
0010
0010
0010
0010
0010
0001
1000
1000
1000
0100
0100
,
0010
0001
0001
0001
0001
0001
0001
0001
0001
0001
1000
0100
0100
0100
0100
0100
,
0010
0001
0001
0001
0100
0100
0100
0100
0100
0100
0001
0010
0010
0010
0010
0010
,
0100
1000
1000
1000
1000
1000
1000
1000
1000
1000
0100
0010
0010
0010
0010
0010
,
0001
1000
1000
1000
0010
0010
0010
0010
0010
0010
0100
0001
0001
0001
0001
0001
,
0100
0010
0010
0010
0010
0010
0010
0010
0010
0010
1000
0100
0100
0100
0100
0100
,
0010
0001
0001
0001
0100
0100
0100
0100
0100
0100
0010
1000
1000
1000
1000
1000
,
0001
0001
0001
0001
0001
0001
0001
0001
0001
0001
0100
0010
0010
0010
0010
0010
,
1000
0100
0100
0100
0010
0010
0010
0010
0010
0010
0001
1000
0100
1000
1000
1000
,
0001
0100
0010
0010
1000
1000
0001
0001
0100
0100
0010
1000
0001
0001
0010
0100
,
1000
0100
0010
0010
0001
0001
0001
0001
0001
0001
1000
0100
0010
0010
0010
0010
,
0001
1000
0010
0010
0100
0100
0001
0001
1000
0010
0100
0001
0100
0100
0100
0100
,
0010
1000
0100
0100
0100
0100
0100
0100
0100
0100
0010
0001
1000
0000
00M0
0M00
,
10M0
0000
00M0
0M00
10M0
0000
00M0
0M00
10M0
0000
00M0
0M00
10M0
0000
0000
0000
,
2000
0000
0000
0000
0000
0000
0000
0000
0000
0000
0000
0000
3001
0010
0100
1000
,
0010
0010
0100
0001
1000
0100
0010
0001
1000
0100
0010
0010
0100
0001
1000
0100
,
0010
0010
0001
0100
0010
1000
0100
0010
0001
1000
0100
0100
0010
0001
0100
0010
,
1000
1000
0100
0010
0001
0100
0010
1000
0001
0010
0100
0100
1000
0001
0100
0010
,
1000
1000
0100
0010
0001
0100
0010
1000
0001
0100
0010
0010
1000
0100
0010
0001
,
0100
0100
0010
1000
0100
0010
0001
0010
0100
1000
0010
0010
0100
0001
1000
0100
,
0010
0010
0001
0100
0010
1000
0001
0010
0100
1000
0010
0010
0100
0001
1000
0100
,
0010
0010
0001
0100
0010
1000
0001
0010
0100
1000
0001
0001
0100
0010
1000
0100
,
0010
0010
0001
0100
0010
1000
0001
0010
0100
1000
0010
0010
0100
0001
0100
0001
,
1000
1000
0010
0010
0010
0010
0010
0010
0010
0010
0100
0100
0001
0001
0001
0001
,
1000
1000
1000
1000
0010
0010
0010
0010
0010
0010
0100
0100
0001
0001
0001
0001
,
1000
1000
0010
0010
0010
0010
0010
0010
0010
0010
0100
0100
0001
0001
0001
0001
,
1000
1000
0010
0010
0100
0100
0100
0100
0100
0100
0001
0001
1000
1000
1000
1000
,
0100
0100
0100
0100
0100
0100
0100
0100
0100
0100
0010
0010
0001
0001
0001
0001
,
0010
0010
0100
0100
0100
0100
0100
0100
0100
0100
1000
1000
0010
0010
0010
0010
,
0100
0100
0001
0001
0100
0100
0100
0100
0100
0100
0010
0010
1000
1000
1000
1000
,
0010
0010
0100
0100
0100
0100
0100
0100
0100
0100
0010
0010
1000
0100
0010
0001
,
1000
0010
0100
0100
0100
0100
0100
0100
0100
0100
0001
1000
0010
0010
0010
0010
,
0100
0001
1000
1000
0010
0010
0010
0010
0010
0010
0100
0001
1000
1000
1000
1000
,
0010
0100
0001
0001
0010
0010
0100
0100
1000
1000
0001
0001
0100
0100
0100
0100
,
0010
1000
0010
0010
0100
0100
0100
0100
0001
0001
1000
0010
0100
0001
1000
0100
,
0010
0001
1000
1000
1000
1000
1000
1000
1000
1000
0010
0100
0001
0001
0001
0001
,
1000
0010
0100
0100
0001
0001
0001
0001
0001
0001
1000
0100
0010
0010
0010
0010
,
0001
0100
0010
0010
0010
0010
0010
0010
0010
0010
1000
0100
0010
0010
0010
0010
,
0001
0000
0100
0000
0010
0000
1000
0000
0100
0000
1000
0000
0010
0000
1000
0000
0001
0000
0100
0000
0010
1000
0010
1000
0010
0000
0100
0000
0001
0000
1000
0000
,
0100
0100
0010
0001
0100
0010
1000
0001
0010
0100
1000
1000
0001
0100
0010
1000
,
0100
0100
0010
0001
0100
0010
1000
0100
0010
0001
1000
1000
0100
0010
0001
1000
,
0010
0010
0100
0001
1000
0100
0010
0001
0100
0010
1000
1000
0001
0100
0010
1000
,
0100
0100
0010
0001
0100
0010
1000
0001
0010
0100
1000
1000
0001
0100
0010
1000
,
0100
0100
0010
0001
0100
0010
1000
0001
0010
0100
1000
1000
0001
0100
0010
1000
,
0100
0100
0010
0001
0100
0010
1000
0001
0010
0100
0010
0010
0001
0100
0010
1000
,
0100
0100
0010
0001
0100
0010
1000
0001
0010
0100
0010
0010
0001
1000
0010
0100
,
0001
0001
0010
0100
1000
0001
0100
0010
1000
0100
0010
0010
0001
0100
0010
1000
,
0001
0001
1000
0010
0100
0001
0010
0001
1000
0100
0010
0010
0001
0100
0010
1000
,
0001
0001
0010
0100
1000
0001
0100
0010
1000
0100
0010
0010
0001
0100
0010
1000
,
0001
0001
0100
0010
1000
0001
0010
0100
1000
0010
0100
0100
0001
1000
0100
0010
,
0001
0010
0100
1000
0001
0100
0010
1000
0001
0010
0100
1000
0001
0010
0001
1000
,
0100
0000
0010
0000
0001
1000
0001
1000
0001
0000
0100
0000
0010
0000
1000
0000
0100
0000
0010
0000
0001
1000
0001
1000
0001
0000
0100
0000
0010
0000
1000
0000
,
0100
0000
0010
0000
0001
0010
0001
0010
0001
0000
0100
0000
0010
0000
1000
0000
0100
0000
0010
0000
0001
1000
0001
1000
0001
0000
0100
0000
0010
0000
1000
0000
,
0100
0000
0010
0000
0001
0000
1000
0000
0010
0000
0100
0000
0001
0000
0010
0000
0100
0000
1000
0000
0001
1000
0001
1000
0001
0000
0100
0000
0010
0000
1000
0000
,
0100
0000
0010
0000
0001
0000
1000
0000
0010
0000
0100
0000
0001
0000
0010
0000
0100
0000
1000
0000
0001
0100
0001
0100
0001
0000
0100
0000
0010
0000
1000
0000
,
0100
0000
0100
0000
0010
0001
0010
0001
0010
0000
0100
0000
1000
0000
0001
0000
0100
0000
0010
0000
1000
0001
1000
0001
1000
0000
0010
0000
0100
0000
0001
0000
,
1000
0000
0100
0000
0010
0001
0010
0001
0010
0000
0100
0000
1000
0000
0001
0000
0100
0000
0010
0000
1000
0001
1000
0001
1000
0000
0010
0000
0100
0000
0001
0000
,
1000
0100
0010
0001
0010
0100
1000
0001
0100
0000
0010
0000
1000
0000
0001
0000
0100
0000
0010
0000
1000
0100
1000
0100
1000
0000
0001
0000
0100
0000
0010
0000
,
1000
0000
0100
0000
0010
0001
0010
0001
0010
0000
0100
0000
1000
0000
0001
0000
0100
0010
1000
0001
0010
0100
1000
0001
0100
0000
0010
0000
1000
0000
0100
0000
,
0010
0001
1000
0010
0100
0001
1000
0100
0010
0000
0001
0000
0100
0000
0010
0000
1000
0100
0010
0001
0010
0100
1000
0001
0100
0000
0010
0000
1000
0000
0100
0000
,
0010
0001
0010
0100
1000
0001
0100
0010
1000
0000
0100
0000
0010
0000
0001
0000
1000
0010
0100
0001
0010
0001
1000
0100
0010
0000
0001
0000
0100
0000
0010
0000
,
1000
0100
0010
0001
0010
0100
1000
0001
0100
0000
0010
0000
1000
0000
0100
0000
0010
0001
1000
0010
0100
0001
0010
0100
1000
0000
0001
0000
0100
0000
0010
0000
,
1000
0100
0010
0001
0010
0100
1000
0001
0100
0000
0010
0000
1000
0000
0100
0000
0010
0000
0001
0000
1000
0001
1000
0001
1000
0000
0010
0000
0100
0000
0001
0000
,
1000
0100
0010
0001
1000
0100
0010
0001
1000
0000
0010
0000
0100
0000
0001
0000
1000
0100
0010
0001
1000
0100
0010
0001
1000
0000
0100
0000
0010
0000
0001
0000
,
0010
0000
0010
0000
0100
1000
0100
1000
0100
0000
0100
0000
0100
0000
0100
0000
0100
0010
0001
1000
0100
0010
0001
1000
0010
0000
0010
0000
0010
0000
0010
0000
,
0100
0000
0100
0000
0001
1000
0001
1000
0001
0000
0010
0000
0010
0000
0010
0000
0100
1000
0001
0100
0010
1000
0100
0010
0001
0000
0001
0000
1000
0000
1000
0000
,
0010
0010
0100
0100
0001
0001
0001
0001
0001
0001
0010
0010
0100
0100
0100
0100
,
1000
0000
1000
0000
0001
0100
0001
0100
0001
0000
0010
0000
0010
0000
0010
0000
0100
1000
0001
0100
0010
1000
0100
0010
0001
0000
0001
0000
0100
0000
0100
0000
,
0010
1000
0001
0100
0010
1000
0100
0010
0001
0000
0001
0000
0001
0000
0001
0000
1000
0100
0010
0001
0010
0100
1000
0001
0100
0000
0100
0000
0100
0000
0100
0000
,
0010
0000
0010
0000
1000
0001
1000
0001
1000
0000
0010
0000
0010
0000
0010
0000
0100
0001
1000
0100
0010
0001
0010
0100
1000
0000
0010
0000
0010
0000
0010
0000
,
0100
0000
0100
0000
0001
1000
0001
1000
0001
0000
0010
0000
0010
0000
0010
0000
0100
1000
0001
0010
0100
1000
0001
0010
0100
0000
0100
0000
0100
0000
0100
0000
,
1000
0000
1000
0000
0001
0100
0001
0100
0001
0000
0010
0000
0010
0000
0010
0000
0100
1000
0001
0100
0010
1000
0100
0010
0001
0000
1000
0000
0001
0000
1000
0000
,
0010
0000
0010
0000
0100
0001
0100
0001
0100
0000
0010
0000
0010
0000
0010
0000
1000
0100
0010
0001
0010
0100
1000
0001
0010
0000
0100
0000
1000
0000
1000
0000
,
0001
0000
0001
0000
0100
0000
0100
0000
0010
0000
1000
0000
0010
0000
1000
0000
0001
0010
0100
1000
0100
0010
0001
1000
0010
0000
0010
0000
0010
0000
0010
0000
,
0100
0000
0100
0000
0001
0000
1000
0000
0010
0000
0100
0000
0001
0000
0100
0000
0010
1000
0001
0010
0100
1000
0001
0100
0010
0000
0010
0000
0010
0000
0010
0000
,
2001
0000
0000
0000
0000
0000
3010
0000
1001
0000
0000
0000
0001
0001
0001
0001
,
1001
0000
0000
0000
0000
0000
0010
0000
0110
0000
0000
0000
1000
1000
1000
1000
,
1001
0000
0000
0000
0000
0000
0010
0000
0110
0000
0000
0000
0010
0010
0010
0010
,
1001
0000
0000
0000
0000
0000
0000
0000
0000
0000
0010
0000
1000
1000
1000
1000
,
1000
1000
1000
1000
1000
1000
1000
1000
1000
1000
1000
1000
0001
0001
0001
0001
,
0001
0001
0001
0001
0001
0001
0001
0001
0001
0001
0001
0001
0010
0010
0010
0010
,
0010
0010
0010
0010
0010
0010
0010
0010
0010
0010
0010
0010
0001
0001
0001
0001
,
0001
0001
0001
0001
0001
0001
0001
0001
0001
0001
0001
0001
1000
1000
1000
1000
,
0010
0010
1000
1000
1000
1000
1000
1000
1000
1000
0001
0001
1000
1000
1000
1000
,
0010
0000
0010
0000
1000
0000
1000
0000
1000
0000
1000
0000
1000
0000
1000
0000
1000
0000
1000
0000
0010
0000
0010
0000
1000
0000
0000
0000
0001
0010
0100
1000
,
0001
0000
0000
0000
0100
0010
1000
0001
0010
0000
0000
0000
0100
1000
0001
0100
0010
0000
0000
0000
1000
0100
0010
0001
1000
0000
0000
0000
0010
0100
0001
1000
,
0100
0000
0000
0000
0010
0001
0100
0010
1000
0000
0000
0000
0001
0010
0100
1000
0001
0000
0000
0000
0100
0010
1000
0100
0010
0000
0000
0000
0001
0010
0100
1000
,
0001
0000
0000
0000
0100
0010
1000
0001
0010
0000
0000
0000
0100
1000
0001
0100
0010
0000
0000
0000
1000
0100
0010
0001
1000
0000
0000
0000
0010
0100
0001
1000
,
0100
0000
0000
0000
0010
0001
0100
0010
1000
0000
0000
0000
0001
0010
0100
1000
0001
0000
0000
0000
0100
0010
1000
0001
0010
0000
0000
0000
0100
1000
0001
0100
,
0010
0000
0000
0000
1000
0100
0010
0001
1000
0000
0000
0000
0010
0100
0001
1000
0100
0000
0000
0000
0010
0001
1000
0010
0100
0000
0000
0000
0001
0010
0100
1000
,
0001
0000
0000
0000
0100
0010
1000
0100
0010
0000
0000
0000
0001
0010
0100
1000
0001
0000
0000
0000
1000
0100
0010
0001
1000
0000
1000
0000
1000
0000
1000
0000
,
0010
0010
0100
0100
0100
0100
0100
0100
0100
0100
0001
0001
1000
1000
1000
1000
,
0010
0010
0100
0100
0001
0001
0001
0001
0001
0001
0010
0010
0100
0100
0100
0100
,
1000
1000
0010
0010
0010
0010
0010
0010
0010
0010
0100
0100
0001
0001
0001
0001
,
0010
0010
0100
0100
1000
1000
1000
1000
0001
0001
0100
0100
0010
0010
0010
0010
,
1000
0100
0010
0001
0100
0010
1000
0100
0010
0001
1000
0001
1000
0100
0010
0001
,
0010
0100
1000
0001
0100
0010
0100
0001
1000
0100
0010
0001
1000
1000
1000
1000
,
1000
1000
1000
1000
1000
1000
1000
1000
1000
1000
1000
1000
1000
1000
1000
1000
,
1000
1000
1000
1000
1000
1000
1000
1000
1000
1000
1000
1000
1000
1000
1000
1000
,
1000
1000
1000
1000
1000
1000
1000
1000
1000
1000
1000
1000
1000
1000
1000
1000
,
1000
1000
1000
1000
1000
1000
1000
1000
1000
1000
1000
1000
0001
0001
0001
0001
,
0001
0001
0001
0001
0001
0001
0001
0001
0001
0001
0001
0001
0001
0001
0001
0001
,
0001
0001
0001
0001
0001
0001
0001
0001
0001
0001
0001
0001
0001
0001
0001
0001
,
0001
0000
0001
0000
0001
0000
0001
0000
0001
0000
0001
0000
0001
0000
0001
0000
0001
0000
0001
0000
0010
0000
0100
0010
0100
0000
0100
0000
0100
0000
0100
0000
,
0010
1000
0010
0000
0100
0000
0001
0000
1000
0000
1000
0000
1000
0000
1000
0000
1000
0000
1000
0000
0001
0010
0100
0000
1000
0000
1000
0000
1000
0000
1000
0000
,
0001
0010
0100
0000
1000
0000
1000
0000
0010
0000
0010
0000
0010
0000
0010
0000
0010
0000
0010
0000
0100
0001
0100
0000
0010
0000
0010
0000
0010
0000
0010
0000
,
1000
0100
0010
0000
0001
0000
0001
0000
0100
0000
0100
0000
0100
0000
0100
0000
0100
0000
0100
0000
0010
1000
0001
0000
0100
0000
0100
0000
0100
0000
0100
0000
,
0010
1000
0100
0000
0010
0000
0001
0000
0100
0000
0100
0000
0100
0000
0100
0000
0100
0000
0100
0000
0010
1000
0001
0000
0100
0000
0100
0000
0100
0000
0100
0000
,
0010
1000
0100
0000
0010
0000
0010
0000
0001
0000
0001
0000
0001
0000
0001
0000
0010
0000
0100
0000
1000
0001
0100
0000
0010
0000
0010
0000
0010
0000
0010
0000
,
1000
0100
1000
0000
0001
0000
0100
0000
0010
0000
1000
0000
0100
0000
0010
0000
0001
0000
0100
0000
0010
1000
0001
0000
0100
0000
0010
0000
1000
0000
0100
0000
,
0010
0001
0010
0000
0100
0000
1000
0000
0001
0000
0100
0000
0010
0000
1000
0000
0100
0000
0010
0000
0001
1000
0010
0000
0100
0000
0001
0000
1000
0000
0100
0000
,
0010
0001
0100
0000
0010
0000
1000
0000
0100
0000
0010
0000
0001
0000
1000
0000
0010
0000
0100
0000
0001
1000
0010
0000
0100
0000
0001
0000
1000
0000
0100
0000
,
0010
0001
1000
0000
0010
0000
0100
0000
0001
0000
1000
0000
0100
0000
0010
0000
0001
0000
1000
0000
0100
0000
0010
0000
0100
0000
1000
0000
0001
0000
0100
0000
,
0010
0100
0001
1000
0100
0010
0100
1000
0001
0100
0010
0100
0001
1000
0100
0010
,
0001
0010
0100
1000
0001
0100
0010
0100
0001
0010
0100
1000
0001
0100
0010
1000
,
0100
0010
0001
0010
0100
1000
0001
0100
0010
0100
0001
1000
0100
0010
0001
1000
,
0001
0000
1000
0000
0100
0000
1000
0000
0010
0100
0001
1000
0100
0010
0001
0100
0010
1000
0010
0100
0010
0100
0001
0010
0001
0000
0000
0000
0100
0000
0000
0000
,
0001
1000
0010
0100
0001
0000
1000
0000
0100
0010
0001
1000
0010
0000
0100
0000
,
0001
1000
0001
0100
0010
0000
1000
0000
0010
0100
0010
1000
0001
0000
0010
0000
,
0100
1000
0001
1000
0100
0000
0010
0000
0001
1000
0001
0100
0010
0000
1000
0000
,
0010
0100
0010
1000
0001
0000
1000
0000
0100
0010
0001
1000
1010
0000
0010
0000
,
0100
0001
1000
0100
1000
0000
0010
0000
0100
0001
1000
0001
0010
0000
0100
0000
,
1000
0100
0010
0001
1000
0000
0001
0000
0010
0100
1000
0001
1000
0000
0010
0000
,
0100
0010
1000
0010
0100
0000
0001
0000
1000
0001
0010
0100
1000
0000
0010
0000
,
0100
0001
0100
0010
1000
0000
0001
0000
1000
0010
0100
0010
1010
0000
1000
0000
,
0001
0010
0001
0100
0010
0000
1000
0000
0010
1000
0010
0100
0001
0000
1000
0000
,
0100
0010
0001
1000
0001
0000
0010
0000
0100
1000
0001
1000
0010
0000
0100
0000
,
0001
1000
0001
0100
0010
0000
1000
0000
0100
1000
0001
0100
0010
0000
1000
0000
,
0010
0100
0001
1000
0001
0000
0010
0000
0100
1000
0010
0100
0101
0000
0001
0000
,
1000
0010
1000
0100
0010
0000
0001
0000
1000
0001
0100
0010
1000
0000
0010
0000
,
0100
0001
1000
0001
0100
0000
0010
0000
1000
0100
1000
0001
0010
0000
0100
0000
,
1000
0001
1000
0100
0010
0000
0001
0000
1000
0100
1000
0001
0100
0000
0010
0000
,
1000
0010
0100
0001
1000
0000
0100
0000
0010
0001
1000
0010
0110
0000
0100
0000
,
0001
0001
1000
0010
0100
0100
0001
1000
,
0100
0100
0010
0001
1000
1000
0010
0100
,
0001
0001
1000
0010
0100
0100
0001
1000
,
0100
0100
0010
0001
1000
1000
0100
1000
,
0010
0010
0100
0001
1000
1000
0010
1000
,
0001
0001
0010
0100
1000
1000
0001
0100
,
0010
0010
1000
0100
1000
1000
0001
0010
,
0001
0001
0100
0010
1000
1000
0001
0100
,
0010
1000
0010
0100
0001
1000
0100
0010
,
0001
1000
0100
1000
0001
0010
0001
0100
,
0010
1000
0001
0100
0001
1000
0100
0010
,
0001
1000
0100
1000
0010
0100
0001
1000
,
0001
0010
0100
1000
0001
0010
0001
0100
,
0010
1000
0010
0100
0001
1000
0100
1000
,
0010
0100
0001
1000
0001
0010
0100
1000
,
0001
1000
0010
0100
0001
1000
0000
0000
;
