#TITLE:Anubis;
#SUBTITLE:-Ecstasy-;
#ARTIST:SPaRK;
#TITLETRANSLIT:;
#SUBTITLETRANSLIT:;
#ARTISTTRANSLIT:;
#CREDIT:;
#BANNER:Anubis-bn.png;
#BACKGROUND:Anubis-bg.png;
#LYRICSPATH:Anubis.lrc;
#CDTITLE:Mizu.png;
#MUSIC:Anubis.ogg;
#OFFSET:-1.551;
#SAMPLESTART:68.688;
#SAMPLELENGTH:16.300;
#SELECTABLE:YES;
#BPMS:0.000=128.710;
#STOPS:;
#BGCHANGES:;
// cache tags:
#FIRSTBEAT:0.000;
#LASTBEAT:283.000;
#SONGFILENAME:Songs/toune 2/anubis/Anubis.sm;
#HASMUSIC:1;
#HASBANNER:1;
#MUSICLENGTH:133.908;
// end cache tags

//---------------dance-single - A. Eagle----------------
#NOTES:
     dance-single:
     A. Eagle:
     Hard:
     8:
     0.501,0.581,0.284,0.202,0.067,401.000,38.000,27.000,0.000,2.000:


1000
0100
0010
0100
,
1000
0001
1000
0000
0010
1000
0100
0000
,
0010
0001
0010
0000
0100
1000
0100
0000
,
1000
0001
1000
0000
0001
0010
0100
0010
,
0002
0000
1003
0000
,
0020
0000
0130
0000
,
0200
0000
1300
0000
,
2000
0000
0000
0000
0000
0000
3000
0000
0001
0000
1000
0000
0001
0010
0100
0010
,
0001
0001
1100
0110
,
0011
0001
1001
0100
,
1100
0010
0011
1100
,
0011
0001
1010
0010
,
1100
1000
1001
0011
,
1001
0100
0011
1000
,
0101
0001
1010
0110
,
0101
0000
0000
0001
0000
0000
1000
0000
0100
0000
0010
0000
,
0001
0010
0100
0010
0001
1000
0100
0010
,
0100
1000
0001
0010
0100
1000
0010
1000
,
0100
0010
0001
0010
0001
0010
0100
0010
,
0001
0100
1000
0100
0001
0010
0100
1000
,
0002
0000
0010
0100
,
0103
0010
0010
1000
,
0001
0010
0100
0010
0001
1000
0001
0100
,
0001
0010
0001
0100
0001
1000
0100
0010
,
0001
0010
0001
0010
0100
1000
0010
1000
,
0100
0010
0100
1000
0010
0100
0010
0001
,
0010
0100
0010
0001
0010
1000
0010
0100
,
0001
0100
0010
1000
0100
0001
0100
1000
,
0002
0000
1000
0100
,
1003
0020
0030
0100
,
0001
0010
1000
0010
0001
0100
0010
1000
,
1000
0100
0010
0001
1000
0001
0010
0100
,
1000
0100
0001
0100
1000
0001
1000
0100
,
0010
0001
0010
0100
1000
0001
1000
0001
,
1000
0100
0010
0001
0001
0010
0100
1000
,
1000
0100
0010
0001
0001
0010
0100
1000
,
1000
0100
0010
0100
1000
0010
0100
0002
,
0000
1003
0100
0000
1010
0000
0101
0000
,
1001
0001
1000
0100
0010
0001
0100
2000
,
0000
3100
0001
0000
1001
0000
0110
0000
,
1100
1000
0100
0010
0001
0100
1000
0200
,
0000
0301
0101
0000
1001
0000
1010
0000
,
1001
1000
0011
0101
,
0110
1010
1100
0011
,
1100
0000
0000
0000
0000
0000
1000
0010
,
0100
0010
1000
0100
0001
0100
1000
0000
,
0002
4000
0000
0000
0000
0000
0000
0000
3003
0000
0000
0000
1000
0000
0000
0000
,
0010
0001
0100
1000
,
0002
0000
0000
0000
0003
0000
0001
0100
,
1000
0100
0001
0010
0100
0010
0001
0000
,
0200
0004
0000
0000
0000
0000
0000
0000
0303
0000
0000
0000
1000
0000
0000
0000
,
0100
1000
0010
0100
,
0001
0100
0010
0100
0001
0000
0000
0000
0000
0000
0000
0000
1000
0000
0100
0000
,
0010
0001
0100
1000
0100
0010
0100
0000
,
0002
0040
0000
0000
0000
0000
0000
0000
0033
0000
0000
0000
0010
0000
0000
0000
,
0100
0010
0100
0001
,
2000
0000
0000
0000
3000
0000
0100
0001
,
0100
1000
0100
0001
0100
1000
0010
0000
,
2000
0004
0000
0000
0000
0000
0000
0000
3003
0000
0000
0000
2200
0000
0000
0000
,
0020
0000
0002
3333
,
1000
0010
1000
0000
0100
0000
0010
0000
0100
0001
0100
0000
0010
0000
0001
0000
,
1000
0100
0010
0000
0001
0000
0100
0000
1000
0100
1000
0000
0100
0000
0010
0000
,
1000
0010
0001
0000
0100
0000
0010
0000
1000
0001
1000
0000
0100
0000
0010
0000
,
0100
1000
0001
0000
1000
0000
0010
0000
1000
0100
1000
0000
0001
0000
0100
0000
,
0001
0010
0100
0000
0010
0000
0001
0000
1000
0100
0010
0000
0100
0000
1000
0000
,
0100
0010
0001
0000
0010
0000
0100
0000
1000
0001
1000
0000
0001
0000
0010
0000
,
2200
0000
0000
0000
0000
0000
0000
0000
3300
0000
0000
0000
0002
0000
0000
0003
,
2000
0000
0000
0000
0000
0000
0000
3000
0020
0000
0000
0000
0000
0000
0030
0000
,
0100
0001
0010
0100
1000
0010
1000
0010
,
0100
0010
1000
0100
0010
0001
1000
0001
,
2002
0000
0000
3003
;

//---------------dance-single - A. Eagle----------------
#NOTES:
     dance-single:
     A. Eagle:
     Easy:
     3:
     0.201,0.238,0.067,0.067,0.000,170.000,9.000,9.000,0.000,0.000:


0001
0000
0000
0000
,
0010
0000
0000
0000
,
0100
0000
0000
0000
,
0010
0000
0000
0000
,
0002
0000
0000
0000
,
2003
0000
0000
0000
,
3002
0000
0000
0000
,
2003
0000
0000
0000
,
3001
0000
0010
0100
,
0010
0000
1000
0000
,
0001
0000
1000
0010
,
1000
0000
0100
0000
,
0010
0000
0100
0001
,
0100
0000
0010
0000
,
1000
0000
0100
0010
,
0001
0000
1000
0000
,
1000
0000
0001
0000
,
0010
0000
0001
0000
,
1000
0000
0100
0000
,
2000
0000
0002
0000
,
3003
0000
0001
0000
,
0010
0000
0100
0000
,
1000
0000
0001
0000
,
1000
0000
0100
0000
,
0010
0000
0001
0000
,
1000
0000
0010
0000
,
1000
0000
0100
0000
,
0010
0000
0100
0000
,
1000
0000
0100
0000
,
0001
0000
0100
0000
,
2000
0000
0000
0000
,
3000
0000
0000
0000
,
0001
0010
0100
1000
,
1000
0100
0010
0001
,
0001
0010
0100
1000
,
1000
0100
0010
0001
,
0000
0000
0000
0000
,
0000
0000
1001
1001
,
1001
0000
0000
0000
,
0000
0000
0110
0110
,
0110
0000
0000
0000
,
0000
1000
0100
1000
,
0001
0000
1000
0010
,
1000
0100
1000
0001
,
1000
0000
0000
0001
,
0010
0001
1000
0001
,
0010
0000
0000
1000
,
0100
0010
0001
0010
,
0100
0000
0000
1000
,
0100
1000
0100
1000
,
0100
0000
0000
0010
,
0001
0010
0001
0010
,
0001
0000
0000
1000
,
0010
0100
0001
1000
,
0001
0000
0000
0010
,
0100
0010
0001
1000
,
0010
0000
0000
0100
,
0010
1000
0100
0010
,
0001
0000
0000
1000
,
0001
0000
1001
0000
,
1000
0010
0100
0001
,
0001
0100
0010
1000
,
1000
0100
0010
0001
,
0001
0010
0100
1000
,
0001
0010
0100
0010
,
0001
1000
0100
0010
,
0100
1000
0001
1000
,
0001
0000
1001
0000
,
0000
0000
0000
1000
,
0100
1000
0010
1000
,
2002
0000
0000
3003
;

//---------------dance-single - A. Eagle----------------
#NOTES:
     dance-single:
     A. Eagle:
     Medium:
     5:
     0.300,0.423,0.344,0.127,0.000,218.000,46.000,17.000,0.000,0.000:


1000
0001
1000
0001
,
0010
0100
0010
0100
,
0001
0010
0100
1000
,
0001
0000
1000
0000
0002
0000
0000
0003
,
0020
0000
0000
0000
0000
0000
0000
0030
,
0200
0000
0000
0000
0000
0000
0000
0300
,
0020
0000
0000
0000
0000
0000
0000
0030
,
0002
0000
0000
0000
1000
1000
4000
0003
,
3100
0000
0011
0110
,
0011
0000
1001
0000
,
1100
0000
1010
0101
,
1010
0000
0110
0000
,
0101
0000
0011
1001
,
0011
0000
0101
0000
,
1010
0000
0110
0011
,
1100
0000
1001
0000
,
1000
0000
0100
0010
,
0001
0001
0000
0100
,
0010
0002
0000
0003
,
2000
0000
0200
0000
,
3300
0000
0000
0001
,
0010
0100
1000
0001
,
2000
0000
0100
0000
,
3010
0000
0100
0000
,
0001
0000
1000
1000
,
2000
0000
3000
0010
,
0100
0002
0000
0000
,
2000
0000
0000
3000
0020
0000
0000
0000
,
0033
0000
1000
0100
,
0010
0002
0003
1000
,
2000
0000
0000
0000
,
3000
0000
0010
0000
,
0001
1000
0001
0000
0010
0000
0100
0000
,
1000
0100
0010
0000
0001
0000
0010
0000
,
0100
0010
0001
0000
0010
0000
0100
0000
,
0001
0100
1000
0000
0100
0000
0001
0000
,
0010
0100
1000
0100
,
0010
0001
1100
1100
,
1100
0001
0100
0010
,
1000
0001
0011
0011
,
0011
0001
0100
0010
,
0100
0011
0110
1100
,
1001
0000
1001
0011
,
1100
0011
1100
0110
,
1001
0000
0000
0100
,
0001
0100
1000
0100
,
0011
0000
0000
1000
,
0010
0001
0100
1000
,
0110
0000
0000
1000
,
0100
1000
0010
1000
,
1010
0000
0000
0001
,
1000
0001
0100
0001
,
0010
0001
1000
0000
0000
0000
1000
0000
,
0001
0010
0100
1000
,
0110
0000
0000
0001
,
0010
0001
0100
1000
,
0101
0000
0000
0010
,
0001
1000
0010
0001
,
0101
0000
0000
1000
,
0100
0000
1100
0000
,
1000
0100
0010
0000
0100
0000
1000
0000
,
0100
0001
0010
0000
0001
0000
0100
0000
,
1000
0010
0100
0000
0001
0000
0010
0000
,
0100
1000
0100
0000
0010
0000
0100
0000
,
1000
0001
1000
0000
0010
0000
0001
0000
,
0010
1000
0010
0000
0100
0000
0001
0000
,
0010
0100
1000
0000
0100
0000
1000
0000
,
0100
0000
1100
0000
,
0000
0000
0000
1000
,
0010
1000
0001
1000
,
2200
0000
0000
3300
;
