#TITLE:Rebirth;
#SUBTITLE:;
#ARTIST:DJ Rockstar;
#TITLETRANSLIT:;
#SUBTITLETRANSLIT:;
#ARTISTTRANSLIT:;
#CREDIT:;
#BANNER:Rebirth.png;
#BACKGROUND:Rebirth-bg.png;
#LYRICSPATH:;
#CDTITLE:;
#MUSIC:Rebirth.mp3;
#OFFSET:0.000;
#SAMPLESTART:71.100;
#SAMPLELENGTH:15.000;
#SELECTABLE:YES;
#BPMS:0.000=135.000;
#STOPS:;
#BGCHANGES:;
// cache tags:
#FIRSTBEAT:4.000;
#LASTBEAT:236.000;
#SONGFILENAME:Songs/stepmix .10/Rebirth/Rebirth.sm;
#HASMUSIC:1;
#HASBANNER:1;
#MUSICLENGTH:108.989;
// end cache tags

//---------------dance-single - LIGHT----------------
#NOTES:
     dance-single:
     LIGHT:
     Easy:
     3:
     0.260,0.373,0.202,0.101,0.000,165.000,22.000,11.000,0.000,0.000:
0000
0000
0000
0000
,
0010
0000
0100
0000
,
1000
1000
1000
0000
,
0001
0001
0001
0000
,
0100
0100
0100
0000
,
0010
0010
0010
0000
,
1001
1000
1000
0000
,
0001
0001
0001
0000
,
1000
1000
1000
0000
,
0001
0001
0001
0000
,
0110
0010
0010
0000
,
0100
0100
0100
0000
,
0010
0010
0010
0000
,
0100
0100
0100
0000
,
1000
0100
0001
0100
,
1000
0100
0001
0100
,
1000
0100
0001
0100
,
1000
0100
0001
0100
,
1000
0010
0001
0010
,
1000
0100
0001
0100
,
1000
0010
0001
0010
,
1000
0010
0001
0010
,
1000
0100
0001
0100
,
1000
0100
0001
0100
,
1000
0010
0001
0010
,
1000
0010
0001
0010
,
2000
0000
0000
0000
,
3200
0000
0000
0000
,
0320
0000
0000
0000
,
0032
0000
0000
0000
,
2003
0000
0000
0000
,
0000
0000
3020
0000
,
2030
0000
0010
0000
,
3200
0000
1000
0000
,
0320
0000
0100
0000
,
0032
0000
0100
0000
,
2003
0000
0010
0000
,
0010
0000
0010
0000
,
0010
0010
0010
0010
,
0100
0100
0100
3100
,
0110
1000
0001
0000
,
0110
0001
1000
0000
,
1001
0100
0010
0000
,
1001
0010
0100
0000
,
0110
1000
0001
0000
,
0110
0001
1000
0000
,
1001
0100
0010
0000
,
1001
0010
0100
0000
,
0110
1000
0001
0000
,
0110
0001
1000
0000
,
1001
0100
0010
0000
,
1001
0010
0100
0000
,
0110
1000
0001
0000
,
0110
0001
1000
0000
,
1001
0100
0010
0000
,
1001
1001
1001
1001
,
1001
0000
0000
0000
0000
0000
0000
0100
,
0010
0000
0000
0000
,
0100
0000
0000
0000
;

//---------------dance-single - BEGINNER----------------
#NOTES:
     dance-single:
     BEGINNER:
     Beginner:
     1:
     0.147,0.239,0.009,0.046,0.000,106.000,1.000,5.000,0.000,0.000:
0000
0000
0000
0000
,
0010
0000
0010
0000
,
1000
1000
0000
0000
,
1000
1000
0000
0000
,
0100
0100
0000
0000
,
0100
0100
0000
0000
,
0001
0001
0000
0000
,
0001
0001
0000
0000
,
0010
0010
0000
0000
,
0010
0010
0000
0000
,
1000
1000
0000
0000
,
1000
1000
0000
0000
,
0010
0010
0000
0000
,
0010
0010
0000
0000
,
0110
0000
0000
0000
,
1000
0000
0001
0000
,
0100
0000
0010
0000
,
1000
0000
0001
0000
,
0100
0000
0010
0000
,
1000
0000
0001
0000
,
0100
0000
0010
0000
,
1000
0000
0001
0000
,
0100
0000
0010
0000
,
1000
0000
0001
0000
,
0100
0000
0010
0000
,
1000
0000
0001
0000
,
2000
0000
0000
0000
,
0000
0000
3000
0000
,
0002
0000
0000
0000
,
0000
0000
0003
0000
,
0200
0000
0000
0000
,
0000
0000
0300
0000
,
0020
0000
0000
0000
,
0000
0000
0030
0000
,
0002
0000
0000
0000
,
0000
0000
0003
0000
,
0010
0000
0010
0000
,
0010
0000
0010
0000
,
0010
0010
0010
0010
,
0010
0010
0010
0010
,
0010
0010
0000
1000
,
0000
0001
0000
0100
,
0000
0010
0000
1000
,
0000
0001
0000
0100
,
0100
0100
0000
0001
,
0000
0010
0000
1000
,
0000
0100
0000
0001
,
0000
0010
0000
1000
,
1000
1000
0000
0010
,
0000
0001
0000
0100
,
0000
1000
0000
0010
,
0000
0001
0000
0100
,
0100
0100
0000
0001
,
0000
1000
0000
0010
,
0000
0100
0000
0001
,
0001
0001
0001
0001
,
0001
0000
0000
0000
,
0000
0000
0000
0000
,
0100
0000
0000
0000
;

//---------------dance-single - STANDARD----------------
#NOTES:
     dance-single:
     STANDARD:
     Medium:
     6:
     0.330,0.379,0.055,0.156,0.000,229.000,6.000,17.000,0.000,0.000:
0000
0000
0000
0000
,
0010
0010
0010
0010
,
1000
0001
0100
0010
,
1000
0001
0100
0010
,
1000
0001
0100
0010
,
1000
0001
0100
0010
,
1001
0010
1000
0010
,
0001
0100
1000
0100
,
0010
1000
0001
0100
,
0010
1000
0001
0100
,
0110
1000
0010
0001
,
0100
0010
1000
0001
,
0010
1000
0100
0001
,
0010
0100
1000
0001
,
1000
0001
0100
0000
0001
0000
0100
0000
,
0001
1000
0100
0000
1000
0000
0100
0000
,
1000
0001
0100
0000
0001
0000
0100
0000
,
0001
1000
0100
0000
1000
0000
0110
0000
,
1000
0001
0010
0000
0001
0000
0010
0000
,
0001
1000
0100
0000
1000
0000
0100
0000
,
1000
0001
0010
0000
0001
0000
0010
0000
,
0001
1000
0010
0000
1000
0000
0110
0000
,
1000
0001
0100
0000
0001
0000
0100
0000
,
0001
1000
0100
0000
1000
0000
0100
0000
,
1000
0001
0010
0000
0001
0000
0010
0000
,
0001
1000
0010
0000
1000
0000
0110
0000
,
2000
0000
0000
0000
,
3200
0000
0000
0000
0000
0000
0000
0010
,
0320
0000
0000
0000
,
0032
0000
0000
0203
0000
0000
0000
0000
,
2300
0000
0000
3200
0000
0000
0000
0000
,
0000
0000
0000
0000
0320
0000
0000
1000
,
2030
0000
0010
0000
,
3200
0000
0000
0000
0001
0000
0000
0010
,
0320
0000
1000
0000
,
0032
0000
0000
0203
0000
0000
0000
0000
,
2300
0000
0000
3200
0010
0000
0000
0000
,
1000
0000
0001
0000
,
0010
0001
0010
0001
,
0010
0000
0001
0000
0010
0010
0310
0010
,
0010
0010
0000
1000
0000
0001
0000
0100
,
0000
0010
0000
1000
0000
0100
0000
0001
,
0100
0010
0000
1000
0000
0100
0000
0001
,
0000
0100
0000
0001
0000
1000
0000
0010
,
1000
0100
0000
0001
0000
1000
0000
0010
,
0000
0100
0000
1000
0000
0001
0000
0010
,
0100
1000
0000
0010
0000
0100
0000
0001
,
0000
0100
0000
0010
0000
0001
0000
1000
,
0100
1000
0100
0000
1000
0000
0001
0000
,
0100
0010
0100
0000
0001
0000
1000
0000
,
0001
0100
0001
0000
1000
0000
0010
0000
,
0100
1000
0100
0000
0001
0000
0010
0000
,
1000
0010
0100
0000
0001
0000
0010
0000
,
0100
0001
1000
0000
0010
0000
0100
0000
,
0010
1000
0001
0000
0100
0000
0010
0000
,
0100
0010
1000
0010
0100
0010
1000
0010
,
0100
0000
0000
0000
0000
0000
0000
0010
,
0010
0000
0000
0000
,
0202
0000
0000
0000
,
0303
0000
0000
0000
;

//---------------dance-single - HEAVY----------------
#NOTES:
     dance-single:
     HEAVY:
     Hard:
     8:
     0.439,0.541,0.046,0.211,0.037,307.000,5.000,23.000,0.000,0.000:
0000
0000
0000
0000
,
0010
0010
0010
0010
,
1000
0100
1000
0000
0001
0100
0001
0000
,
1000
0100
1000
0000
0001
0100
0001
0000
,
1000
0100
1000
0000
0001
0010
0001
0000
,
1000
0100
0010
0001
0010
0100
1000
0100
,
0020
1000
0001
0100
,
0001
1000
0001
0100
,
1000
0001
0100
0001
,
1000
0001
0100
0031
,
0200
0001
0010
0001
,
1000
0001
0010
0001
,
1000
0010
0001
0010
,
1300
0100
0010
0001
0010
0100
1000
0100
,
0010
0001
0100
0000
0001
1000
0100
0000
,
0001
1000
0100
0000
1000
0010
0100
0000
,
0010
0001
0100
0000
0010
1000
0100
0000
,
0001
1000
0100
0000
1000
0000
0101
0000
,
0010
0001
0010
0000
0100
0001
0100
0000
,
0010
1000
0010
0000
0100
1000
0100
0000
,
1000
0001
0010
0000
0001
1000
0010
0000
,
1000
0001
0010
0000
1000
0000
0101
0000
,
1000
0000
0001
0000
0100
0000
0000
0000
0001
0010
0001
0000
0000
0000
0100
0000
,
1000
0000
0001
0000
0100
0000
0000
0000
0001
0010
0001
0000
0100
0000
0010
0000
,
1000
0000
0001
0000
0010
0000
0000
0000
0001
1000
0100
0000
0000
0000
0100
0000
,
1000
0001
0010
0000
1000
0000
0101
0000
,
0020
0000
0000
0000
,
0230
0000
0000
0000
0000
0000
0000
1000
,
2300
0000
0000
0000
,
3002
0000
0000
0203
0000
0000
0000
0000
,
2300
0000
0000
3020
0000
0000
0000
0000
,
0000
0000
0000
0000
0032
0000
0000
1000
,
2003
0000
0001
0000
,
3200
0000
0000
0000
0010
0000
0000
0001
,
0302
0000
1000
0000
,
0023
0000
0000
0230
0000
0000
0000
0000
,
2300
0000
0000
3200
0010
0000
0000
0000
,
1000
0000
0001
0000
,
1000
0001
1000
0001
,
1000
0000
0001
0000
0010
0010
0301
0001
,
0010
1000
0100
1000
0010
0100
0001
1000
,
0010
0100
0001
0010
0100
0010
0001
1000
,
0010
0100
0001
0010
0100
0010
0001
1000
,
0010
0100
0001
0100
0010
1000
0010
0000
,
0001
0100
0010
1000
0100
0010
0100
0010
,
0001
0100
0001
0010
0001
1000
0010
0100
,
0001
1000
0100
1000
0010
1000
0001
0100
,
0010
0100
0001
1000
0010
0100
0010
1000
,
0100
0100
0100
1000
0010
0100
0001
1000
,
0010
0010
0010
0100
0001
0100
0010
1000
,
0001
0001
0001
0100
0010
1000
0010
0100
,
0010
0010
0010
1000
0100
1000
0120
0000
,
1030
0000
1000
0000
1000
0000
0010
0000
0100
0001
0100
0000
0010
0000
0100
0000
,
0001
0000
0001
0000
0001
0000
0100
0000
0010
1000
0010
0000
0100
0000
0001
0000
,
0100
0000
0100
0000
0100
0000
0010
0000
1000
0100
1000
0000
0001
0000
0100
0000
,
0010
0000
0010
0000
0010
0000
1000
0000
0100
0010
0100
0010
0200
0000
0000
0000
,
0302
0000
0000
0000
0000
0000
0000
0010
,
0023
0000
0000
0000
0000
0000
0000
0030
,
2200
0000
0000
0000
,
3300
0000
0000
0000
;

//---------------dance-double - LIGHT----------------
#NOTES:
     dance-double:
     LIGHT:
     Easy:
     4:
     0.252,0.373,0.165,0.101,0.000,163.000,18.000,11.000,0.000,0.000:
00000000
00000000
00000000
00000000
,
00010000
00000000
00001000
00000000
,
00100000
00100000
00100000
00000000
,
01000000
01000000
01000000
00000000
,
00000100
00000100
00000100
00000000
,
00000010
00000010
00000010
00000000
,
00011000
00000100
00000100
00000000
,
00010000
00010000
00010000
00000000
,
00000010
00000010
00000010
00000000
,
00001000
00001000
00001000
00000000
,
00011000
01000000
01000000
00000000
,
00100000
00100000
00100000
00000000
,
00000010
00000010
00000010
00000000
,
00000100
00000100
00000100
00000100
,
00000001
00000100
00001000
00000010
,
00010000
00000000
00001000
00000000
,
10000000
01000000
00010000
00100000
,
00001000
00000000
00010000
00001100
,
00000001
00000100
00001000
00000010
,
00010000
00000000
00001000
00000000
,
10000000
01000000
00010000
00100000
,
00001000
00000000
00010000
00001100
,
00000001
00000100
00001000
00000010
,
00010000
00000000
00001000
00000000
,
10000000
01000000
00010000
00100000
,
00001000
00000000
00010000
00001000
,
00020000
00000000
00000000
00000000
,
00030200
00000000
00000000
00000000
,
00002300
00000000
00000000
00000000
,
00003020
00000000
00000000
00000000
,
00020030
00000000
00000000
00000000
,
00000000
00000000
00032000
00000000
,
02003000
00000000
00100000
00000000
,
03200000
00000000
10000000
00000000
,
20300000
00000000
01000000
00000000
,
30020000
00000000
01000000
00000000
,
00230000
00000000
00001000
00000000
,
00010000
00000000
00001000
00000000
,
00010000
00010000
00010000
00010000
,
00001000
00001000
00001000
00301000
,
01010000
01000000
01000000
00000000
,
00110000
00100000
00100000
00000000
,
00011000
00010000
00010000
00000000
,
00011000
00001000
00001000
00000000
,
00001100
00000100
00000100
00000000
,
00000110
00000010
00000010
00000000
,
00000011
00000001
00000001
00000000
,
00000010
00000100
00001000
00000000
,
00011000
01000000
00100000
00001000
,
00000100
00000010
00010000
01000000
,
00100000
00001000
00000100
00000010
,
00010000
01000000
00100000
00000000
,
00011000
01000000
00100000
00001000
,
00000100
00000010
00010000
01000000
,
00100000
00001000
00000100
00000010
,
00001100
00011000
01010000
00011000
,
00011000
00000000
00000000
00000000
00000000
00000000
00000000
00001000
,
01000000
00000000
00000000
00000000
,
00010000
00000000
00000000
00000000
;

//---------------dance-double - STANDARD----------------
#NOTES:
     dance-double:
     STANDARD:
     Medium:
     6:
     0.329,0.379,0.055,0.156,0.000,228.000,6.000,17.000,0.000,0.000:
00000000
00000000
00000000
00000000
,
00100000
00100000
00100000
00100000
,
10000000
10000000
10000000
10000000
,
00010000
00010000
00010000
00010000
,
00000010
00000010
00000010
00000010
,
00000100
00000100
00000100
00000100
,
00011000
00010000
00010000
00010000
,
01000000
01000000
01000000
01000000
,
00001000
00001000
00001000
00001000
,
00000010
00000010
00000010
00000010
,
00011000
00010000
00010000
00010000
,
00000100
00000100
00000100
00000100
,
00000001
00000001
00000001
00000001
,
00001000
00001000
00001000
00001000
,
00010000
00001000
01000000
00000000
00010000
00000000
01000000
00000000
,
00010000
10000000
01000000
00000000
10000000
00000000
01000000
00000000
,
10000000
00010000
01000000
00000000
00010000
00000000
01000000
00000000
,
00001000
00100000
00010000
00000000
00100000
00000000
00011000
00000000
,
00000010
00001000
00000100
00000000
00001000
00000000
00000100
00000000
,
00001000
00000001
00000100
00000000
00000001
00000000
00000100
00000000
,
00000010
00001000
00000100
00000000
00001000
00000000
00000100
00000000
,
00010000
00000100
00001000
00000000
00000100
00000000
00011000
00000000
,
10000000
00010000
01000000
00000000
00010000
00000000
00010000
00000000
,
00100000
00001000
00010000
00000000
00001000
00000000
00001000
00000000
,
00010000
00000010
00000100
00000000
00000010
00000000
00000010
00000000
,
00001000
00000001
00000100
00000000
00000100
00000000
00011000
00000000
,
02000000
00000000
00000000
00000000
,
03200000
00000000
00000000
00000000
00000000
00000000
00000000
10000000
,
20300000
00000000
00000000
00000000
,
30020000
00000000
00000000
02030000
00000000
00000000
00000000
00000000
,
03002000
00000000
00000000
00203000
00000000
00000000
00000000
00000000
,
00000000
00000000
00000000
00000000
00300020
00000000
00000000
00001000
,
00002030
00000000
00000001
00000000
,
00003200
00000000
00000000
00000000
00010000
00000000
00000000
01000000
,
02000300
00000000
00010000
00000000
,
03002000
00000000
00000000
00023000
00000000
00000000
00000000
00000000
,
00030020
00000000
00000000
00002030
00000100
00000000
00000000
00000000
,
01000000
00000000
00000100
00000000
,
01000000
00000100
01000000
00000100
,
01000000
00000000
00000100
00000000
01000000
01000000
01003000
00000000
,
00010000
00100000
00000000
00000010
00000000
00001000
00000000
00000001
,
00000000
00000100
00000000
00000010
00000000
00010000
00000000
00001000
,
01000000
00100000
00000000
10000000
00000000
01000000
00000000
00010000
,
00000000
00100000
00000000
00000010
00000000
00010000
00000000
00000100
,
00001000
00000001
00000000
00000100
00000000
00000010
00000000
00001000
,
00000000
00000001
00000000
00000010
00000000
00000100
00000000
00010000
,
00001000
01000000
00000000
00100000
00000000
10000000
00000000
00010000
,
00000000
01000000
00000000
00100000
00000000
00010000
00000000
00100000
,
00001000
00001000
00001000
00000000
00100000
00000000
00001000
00000000
,
00010000
00010000
00010000
00000000
00000100
00000000
00010000
00000000
,
00001000
00001000
00001000
00000000
01000000
00000000
00001000
00000000
,
00010000
00010000
00010000
00000000
00000010
00000000
00010000
00000000
,
00001000
00001000
00001000
00000000
10000000
00000000
01000000
00000000
,
00010000
00010000
00010000
00000000
00000001
00000000
00000100
00000000
,
00001000
00001000
00001000
00000000
01000000
00000000
00100000
00000000
,
00001000
00000100
00001000
00010000
00001000
00000100
00001000
00010000
,
00001000
00000000
00000000
00000000
00000000
00000000
00000000
00000010
,
00000010
00000000
00000000
00000000
,
00020200
00000000
00000000
00000000
,
00030300
00000000
00000000
00000000
;

//---------------dance-double - HEAVY----------------
#NOTES:
     dance-double:
     HEAVY:
     Hard:
     8:
     0.457,0.623,0.156,0.184,0.096,312.000,17.000,20.000,0.000,0.000:
00000000
00000000
00000000
00000000
,
00100000
00100000
00100000
00100000
,
10000000
00100000
01000000
00001000
,
00010000
00000010
00000100
00000001
,
00000010
00000100
00010000
00001000
,
00001000
01000000
00001000
00000010
00001000
01000000
00001000
00000010
,
00001000
00000000
01000000
00000000
00100000
10000000
00010000
00000000
,
00000100
00000000
00100000
00000000
00010000
00000010
00000100
00000000
,
00001000
00000000
00000001
00000000
00000100
00000010
00010000
00000000
,
01000000
00000000
00100000
00000000
10000000
00100000
00010000
00000000
,
00000010
00000000
00001000
00000000
00000010
00000100
00010000
00000000
,
01000000
00000000
10000000
00000000
00100000
00001000
00010000
00000000
,
00000001
00000000
00000100
00000000
00010000
00001000
00100000
00000000
,
00000100
00010000
00100000
00010000
00000100
00010000
00100000
00010000
,
00000100
00000000
00000100
00000000
00000100
00000000
00000000
00000000
00010000
00001000
00010000
00000000
00000000
00000000
00000000
00000000
,
00100000
00000000
00100000
00000000
00100000
00000000
00000000
00000000
00001000
00010000
00001000
00000000
00010000
00000000
00001000
00000000
,
01000000
00000000
01000000
00000000
01000000
00000000
00000000
00000000
00001000
00010000
00001000
00000000
00000000
00000000
00000000
00000000
,
00000010
00000000
00000010
00000000
00000010
00000000
00000000
00000000
00010000
00001000
00010000
00000000
00011000
00000000
00000000
00000000
,
00100000
00000000
00100000
00000000
00100000
00000000
00000000
00000000
01000000
10000000
01000000
00000000
00000000
00000000
00000000
00000000
,
00010000
00000000
00010000
00000000
00010000
00000000
00000000
00000000
00100000
10000000
00100000
00000000
01000000
00000000
00001000
00000000
,
00010000
00000000
00010000
00000000
00010000
00000000
00000000
00000000
00000010
00001000
00000010
00000000
00000000
00000000
00000000
00000000
,
00000001
00000000
00000001
00000000
00000001
00000000
00000000
00000000
00001000
00000100
00001000
00000000
00000110
00000000
00000000
00000000
,
00010000
00000000
00010000
00000000
00010000
00000000
00000000
00000000
00000100
00010000
00000100
00000000
00000000
00000000
00000000
00000000
,
00100000
00000000
00100000
00000000
00100000
00000000
00000000
00000000
00010000
01000000
00010000
00000000
01000000
00000000
00100000
00000000
,
10000000
00000000
10000000
00000000
10000000
00000000
00000000
00000000
00010000
00100000
00010000
00000000
00000000
00000000
00000000
00000000
,
00001000
00000000
00001000
00000000
00001000
00000000
00000000
00000000
00010000
00001000
00010000
00000000
01001000
00000000
00000000
00000000
,
00200000
00000000
00000000
00000000
,
00300020
00000000
00000000
00000000
00000000
00000000
00000000
00001000
,
00002030
00000000
00000000
00000000
,
00023000
00000000
00000000
00230000
00000000
00000000
00000000
00000000
,
20300000
00000000
00000000
32000000
00000000
00000000
00000000
00000000
,
00000000
00000000
00000000
00000000
03020000
00000000
00000000
00001000
,
00032000
00000000
01000000
00000000
,
00003020
00000000
00000000
00000000
00100000
00000000
00000000
00001000
,
00002030
00000000
10000000
00000000
,
00203000
00000000
00000000
02300000
00000000
00000000
00000000
00000000
,
23000000
00000000
00000000
32000000
00010000
00000000
00000000
00000000
,
10000000
00000000
00001000
00000000
,
10000000
00010000
10000000
00001000
,
10000000
00000000
00010000
00000000
00001000
00001000
03010000
00010000
,
00100000
10000000
01000000
10000000
00100000
01000000
00001000
00010000
,
00000010
00001000
00000100
00000001
00000100
00001000
00000010
00010000
,
00000100
01000000
00010000
10000000
00100000
01000000
00001000
00010000
,
00000100
00000010
00000001
00001000
00000100
00010000
00000010
00010000
,
00001000
01000000
00100000
01000000
10000000
01000000
00100000
10000000
,
00010000
00100000
00001000
01000000
00000100
00000010
00000001
00000100
,
00000010
00010000
00001000
01000000
00100000
10000000
00010000
00100000
,
00001000
00010000
00000010
00000100
00000001
00001000
00000100
00000001
,
00000100
00000000
00000100
00000000
00000100
00000000
00010000
00000000
00001000
00010000
00001000
00000000
00000000
00000000
10000000
00000000
,
00100000
00000000
00100000
00000000
00100000
00000000
01000000
00000000
00010000
01000000
00010000
00000000
00100000
00000000
00001000
00000000
,
00010000
00000000
00010000
00000000
00010000
00000000
00000010
00000000
00001000
00000100
00001000
00000000
00000000
00000000
00000010
00000000
,
00000100
00000000
00000100
00000000
00000100
00000000
00000001
00000000
00000010
00000001
00000010
00000000
00000101
00000000
00000000
00000000
,
00001010
00000000
00001010
00000000
00001010
00000000
00000000
00000000
00100000
00010000
00100000
00000000
00000000
00000000
00000000
00000000
,
01010000
00000000
01010000
00000000
01010000
00000000
00000000
00000000
00100000
10000000
00100000
00000000
01000000
00000000
00001000
00000000
,
00010100
00000000
00010100
00000000
00010100
00000000
00000000
00000000
00000010
00000100
00000010
00000000
00000000
00000000
00000001
00000000
,
00001100
00000000
00001100
00000000
00001100
00000000
00000000
00000000
00001000
00000010
00000100
00000010
00002000
00000000
00000000
00000000
,
00023000
00000000
00000000
00000000
00000000
00000000
00000000
00100000
,
00230000
00000000
00000000
00300000
,
02000200
00000000
00000000
00000000
,
03000300
00000000
00000000
00000000
;
