#TITLE:Laser Canon Deth Sentence;
#SUBTITLE:;
#ARTIST:Dethklok;
#TITLETRANSLIT:;
#SUBTITLETRANSLIT:;
#ARTISTTRANSLIT:;
#CREDIT:IcyWorld;
#BANNER:../Tachyon Delta-bn.png;
#BACKGROUND:../Tachyon Delta-bg.png;
#LYRICSPATH:;
#CDTITLE:;
#MUSIC:Laser Canon Deth Sentence.ogg;
#OFFSET:-0.408;
#SAMPLESTART:52.350;
#SAMPLELENGTH:20.000;
#SELECTABLE:YES;
#BPMS:0.000=160.000;
#STOPS:;
#BGCHANGES:;
// cache tags:
#FIRSTBEAT:16.000;
#LASTBEAT:390.000;
#SONGFILENAME:Songs/Tachyon Delta/Laser Canon Deth Sentence - [IcyWorld]/Laser Canon Deth Sentence.sm;
#HASMUSIC:1;
#HASBANNER:1;
#MUSICLENGTH:147.330;
// end cache tags

//---------------dance-single - IcyWorld----------------
#NOTES:
     dance-single:
     IcyWorld:
     Challenge:
     18:
     1.000,1.000,0.278,0.048,1.000,1479.000,41.000,7.000,0.000,0.000:

0000
0000
0000
0000
,
0000
0000
0000
0000
,
0000
0000
0000
0000
,
0000
0000
0000
0000
,
0001
0010
0100
1000
0001
0100
0001
1000
0001
1000
0010
0100
0001
0100
0001
1000
0100
1000
0001
0010
0100
1000
0001
0010
,
0001
1000
0001
1000
0010
1000
0010
0100
0010
0100
0001
0100
0010
1000
0001
0100
0001
1000
0100
1000
0100
0010
0001
1000
,
0001
0010
0100
1000
0100
0010
0001
1000
0001
1000
0100
0010
0100
0010
0001
0010
0100
1000
0001
1000
0001
0100
0001
0100
,
0010
0100
0010
1000
0001
1000
0001
1000
0100
1000
0100
0010
0001
1000
0100
0010
0100
0010
0100
1000
0001
1000
0001
0100
,
0010
1000
0010
0100
0001
0100
0010
1000
0001
1000
0001
0010
0001
0010
0100
0010
0100
1000
0001
1000
0001
0100
0001
0100
,
0001
1000
0100
1000
0100
0010
0100
1000
0001
0010
0100
0010
0001
1000
0100
0010
0001
0010
0100
1000
0001
0010
0001
0010
,
0100
1000
0001
0100
0001
0100
0010
1000
0010
1000
0001
1000
0001
0010
0001
0010
0100
1000
0001
1000
0001
0010
0100
1000
,
0100
0010
0001
1000
0100
0010
0001
0010
0100
1000
0100
1000
0001
0010
0100
1000
0100
1000
0001
0100
0001
0100
0010
0100
,
0010
1000
0001
1000
0001
0100
0010
1000
0001
1000
0001
0100
0010
1000
0010
0100
0001
0100
0010
0100
0010
1000
0001
0100
,
0010
1000
0001
1000
0001
1000
0100
1000
0100
0010
0100
0010
0001
1000
0001
1000
0010
1000
0010
0100
0001
0100
0001
1000
,
0001
1000
0100
1000
0100
0010
0001
1000
0100
0010
0001
0010
0100
1000
0001
1000
0001
1000
0100
0010
0001
0010
0100
1000
,
0001
0010
0100
0010
0100
1000
0001
1000
0001
0010
0100
0010
0100
1000
0001
0010
0100
1000
0100
0010
0100
0010
0001
1000
,
0001
0100
0001
0100
0010
1000
0010
1000
0001
0010
0001
0010
0100
1000
0100
1000
0001
0010
0100
1000
0100
0010
0001
1000
,
0001
1000
0001
0100
0001
0100
0010
0100
0010
1000
0001
0100
0010
1000
0010
0100
0001
0100
0001
1000
0010
1000
0010
0100
,
0001
1000
0001
1000
0100
0010
0001
0010
0100
1000
0100
0010
0001
1000
0100
1000
0100
0010
0100
0010
0001
0010
0001
1000
,
0100
0010
0100
1000
0001
0010
0100
1000
0100
0010
0100
0010
0001
1000
0001
1000
0001
1000
0020
0000
0000
0000
0000
0000
,
1030
0100
1000
0100
0010
0001
1000
0100
1000
0100
0010
0001
,
1000
0100
1000
0100
0010
0001
1000
0010
0100
0001
0100
0010
,
1000
0001
1000
0001
0010
0100
1000
0001
1000
0001
0010
0100
,
1000
0010
0100
0001
0100
0010
1000
0001
0100
0010
0100
0001
,
1000
0010
1000
0010
0100
0001
1000
0010
1000
0010
0100
0001
,
1000
0010
1000
0010
0100
0001
1000
0100
0010
0001
0010
0100
,
1000
0001
1000
0001
0100
0010
1000
0001
1000
0001
0100
0010
,
1000
0100
0010
0001
0010
0100
1000
0001
0100
0010
1000
0001
,
1000
0001
1000
0100
0010
0100
0010
0001
1000
0001
0010
0100
1000
0001
1000
0100
0010
0100
0010
0001
1000
0100
1000
0100
,
1000
0001
0100
0001
0100
0010
1000
0001
1000
0001
0010
0100
1000
0001
1000
0100
1000
0001
0100
0010
0100
0010
1000
0001
,
0100
0001
1000
0010
0100
0001
1000
0010
1000
0010
0100
0010
0100
0001
1000
0010
0100
0001
1000
0010
1000
0001
1000
0100
,
0010
0001
0010
0001
1000
0001
1000
0100
0010
0100
0010
0001
1000
0100
1000
0100
0010
0001
0010
0001
1000
0100
0010
0001
,
1000
0100
0010
0100
1000
0001
0010
0100
0010
0001
1000
0010
1000
0010
0100
0001
0100
0001
1000
0010
0100
0001
0100
0001
,
1000
0010
1000
0001
1000
0100
0010
0001
0010
0100
0010
0100
1000
0001
1000
0001
0010
0100
1000
0100
0010
0100
0010
0001
,
1000
0010
1000
0010
0100
0010
0100
0001
0100
0001
1000
0001
1000
0100
1000
0100
0010
0100
0010
0001
0010
0001
0010
0100
,
1000
0001
1000
0001
0100
0010
0100
0010
0100
0001
0100
0001
1000
0001
1000
0100
0010
0001
1000
0010
1000
0010
0100
0001
,
0100
0010
1000
0010
0100
0001
1000
0001
1000
0100
0010
0001
1000
0001
0010
0001
0010
0100
0010
0100
1000
0001
1000
0010
,
1000
0001
0100
0010
1000
0010
1000
0001
0100
0001
0100
0010
1000
0001
1000
0100
0010
0001
1000
0001
0010
0100
1000
0100
,
0010
0001
1000
0100
0010
0100
1000
0001
0100
0001
0100
0010
0100
0001
1000
0010
0100
0001
1000
0010
0100
0001
1000
0001
,
1000
0010
0100
0001
1000
0100
1000
0100
0010
0001
1000
0100
0010
0100
1000
0001
0010
0100
1000
0001
0100
0001
0100
0010
,
1000
0010
1000
0001
1000
0001
0010
0001
0010
0100
1000
0100
0010
0100
0010
0001
1000
0001
1000
0100
0010
0100
0010
0001
,
1000
0100
1000
0001
0010
0100
1000
0001
0010
0001
0010
0100
1000
0100
0010
0001
1000
0001
1000
0100
0010
0001
1000
0100
,
0010
0001
0010
0001
1000
0010
1000
0010
0100
0001
0100
0010
0100
0010
1000
0001
1000
0001
0100
0010
1000
0010
0100
0001
,
0100
0001
1000
0001
1000
0010
0100
0001
1000
0001
1000
0100
0010
0001
1000
0100
0010
0100
1000
0001
1000
0001
0010
0100
,
1000
0001
1000
0001
1000
0001
1000
0001
1000
0001
1000
0001
,
1000
0100
0010
0001
1000
0100
1000
0001
0010
0001
1000
0100
0010
0001
1000
0100
0010
0001
1000
0000
0010
0000
0100
0000
,
0001
1000
0001
1000
0001
1000
0001
1000
0001
1000
0001
1000
,
0001
0100
0010
1000
0001
0100
0001
1000
0010
1000
0001
0100
0010
1000
0001
0100
0010
1000
0001
0000
0100
0000
0010
0000
,
1000
0001
1000
0001
1000
0001
1000
0001
1000
0001
1000
0001
,
1000
0100
0010
0001
1000
0001
1000
0100
0010
0001
1000
0100
1000
0001
0010
0001
1000
0100
0010
0001
1000
0001
1000
0100
,
0010
0001
1000
0001
1000
0001
1000
0001
1000
0001
1000
0001
,
1000
0010
0100
0001
0100
0010
1000
0001
0100
0010
1000
0001
,
1000
0100
0010
0002
0000
0000
1003
0010
0100
0002
0000
0000
,
1003
0100
0010
0002
0000
0000
1003
0001
1000
0001
1000
0001
,
1000
0010
0100
0002
0000
0000
1003
0100
0010
0002
0000
0000
,
1003
0010
0100
0002
0000
0000
1003
0001
1000
0001
1000
0001
,
0010
0100
1000
0100
0010
0001
1000
0010
1000
0001
0100
0001
,
1000
0100
0010
0001
0010
0100
1000
0001
1000
0001
1000
0001
,
1000
0010
0100
0001
0100
0010
1000
0001
0010
0001
1000
0100
,
1000
0001
0100
0010
0100
0010
1000
0001
1000
0001
1000
0001
,
1000
0100
0010
0100
1000
0001
0010
0100
0010
0001
1000
0010
,
0100
0010
1000
0001
0100
0010
1000
0001
1000
0001
1000
0001
,
1000
0100
0010
0001
1000
0010
1000
0001
0010
0100
1000
0001
,
0100
0010
1000
0010
0100
0010
1000
0001
1000
0001
1000
0001
,
0101
0110
1010
1001
,
0011
0110
1100
1001
,
0011
1001
1100
1001
,
0101
0000
0000
0000
0000
0000
0110
0000
0000
0010
1000
0010
1000
0000
0000
0001
0010
0001
0010
0000
0100
0000
1000
0000
,
1001
0101
0110
1010
,
1001
0000
0000
0011
0000
0000
1001
1000
0010
0100
0001
1000
,
1100
0000
0000
0110
0000
0000
0011
0001
1000
1001
0000
0000
,
1001
0000
0000
0001
0100
0001
0100
0000
0010
0000
1000
0000
0010
0000
0100
0000
0001
0000
1000
0000
0001
0000
1000
0000
,
0010
0100
0001
0100
0010
1000
0001
0010
0001
1000
0100
1000
,
0001
0100
0010
1000
0010
0100
0001
1000
0001
1000
0001
1000
,
0001
0010
0100
1000
0100
0010
0001
1000
0010
1000
0001
0100
,
0001
1000
0100
0010
0100
0010
0001
1000
0001
1000
0001
1000
,
0001
0100
0010
0100
0001
1000
0010
0100
0010
1000
0001
0010
,
0100
0010
0001
1000
0100
0010
0001
1000
0001
1000
0001
1000
,
0001
0100
0010
1000
0001
0010
0001
1000
0010
0100
0001
1000
,
0100
0010
0001
0010
0100
0010
0001
1000
0001
1000
0001
1000
,
1010
0010
0100
0010
1000
0010
0100
0001
0010
0001
1000
0010
,
0100
0001
1000
0100
1000
0010
0100
0001
0010
0001
1000
0010
,
1010
1000
0001
0010
0100
1000
0001
0100
0001
0010
0100
1000
,
0010
1000
0001
0010
0100
1000
0001
0100
0001
0010
0100
1000
,
1010
0010
1000
0100
1000
0001
0100
0001
1000
0010
1000
0001
,
0010
0100
1000
0010
0100
0001
0010
0001
1000
0010
1000
0001
,
0011
0010
0100
1000
0001
0100
0010
1000
0100
0010
0001
1000
,
0010
0100
0001
0010
0001
1000
0100
1000
0001
0100
0010
1000
,
1001
0001
0010
0100
1000
0010
0100
0001
0010
0001
0100
0001
,
1000
0100
0010
0100
1000
0010
0100
0001
0010
0100
1000
0010
,
0110
0100
0010
1000
0001
0010
0100
1000
0001
0100
0001
0010
,
0100
1000
0010
0100
0001
0010
0001
0100
0010
1000
0001
0010
,
0110
0100
1000
0001
0010
0001
1000
0010
0100
0001
1000
0100
,
0010
0001
0010
0100
0010
0001
0100
0010
1000
0001
0010
0001
,
1001
1000
0100
0110
0010
0001
1001
1000
0100
0110
0010
0001
,
1001
1000
0010
0110
0100
0001
1001
1000
0010
0110
0100
0001
,
0010
0100
1000
0010
0100
0010
1000
0100
0010
0001
0100
0010
,
0100
0001
0010
0100
0010
0001
1000
0000
0000
0000
0000
0000
;
