#TITLE:NoiseMan;
#SUBTITLE:IcyWorld;
#ARTIST:Brain Violation.Kannou Shinshoku;
#TITLETRANSLIT:;
#SUBTITLETRANSLIT:;
#ARTISTTRANSLIT:;
#CREDIT:;
#BANNER:bn.JPG;
#BACKGROUND:bg.jpg;
#LYRICSPATH:;
#CDTITLE:CDTitle.png;
#MUSIC:14. Noiseman.mp3;
#OFFSET:-0.046;
#SAMPLESTART:100.000;
#SAMPLELENGTH:12.000;
#SELECTABLE:YES;
#BPMS:0.000=190.086,66.000=190.073,67.000=190.086,128.000=184.557,129.000=190.086,130.000=190.510,131.000=190.086,132.000=189.623,133.000=190.086,134.000=191.392,135.000=190.086,136.000=188.354,137.000=190.086,138.000=190.510,139.000=190.086,142.000=189.650,143.000=190.086,144.000=189.189,145.000=190.086,146.000=192.815,147.000=190.086,148.000=187.049,149.000=190.086,150.000=192.310,151.000=190.086,152.000=187.899,153.000=190.086,154.000=197.787,155.000=184.570,156.000=188.354,157.000=189.419,158.000=190.086,162.000=191.850,163.000=190.086,164.000=188.327,165.000=190.086,191.000=185.893,192.000=190.086,248.000=95.043,249.000=95.029,250.000=95.043,252.000=190.086,297.000=184.082,298.000=190.086,364.000=190.073,365.000=190.086,376.000=183.737,377.000=184.557,378.000=189.623,379.000=183.546,380.000=190.086,446.000=190.073,447.000=190.086,512.000=190.073,513.000=190.086,578.000=190.073,579.000=190.086,617.000=180.147,618.000=190.086,631.000=187.553,632.000=190.086,633.000=193.026,634.000=190.086,636.000=187.779,637.000=190.086,679.000=186.443,680.000=190.086,692.000=186.338,693.000=190.086,700.000=192.801,701.000=190.086,720.000=188.542,721.000=192.003,722.000=190.086,788.000=190.073,789.000=190.086,854.000=190.073,855.000=190.086,920.000=190.073,921.000=190.086;
#STOPS:;
#BGCHANGES:;
// cache tags:
#FIRSTBEAT:64.000;
#LASTBEAT:937.750;
#SONGFILENAME:Songs/IcyWorld MiniPack/NoiseMan IcyWorld/NoiseMan.sm;
#HASMUSIC:1;
#HASBANNER:1;
#MUSICLENGTH:298.109;
// end cache tags

//---------------dance-single - ----------------
#NOTES:
     dance-single:
     :
     Hard:
     15:
     1.000,1.000,1.000,1.000,1.000,2424.000,829.000,307.000,1.000,231.000:
0000
0000
0000
0000
,
0000
0000
0000
0000
,
0000
0000
0000
0000
,
0000
0000
0000
0000
,
0000
0000
0000
0000
,
0000
0000
0000
0000
,
0000
0000
0000
0000
,
0000
0000
0000
0000
,
0000
0000
0000
0000
,
0000
0000
0000
0000
,
0000
0000
0000
0000
,
0000
0000
0000
0000
,
0000
0000
0000
0000
,
0000
0000
0000
0000
,
0000
0000
0000
0000
,
0000
0000
0000
0000
,
0101
0110
0100
0100
,
0101
0110
0100
0100
,
0101
0110
0100
0100
,
0110
1100
0100
0100
,
0101
0110
0100
0100
,
0101
0110
0100
0100
,
0101
0110
0100
0100
,
0110
0000
1100
0000
0100
0000
0100
0010
,
0101
0000
1000
0000
0111
0000
0100
1000
0101
0000
0011
0000
0110
0001
1000
0000
,
0101
0000
0010
0000
0111
0000
0100
1000
0101
0000
0011
0000
0110
0001
1000
0000
,
0101
0000
0010
0000
0111
0000
0100
1000
0101
0000
0011
0000
0110
0001
1000
0000
,
0110
0000
0010
0000
1101
0000
0100
1000
0101
0000
0011
0000
0110
0001
1000
0000
,
0101
0000
0010
0000
0111
0000
0100
1000
0101
0000
0011
0000
0110
0001
1000
0000
,
0101
0000
0001
0000
1110
0001
1000
0010
0101
0000
0011
0000
0110
0000
0100
1000
,
0101
0000
0000
0000
0000
0000
0000
0000
0000
0000
0000
0000
0000
0000
0000
0000
0000
0000
0000
0000
0000
0000
0000
0000
0010
0000
0000
0000
0000
0000
0000
0000
0000
0000
0000
0000
0001
0000
0000
0000
0000
0000
0000
0000
0000
0000
0000
0000
1110
0000
0000
0000
0000
0000
0000
0000
0000
0000
0000
0000
0001
0000
0000
0000
0000
0000
0000
0000
0000
0000
0000
0000
1000
0000
0000
0000
0000
0000
0000
0000
0100
0000
0000
0000
0000
0000
0000
0000
0000
0010
0000
0000
0000
0000
0000
0000
0101
0000
0000
0000
0000
0000
0000
0000
0000
0000
0000
0000
0000
0000
0000
0000
0000
0000
0000
0000
0000
0000
0000
0000
0011
0000
0000
0000
0000
0000
0000
0000
0000
0000
0000
0000
0001
0000
0000
0000
0000
0000
0000
0000
0000
0000
0000
0000
0110
0000
0000
0000
0000
0000
0000
0000
0000
0000
0000
0000
0001
0000
0000
0000
0000
0000
0000
0000
0000
0000
0000
0000
1000
0000
0000
0000
0000
0000
0000
0000
0000
0000
0000
0000
0000
0000
0000
0000
0000
0000
0000
0000
0000
0000
0000
0000
,
2100
0000
0001
0000
0100
0000
0001
0000
0010
0000
0001
0000
3010
0000
0001
0000
1020
0000
0001
0000
1000
0000
0001
0000
0100
0000
0001
0000
0100
1000
0001
1000
0100
0000
0000
0000
0000
0000
0000
0000
0100
0000
1000
0000
0100
0000
1000
0000
0201
0000
0000
0000
0302
0000
0000
0000
2003
0000
0000
0000
3000
0000
0000
0000
,
1000
0000
1001
0100
1031
0010
1001
0110
1001
0100
1011
0100
0001
0110
1001
0010
,
0101
1000
0011
0100
1011
0100
1010
0101
1010
0100
1011
0100
0011
1100
0011
0100
,
1010
0100
0011
0100
1011
0100
1001
0110
1001
0010
1101
0010
1001
0110
1000
0011
,
1100
0001
1100
0010
1101
0010
1001
0110
1001
0100
1011
0100
1001
0010
1100
0010
,
0101
1000
0011
0100
1011
0100
1010
0101
1010
0100
1011
0100
0011
1100
0010
0100
,
1010
0001
1100
0010
1101
0010
0101
1010
0101
1000
0111
1000
0011
1100
0011
1000
,
0110
0001
1010
0100
1011
0100
0010
0101
1010
0100
1011
0100
1000
0101
1010
0101
,
1010
0100
1001
0100
1011
0100
0011
1100
0011
0100
1011
0100
1010
0101
1010
0001
,
0110
1000
0101
0010
1101
0010
0101
1010
0101
1000
0111
1000
0011
1100
0011
0100
,
1010
0100
0011
0100
1011
0100
1001
0110
1001
0010
1101
0010
1100
0011
1100
0010
,
0101
1000
0110
1000
0111
1000
0101
1010
0101
0010
1101
0010
1100
0011
1100
0010
,
0101
0010
1100
0010
1101
0010
0101
1010
0101
1000
0111
1000
0011
1100
0011
0100
,
1010
0100
0011
0100
1011
0100
0011
1100
0011
0100
1011
0100
1010
0101
1010
0001
,
1100
0010
0101
1000
0111
1000
0011
1100
0011
0100
1011
0100
1010
0101
1010
0100
,
1011
0000
0100
0000
1001
0000
0010
0000
1101
0000
0010
0000
1001
0100
0010
0001
1100
0000
0010
0000
1101
0000
1101
0000
0011
0000
1100
0000
0010
0000
0001
0000
,
1100
0000
0011
0000
1100
0010
0001
1000
0110
0000
0001
0000
0110
0000
1001
0000
0110
0000
1000
0000
0011
1100
0011
1100
0011
0000
0100
0000
1001
0000
0010
0000
,
1001
0100
0010
0100
1010
0100
0001
0010
1100
0001
0010
1000
0011
0100
1000
0010
,
0101
1000
0001
0100
1010
0100
0001
0010
1100
0010
0100
1000
0001
0010
0100
1000
,
0011
0100
0001
0100
1010
0100
0001
0010
1100
0010
0100
0010
1001
0100
0001
0010
,
0101
1000
0100
0001
1010
0100
0001
0010
1100
0001
0010
1000
0011
0100
1001
0010
,
1001
0100
0001
0100
1010
0001
0010
0001
1100
0001
0010
1000
0011
0100
1000
0010
,
0101
1000
0001
0100
1010
0100
0001
0010
1100
0001
0010
0100
1001
0010
0100
1000
,
0101
0010
0001
0100
1010
0001
0010
0001
1100
0001
0010
0100
1001
0100
0010
0001
,
0110
1000
0100
0001
0110
0001
0100
0010
1100
0001
0010
1000
0011
0100
1000
0010
,
0101
1010
0101
0110
1010
0001
0010
0001
1100
0001
0010
1000
0011
0100
1000
0010
,
0101
1000
0001
0100
1010
0001
0010
0001
1100
0001
0010
1000
0011
1000
0100
1000
,
0011
0100
0001
0100
1010
0100
0001
0010
1100
0010
0100
0010
1001
0100
0010
0001
,
0110
1000
0100
0001
0110
0001
0010
0001
1100
0001
0010
1000
0011
0100
1000
0010
,
0101
1000
0001
0100
1010
0001
0010
0001
1100
0001
0010
1000
0011
0100
1000
0010
,
0101
1000
0001
0100
1010
0001
0010
0001
1100
0001
0010
1000
0011
0100
1000
0010
,
0100
1000
0010
0100
0010
0001
0010
0100
1000
0001
0010
0100
1000
0100
0010
0001
0100
1000
0010
0001
0100
0010
0001
0010
0100
0001
0010
1000
0001
0100
1000
0010
,
1001
0100
0010
0100
1010
0001
0010
0001
1100
0001
0010
1000
0011
0100
1000
0010
,
0101
1000
0010
0100
1010
0001
0010
0001
1100
0001
0010
1000
0011
1000
0100
1000
,
0011
0100
0001
1000
0110
0001
0010
0001
1100
0001
0010
0100
1001
0100
0010
0001
,
0110
1000
0010
0001
1100
0001
0010
0001
1100
0001
0010
1000
0011
0100
1000
0010
,
0101
1000
0010
0100
1010
0001
0010
0001
1100
0001
0010
1000
0011
0100
1000
0010
,
0101
1000
0010
0100
1010
0001
0010
0001
1100
0001
0010
1000
0101
0010
0100
1000
,
0101
0010
0001
0100
1010
0001
0100
0010
1100
0001
0010
0100
1001
0100
0010
0001
,
0210
1300
0010
0001
2100
0010
3001
0010
2100
0001
3010
0100
0021
0101
1130
1010
,
0101
1000
0010
1000
0110
0001
0010
0001
1100
0001
0010
1000
0011
0100
1000
0010
,
0101
1000
0010
1000
0110
0001
0010
0001
1100
0001
0010
1000
0110
0001
0010
0100
,
1001
0100
0010
1000
0110
0001
0010
0001
1100
0001
0010
0100
1011
1100
0110
0011
,
0111
1000
0010
0001
1100
0010
0001
0010
1100
0001
0010
1000
0011
0100
1000
0010
,
0101
1000
0110
1000
0110
0001
1010
0001
1100
0001
0110
1000
0011
0100
1001
0010
,
0101
1000
0011
1000
0110
0001
1010
0001
1100
0001
0110
1000
0110
0001
1010
0100
,
1001
1100
0011
1100
0011
0101
1001
0011
1100
0011
0110
1010
1001
0110
0011
0011
,
0101
0010
1100
0001
0110
1000
0011
0100
2010
0000
0001
0000
3010
0000
0001
0000
0200
0000
0001
0000
0310
0000
1000
0000
0002
0000
0100
0000
1003
0000
0010
0000
,
0101
1000
0010
1000
0110
0001
0010
0001
1100
0001
0010
1000
0011
0100
1000
0010
,
0101
1000
0010
1000
0110
0001
0010
0001
1100
0001
0010
1000
0011
0100
1000
0100
,
0011
0100
0001
1000
0110
0001
0010
0001
1100
0001
0010
0100
1001
0100
0010
0001
,
0110
1000
0010
0001
1100
0010
0001
0010
1100
0001
0010
1000
0011
0100
1000
0010
,
0101
1010
0101
1010
0101
0010
0001
0010
1100
0001
0010
1000
0011
0100
1000
0010
,
0101
1000
0010
1000
0110
0001
0010
0001
1100
0001
0010
1000
0110
0001
0010
0100
,
1001
0100
0010
1000
0110
0001
0010
0001
1100
0001
0010
0100
1001
0100
0010
0001
,
0210
1300
0010
0001
2100
0010
3001
0010
2100
0001
3010
0100
0021
0101
1130
1010
,
0202
0303
0000
0000
1000
0000
0000
0000
0010
0000
0000
0000
1000
0000
0000
0000
0110
0000
0000
0000
0001
0000
0000
0000
0010
0000
0000
0000
0001
0000
0000
0000
2200
3300
0000
0000
0001
0000
0000
0000
0010
0000
0000
0000
1000
0000
0000
0000
0011
0000
0000
0000
0100
0000
0000
0000
1000
0000
0000
0000
0010
0000
0000
0000
,
0202
0303
0000
0000
1000
0000
0000
0000
0010
0000
0000
0000
1000
0000
0000
0000
0110
0000
0000
0000
0001
0000
0000
0000
0010
0000
0000
0000
0001
0000
0000
0000
2200
3300
0000
0000
0001
0000
0000
0000
0010
0000
0000
0000
1000
0000
0000
0000
0011
0000
0000
0000
0100
0000
0000
0000
1000
0000
0000
0000
0100
0000
0000
0000
,
0022
0033
0000
0000
0100
0000
0000
0000
0001
0000
0000
0000
0100
0000
0000
0000
1010
0000
0000
0000
0001
0000
0000
0000
0010
0000
0000
0000
0001
0000
0000
0000
2200
3300
0000
0000
0001
0000
0000
0000
0010
0000
0000
0000
0100
0000
0000
0000
1010
0000
0000
0000
0101
0000
0000
0000
1010
0000
0000
0000
1001
0000
0000
0000
,
0220
0330
0000
0000
1000
0000
0000
0000
0010
0000
0000
0000
0001
0000
0000
0000
1100
0000
0000
0000
0010
0000
0000
0000
0001
0000
0000
0000
0010
0000
0000
0000
2200
3300
0000
0000
0001
0000
0000
0000
0010
0000
0000
0000
1000
0000
0000
0000
0011
0000
0000
0000
0100
0000
0000
0000
1000
0000
0000
0000
0010
0000
0000
0000
,
0202
0300
0000
0000
1003
0000
0000
0000
0010
0000
0000
0000
1000
0000
0000
0000
0220
0300
0000
0000
0001
0000
0000
0000
0130
0000
0000
0000
0010
0000
0000
0000
2200
3000
0000
0000
0001
0000
0000
0000
0310
0000
0000
0000
1000
0000
0000
0000
0022
0003
0000
0000
0100
0000
0000
0000
1030
0000
0000
0000
0010
0000
0000
0000
,
0202
0003
0000
0000
1000
0000
0000
0000
0310
0000
0000
0000
1000
0000
0000
0000
0220
0030
0000
0000
0001
0000
0000
0000
0310
0000
0000
0000
0001
0000
0000
0000
2200
0300
0000
0000
0001
0000
0000
0000
3010
0000
0000
0000
1000
0000
0000
0000
0022
0003
0000
0000
0100
0000
0000
0000
1030
0000
0000
0000
0100
0000
0000
0000
,
2001
0000
0000
0000
0010
0000
0000
0000
0002
0003
0000
0000
3100
0000
0000
0000
2010
0000
0000
0000
0100
0000
0000
0000
0002
0003
0000
0000
3010
0000
0000
0000
2200
3000
0000
0000
0001
0000
0000
0000
0020
0030
0000
0000
1300
0000
0000
0000
2002
0003
0000
0000
0110
0000
0000
0000
0021
0030
0000
0000
3101
0000
0000
0000
,
0210
0000
0000
0000
1000
0000
0000
0000
0320
0030
0000
0000
0001
0000
0000
0000
2200
3000
0000
0000
0010
0000
0000
0000
0302
0003
0000
0000
0010
0000
0000
0000
2200
3000
0000
0000
0001
0000
0000
0000
0320
0030
0000
0000
1000
0000
0000
0000
0022
0030
0000
0000
0100
0000
0000
0000
2003
3000
0000
0000
0010
0000
0000
0000
,
0100
1000
0100
0001
0000
0000
0000
0000
,
0100
1000
0100
0010
0000
0000
0000
0000
,
1000
0100
0010
0000
0001
0000
0001
0010
,
0100
0000
0001
0010
,
0100
1000
0100
0001
0000
0000
0000
0000
,
0100
1000
0100
0010
0000
0000
0000
0000
,
0100
1000
0100
0000
0010
0000
0001
0010
,
0100
0000
0001
0100
,
0101
1000
0110
0001
0000
0000
0000
0000
,
0101
1000
0110
0010
0000
0000
0000
0000
,
1001
0000
0110
0000
0010
0000
0001
0010
,
0110
0000
0000
0000
1020
0030
0000
0000
0001
0000
0000
0000
0100
0000
0000
0000
,
0101
1000
0110
0001
0000
0000
0000
0000
,
0101
1000
0110
0010
0000
0000
0000
0000
,
1001
0100
0110
0000
0001
0000
0001
0010
,
0110
0000
0000
0000
1020
0030
0000
0000
0001
0000
0000
0000
0100
0000
0000
0000
,
1101
0010
1100
0010
1101
0010
0101
1000
0100
0010
0001
0010
0100
0010
0001
0010
,
1101
0010
1100
0010
1101
0010
1100
0010
0001
0010
0100
1000
0100
0010
0001
0100
,
1011
0100
1010
0100
1011
0100
1000
0010
0101
1000
0010
0100
1001
0100
0011
1000
,
0111
1000
0100
0010
1101
0010
0100
1000
0101
0010
0001
0100
1010
0100
0010
0001
,
1110
0001
1010
0100
1011
0100
1001
0010
0001
0010
0100
1000
0010
0100
0010
0001
,
1110
0001
1010
0100
1011
0100
1010
0100
0010
0001
0100
0010
0100
1000
0100
0010
,
1101
0010
1100
0010
1101
0010
0100
1000
0011
1000
0010
0100
0011
0100
1010
0001
,
1110
0001
0010
0100
1011
0100
0010
0100
1001
0010
0100
1000
0110
1000
0100
0010
,
1101
0010
1100
0010
1101
0010
0101
1000
0100
0010
0001
0010
0100
1000
0001
0010
,
1101
0010
1100
0010
1101
0010
1100
0010
0100
0010
0001
0010
0100
1000
0100
0010
,
1101
0010
0101
1000
0111
1000
0010
0100
1001
0010
0100
1000
0011
0100
1010
0001
,
1110
0001
0010
0100
1011
0100
0010
0100
1001
0100
0010
0001
0110
1000
0100
0010
,
1101
0010
1100
0010
1101
0010
0101
1000
0100
0010
0001
0010
0100
1000
0100
0010
,
1101
0010
1100
0010
1101
0010
1100
0010
0100
1000
0100
0010
0100
0001
0100
0010
,
1101
0010
1100
0010
1101
0010
0100
1000
0110
0001
0010
0100
1001
0100
1010
0001
,
1110
0001
0010
0100
1011
0100
0010
0100
1001
0010
0001
0010
1100
0010
0001
0010
,
0200
0000
2300
0000
3200
0000
0302
0000
0000
0000
0000
0000
0000
0000
0000
0003
,
0200
0000
2300
0000
3200
0000
0320
0000
0000
0000
0000
0000
0000
0000
0000
0030
,
2000
3200
0320
2030
3002
2003
3002
0023
,
0230
0000
0000
0000
0000
0000
0000
0000
0000
0000
0000
0000
0000
0000
0300
0000
0002
0000
0000
0000
0000
0000
0000
0003
0020
0000
0000
0000
0000
0000
0000
0030
,
0200
0000
2300
0000
3200
0000
0302
0000
0000
0000
0000
0000
0000
0000
0000
0003
,
0200
0000
2300
0000
3200
0000
0320
0000
0000
0000
0000
0000
0000
0000
0000
0030
,
2000
3200
0320
2030
3002
2003
3002
0023
,
0230
0000
0000
0000
0000
0000
0000
0000
0000
0000
0000
0000
0000
0000
0000
0000
0000
0000
0000
0000
0000
0000
0000
0000
0000
0000
0000
0000
0000
0000
0000
0000
0000
0000
0000
0000
0000
0000
0000
0000
0000
0000
0300
0000
0000
0000
0000
0000
0002
0000
0000
0000
0000
0000
0000
0000
0000
0000
0000
0000
0000
0000
0000
0000
0000
0000
0000
0000
0000
0003
0000
0000
0020
0000
0000
0000
0000
0000
0000
0000
0000
0000
0000
0000
0000
0000
0000
0000
0000
0000
0000
0000
0000
0000
0030
0000
,
0201
0000
0000
0000
2300
0000
0000
0000
3210
0000
0000
0000
0302
0000
0000
0000
1000
0000
0000
0000
0000
0000
0000
0000
0100
0000
0000
0000
0000
0000
0000
0003
,
0210
0000
0000
0000
2300
0000
0000
0000
3201
0000
0000
0000
0320
0000
0000
0000
1000
0000
0000
0000
0000
0000
0000
0000
0100
0000
0000
0000
0000
0000
0000
0030
,
2001
3200
0321
2030
3012
2003
3102
0023
,
0231
0000
0000
0000
0000
0000
0000
0000
0010
0000
0000
0000
0000
0000
0000
0300
1002
0000
0000
0000
0000
0000
0000
0003
0120
0000
0000
0000
0000
0000
0000
0030
,
0201
0000
0000
0000
2300
0000
0000
0000
3210
0000
0000
0000
0302
0000
0000
0000
0100
0000
0000
0000
0000
0000
0000
0000
1000
0000
0000
0000
0000
0000
0000
0003
,
0210
0000
0000
0000
2300
0000
0000
0000
3201
0000
0000
0000
0320
0000
0000
0000
0100
0000
0000
0000
0000
0000
0000
0000
1000
0000
0000
0000
0000
0000
0000
0030
,
2001
3201
0321
2130
3012
2103
3102
0123
,
1230
0000
0000
0000
0000
0000
0000
0000
0001
0000
0000
0000
0000
0000
0000
0300
0012
0000
0000
0000
0000
0000
0000
0000
1023
0000
0000
0000
0000
0000
0000
0000
,
0230
0000
0000
0000
2300
0000
0000
0000
3200
0000
0000
0000
0302
0000
0000
0000
0000
0000
0000
0000
0000
0000
0000
0000
0000
0000
0000
0000
0000
0000
0000
0003
,
0200
0000
0000
0000
2300
0000
0000
0000
3200
0000
0000
0000
0320
0000
0000
0000
0000
0000
0000
0000
0000
0000
0000
0000
0000
0000
0000
0000
0000
0000
0000
0030
,
2000
3200
0320
2030
3002
2003
3002
0023
,
0230
0000
0000
0000
0000
0000
0000
0000
0000
0000
0000
0000
0000
0000
0000
0300
0002
0000
0000
0000
0000
0000
0000
0000
0023
0000
0000
0000
0000
0000
0000
0000
,
0230
0000
0000
0000
2300
0000
0000
0000
3200
0000
0000
0000
0302
0000
0000
0000
0000
0000
0000
0000
0000
0000
0000
0000
0000
0000
0000
0000
0000
0000
0000
0003
,
0200
0000
0000
0000
2300
0000
0000
0000
3200
0000
0000
0000
0320
0000
0000
0000
0000
0000
0000
0000
0000
0000
0000
0000
0000
0000
0000
0000
0000
0000
0000
0030
,
2000
3200
0320
2030
3002
2003
3002
0023
,
0230
0000
0000
0000
0000
0000
0000
0000
0000
0000
0000
0000
0000
0000
0000
0300
0002
0000
0000
0000
0000
0000
0000
0000
0023
0000
0000
0000
0000
0000
0000
0000
,
0230
0000
0000
0000
2300
0000
0000
0000
3200
0000
0000
0000
0302
0000
0000
0000
0000
0000
0000
0000
0000
0000
0000
0000
0000
0000
0000
0000
0000
0000
0000
0003
,
0200
0000
0000
0000
2300
0000
0000
0000
3200
0000
0000
0000
0320
0000
0000
0000
0000
0000
0000
0000
0000
0000
0000
0000
0000
0000
0000
0000
0000
0000
0000
0030
,
2000
3200
0320
2030
3002
2003
3002
0023
,
0230
0000
0000
0000
0000
0000
0000
0000
0000
0000
0000
0000
0000
0000
0000
0300
0002
0000
0000
0000
0000
0000
0000
0000
0023
0000
0000
0000
0000
0000
0000
0000
,
0230
0000
0000
0000
2300
0000
0000
0000
3200
0000
0000
0000
0302
0000
0000
0000
0000
0000
0000
0000
0000
0000
0000
0000
0000
0000
0000
0000
0000
0000
0000
0003
,
0200
0000
0000
0000
2300
0000
0000
0000
3200
0000
0000
0000
0320
0000
0000
0000
0000
0000
0000
0000
0000
0000
0000
0000
0000
0000
0000
0000
0000
0000
0000
0030
,
2000
3200
0320
2030
3002
2003
3002
0023
,
0230
0000
0000
0000
0000
0000
0000
0000
0010
0000
0000
0000
0000
0000
0000
0300
1002
0000
0000
0000
1000
0000
0000
0000
0023
0000
0000
0000
0000
0000
0000
0000
,
0230
0000
0000
0000
2300
0000
0000
0000
3210
0000
0000
0000
0302
0000
0000
0000
1000
0000
0000
0000
1000
0000
0000
0000
0000
0000
0000
0000
0000
0000
0000
0003
,
0200
0000
0000
0000
2300
0000
0000
0000
3201
0000
0000
0000
0320
0000
0000
0000
1000
0000
0000
0000
1000
0000
0000
0000
0000
0000
0000
0000
0000
0000
0000
0030
,
2000
3200
0321
2030
3102
2103
3002
0023
,
0230
0000
0000
0000
0000
0000
0000
0000
0010
0000
0000
0000
0000
0000
0000
0300
1002
0000
0000
0000
1000
0000
0000
0000
0023
0000
0000
0000
0000
0000
0000
0000
,
0230
0000
0000
0000
2300
0000
0000
0000
3210
0000
0000
0000
0302
0000
0000
0000
1000
0000
0000
0000
1000
0000
0000
0000
0000
0000
0000
0000
0000
0000
0000
0003
,
0200
0000
0000
0000
2300
0000
0000
0000
3201
0000
0000
0000
0320
0000
0000
0000
1000
0000
0000
0000
1000
0000
0000
0000
0000
0000
0000
0000
0000
0000
0000
0030
,
2000
3200
0321
2030
3102
2103
3002
0023
,
0230
0000
0000
0000
0000
0000
0000
0000
0010
0000
0000
0000
0000
0000
0000
0300
1002
0000
0000
0000
1000
0000
0000
0000
0023
0000
0000
0000
0000
0000
0000
0000
,
0230
0000
0000
0000
2300
0000
0000
0000
3210
0000
0000
0000
0302
0000
0000
0000
1000
0000
0000
0000
1000
0000
0000
0000
0000
0000
0000
0000
0000
0000
0000
0003
,
0200
0000
0000
0000
2300
0000
0000
0000
3201
0000
0000
0000
0320
0000
0000
0000
1000
0000
0000
0000
1000
0000
0000
0000
0000
0000
0000
0000
0000
0000
0000
0030
,
2000
3200
0321
2030
3102
2103
3002
0023
,
0230
0000
0000
0000
0000
0000
0000
0000
0010
0000
0000
0000
0000
0000
0000
0300
1002
0000
0000
0000
1000
0000
0000
0000
0023
0000
0000
0000
0000
0000
0000
0000
,
0230
0000
0000
0000
2300
0000
0000
0000
3210
0000
0000
0000
0302
0000
0000
0000
1000
0000
0000
0000
1000
0000
0000
0000
0000
0000
0000
0000
0000
0000
0000
0003
,
0200
0000
0000
0000
2300
0000
0000
0000
3201
0000
0000
0000
0320
0000
0000
0000
1000
0000
0000
0000
1000
0000
0000
0000
0000
0000
0000
0000
0000
0000
0000
0030
,
2000
0000
3200
0000
0321
0001
2030
0000
3102
0000
2103
0100
3002
0000
0023
0000
,
0230
0000
0000
0000
0000
0000
0000
0000
0010
0010
0010
0010
0000
0000
0000
0300
1002
0000
0000
0000
1000
1000
1000
1000
0023
0000
0000
0000
1000
0000
0000
0000
,
0131
0000
1100
0001
1110
0001
1010
0100
1011
0100
1011
0100
1000
0100
0010
0001
,
0110
0001
0110
1000
0111
1000
0011
0100
1011
0100
1011
0100
0010
0001
0010
0100
,
1010
0001
0110
1000
0111
1000
0110
0001
1110
0001
1110
0001
0110
1000
0110
0001
,
0110
1000
0100
1000
0111
1000
0010
0100
1011
0100
1011
0100
0011
1000
0100
0010
,
0101
0010
1100
0001
1110
0001
1010
0100
1011
0100
1011
0100
1000
0100
0010
0001
,
0110
0001
1010
0100
1011
0100
0011
0100
1011
0100
1011
0100
0010
0001
0010
0100
,
1010
0001
0110
1000
0111
1000
0110
0001
1110
0001
1110
0001
0110
1000
0110
0001
,
0110
0001
0010
0100
1011
0100
0010
0100
1011
0100
1011
0100
0011
1000
0100
0010
,
0101
0010
1100
0001
1110
0001
1010
0100
1011
0100
1011
0100
1000
0100
0010
0001
,
0110
0001
1010
0100
1011
0100
1010
0100
1011
0100
1011
0100
0010
0001
0010
0100
,
1010
0001
0110
1000
0111
1000
0101
0010
1101
0010
1101
0010
0101
1000
0110
0001
,
0110
0001
0010
0100
1011
0100
0010
0100
1011
0100
1011
0100
0011
1000
0100
0010
,
0101
0010
1100
0001
1110
0001
1010
0100
1011
0100
1011
0100
0010
1000
0010
0001
,
0110
0001
1100
0010
1101
0010
0100
0010
1101
0010
1101
0010
0100
1000
0100
0010
,
1001
0010
1100
0001
1110
0001
1010
0100
1011
0100
1011
0100
0011
0100
1010
0001
,
0110
0001
0010
0100
1011
0100
0010
0100
1011
0100
1011
0100
1001
0010
1101
0010
,
0101
0010
1001
0010
1101
0010
0101
1000
0111
1000
0111
1000
0100
0010
0001
0010
,
0101
0010
1100
0010
1101
0010
0100
0010
1101
0010
1101
0010
0100
1000
0100
0010
,
1001
0010
1100
0010
1101
0010
1001
0100
1011
0100
1011
0100
1001
0100
0011
1000
,
0110
0001
0010
0100
1011
0100
0010
0001
1110
0001
1110
0001
0110
1000
0100
0010
,
0101
0010
1100
0001
1110
0001
0010
0001
1110
0001
1110
0001
0010
0100
1000
0100
,
0011
0100
1010
0100
1011
0100
0011
0100
1011
0100
1011
0100
0010
0001
0010
0100
,
1010
0001
0110
1000
0111
1000
0101
0010
1101
0010
1101
0010
0101
1000
0110
1000
,
0110
0001
0010
0100
1011
0100
0010
0001
1110
0001
1110
0001
0110
1000
0100
0010
,
1101
0010
1100
0010
1101
0010
0101
0010
1101
0010
1101
0010
1101
0010
0100
1000
,
0111
1000
0100
0010
1101
0010
0101
0010
1101
0010
1101
0010
1101
0010
0100
1000
,
0111
1000
0110
1000
0111
1000
0100
0010
1101
0010
1101
0010
1101
0010
0101
1000
,
0111
1000
0100
0010
1101
0010
0100
1000
0111
1000
0111
1000
0111
1000
0110
0001
,
1110
0001
0110
1000
0111
1000
0111
1000
0111
1000
0101
0010
1101
0010
1101
0010
,
1101
0010
1101
0010
1101
0010
1101
0010
1101
0010
0101
1000
0111
1000
0111
1000
,
0110
1001
0110
1001
0110
1001
0110
1001
0110
1001
0110
1001
0110
1001
0110
1001
,
0110
1001
0110
1001
0110
1001
0110
1001
1111
0000
0000
0000
0000
0000
0000
0000
0111
0000
0000
0000
0000
0000
0000
0000
1110
0000
0000
0000
0000
0000
0000
0000
,
0101
0001
0110
0001
0100
0001
0100
0001
,
0101
0001
0110
0001
0100
0001
0100
0001
,
0101
0001
0110
0001
0100
0001
0100
0001
,
0110
0001
1100
0001
0100
0001
0100
0001
,
0101
0001
0110
0001
0100
0001
0100
0001
,
0101
0001
0110
0001
0100
0001
0100
0001
,
0101
0000
0000
0101
0000
0000
0110
0000
0000
0101
0000
0000
0100
0000
0000
0101
0000
0000
0100
0000
0100
0001
0100
0000
,
0110
0100
0101
0100
1100
0000
0001
0000
0100
0000
0001
0000
0100
0000
0001
0000
,
0101
0110
0100
0100
,
0101
0110
0100
0100
,
0101
0110
0100
0100
,
0110
1100
0100
0100
,
0101
0110
0100
0100
,
0101
0110
0100
0100
,
0101
0010
0100
0000
,
0110
0100
1100
0100
0100
0000
0000
0000
,
M000
0000
0000
0020
,
0200
0000
0000
0000
0000
0030
0000
0000
0000
0000
0000
0000
0000
0000
0000
0000
0000
0000
0000
0000
0000
0000
0000
0000
0000
0000
0000
0000
0000
0000
0000
0000
0000
0000
0000
0000
0000
0000
0000
0000
0000
0000
0000
0000
0000
0000
0000
0000
0300
0000
0000
0000
0000
0000
0000
0000
0000
0000
0000
0000
0000
0000
0000
0000
0000
0000
0000
0000
0000
0000
0000
0000
0000
0000
0000
0000
0000
0000
0000
0000
0000
0000
0000
0000
0000
0000
0000
0000
0000
0000
0000
0000
0000
0000
0000
0000
0000
0000
0000
0000
0000
0000
0000
0000
0000
0000
0000
0000
0000
0000
0000
0000
0000
0000
0000
0000
0000
0000
0000
0000
0000
0000
0000
0000
0000
0000
0000
0000
0010
0000
0000
0000
0001
0000
0000
0000
0000
0000
0000
0000
0000
0000
0000
0000
0100
0000
0000
0000
0000
0000
0000
0000
0000
0000
0000
0000
0000
0000
0000
0000
0001
0000
0000
0000
0000
0000
0000
0000
0000
0000
0000
0000
0000
0000
0000
0000
0000
0000
0000
0000
0000
0000
0000
0000
0000
0000
0000
0000
0000
0000
0000
0000
,
0000
0000
0000
0000
0000
0000
0000
0020
,
0000
0000
0000
0000
0000
0000
0000
0000
0000
0000
0000
0000
0000
0000
0000
0000
0000
0000
0000
0000
0000
0000
0000
0000
0030
0000
0000
0000
0000
0000
0000
0000
0000
0000
0000
0000
0000
0000
0000
0000
0000
0000
0000
0000
0000
0000
0000
0000
0000
0000
0000
0000
0000
0000
0000
0000
0000
0000
0000
0000
0000
0000
0000
0000
0000
0000
0000
0000
0000
0000
0000
0000
0000
0000
0000
0000
0000
0000
0000
0000
0000
0000
0000
0000
0001
0000
0000
0000
0000
0000
0000
0000
0000
0000
0000
0000
0000
0000
0000
0001
0000
0000
0000
0000
0000
0000
0000
0000
0000
0000
0000
0000
0000
0001
0000
0000
0000
0000
0000
0000
0000
0000
0000
0000
0000
0000
0000
0000
0001
0000
0000
0000
0000
0000
0000
0000
0000
0000
0000
0000
0000
0000
0000
0000
0001
0000
0000
0000
0000
0000
0000
0000
0000
0000
0000
0000
0000
0000
0000
0000
0001
0000
0000
0000
0000
0000
0000
0000
0000
0000
0000
0000
0000
0000
0000
0000
0000
0000
0000
0000
0000
0000
0000
0000
0000
0000
0000
0000
0000
0000
0000
0000
,
0000
0000
0000
0000
0000
0000
0000
0000
0000
0000
0000
0000
0000
0000
0000
0000
0000
0000
0000
0000
0000
0000
0000
0000
0000
0000
0000
0000
0000
0000
0000
0000
0000
0000
0000
0000
0000
0000
0000
0000
0000
0000
0000
0000
0000
0000
0000
0000
0000
0000
0000
0000
0000
0000
0000
0000
0000
0000
0000
0000
0000
0000
0000
0000
0000
0000
0000
0000
0000
0000
0000
0000
0000
0000
0000
0000
0000
0000
0000
0000
0000
0000
0000
0000
0000
0000
0000
0000
0000
0000
0000
0000
0000
0000
0000
0000
0000
0000
0000
0000
0000
0000
0000
0000
0001
0000
0000
0000
0000
0000
0000
0000
0000
0000
0000
0000
0000
0000
0000
0001
0000
0000
0000
0000
0000
0000
0000
0000
0000
0000
0000
0000
0000
0001
0000
0000
0000
0000
0000
0000
0000
0000
0000
0000
0000
0000
0000
0000
0001
0000
0000
0000
0000
0000
0000
0000
0000
0000
0000
0000
0000
0000
0000
0000
0000
0000
0000
0000
0000
0000
0000
0000
0000
0000
0000
0000
0000
0000
0000
0000
0000
0000
0000
0000
0000
0000
0000
0000
0000
0000
0000
0000
,
0000
0000
0000
0000
0000
0000
0000
0000
0000
0000
0000
0000
0200
0000
0000
0000
2000
0000
0000
0000
0000
0000
0000
0000
0000
0000
0000
0000
0000
0000
0000
0000
0000
0000
0000
0000
0000
0000
0000
0000
0000
0000
0000
0000
0000
0000
0000
0000
0300
0000
0000
0000
0000
0000
0000
0000
0000
0000
0000
0000
0000
0000
0000
0000
0000
0000
0000
0000
0000
0000
0000
0000
0000
0000
0000
0000
0000
0000
0000
0000
0000
0000
0000
0000
0000
0000
0000
0000
0000
0000
0000
0000
0000
0000
0000
0000
0000
0000
0000
0000
0000
0000
0000
0000
3000
0000
0000
0000
0000
0000
0000
0000
0000
0000
0000
0000
0000
0000
0000
0010
0000
0000
0000
0000
0000
0000
0000
0000
0000
0000
0000
0000
0000
0000
0010
0000
0000
0000
0000
0000
0000
0000
0000
0000
0000
0000
0000
0000
0000
0000
0000
0010
0000
0000
0000
0000
0000
0000
0000
0000
0000
0000
0000
0000
0000
0000
0000
0000
0100
0000
0000
0000
0000
0000
0000
0000
0000
0000
0000
0000
0000
0000
0000
0100
0000
0000
0000
0000
0000
0000
0000
0000
,
0000
0000
0000
0000
0000
0000
0000
0000
0000
0000
0000
0000
0000
0000
0000
0000
0000
0000
0000
0000
0000
0000
0000
0000
0000
0000
0000
0000
0000
0000
0000
0000
0000
0100
0000
0000
0000
0000
0000
0000
0000
0000
0000
0000
0000
0000
0000
0000
0000
0000
0000
0000
0000
0100
0000
0000
0000
0000
0000
0000
0000
0000
0000
0000
0000
0000
0000
0000
0000
0000
0000
0000
0000
0000
0000
0000
0000
0000
0000
0000
0000
0000
0000
0000
0000
0000
0000
0000
0000
0000
0000
0000
0000
0000
0000
0000
0000
0000
0000
0000
0000
0000
0000
0000
0000
0000
0000
0000
0000
0000
0000
0000
0000
0000
0000
0000
0000
0000
0000
0000
0000
0000
0000
0000
0000
0000
0000
0000
0000
0000
0000
0000
0000
0000
1000
0000
0000
0000
0000
0000
0000
0000
0000
0000
0000
1000
0000
0000
0000
0000
0000
0000
0000
0000
0000
0000
1000
0000
0000
0000
0000
0000
0000
0000
0000
0000
0000
1000
0000
0000
0000
0000
0000
0000
0000
0000
0000
0000
0000
1000
0000
0000
0000
0000
0000
0000
0000
0000
0000
0000
0000
0000
,
0000
0000
0000
0000
0000
0000
0000
0000
0000
0000
0000
0000
0000
0000
0000
0000
0000
0000
0000
0000
0000
0000
0000
0000
0000
0000
0000
0000
0000
0000
0000
0000
0000
0000
0000
0000
0000
0000
0000
0000
0000
0000
0000
0000
0000
0000
0000
0000
0000
0000
0000
0000
0000
0000
0000
0000
0010
0000
0000
0000
0000
0000
0000
0000
0000
0000
0000
0000
0000
0000
0000
0000
0000
0000
0000
0010
0000
0000
0000
0000
0000
0000
0000
0000
0000
0000
0000
0000
0000
0000
0000
0000
0000
0010
0000
0000
0000
0000
0000
0000
0000
0000
0000
0000
0000
0000
0000
0000
0000
0000
0000
0000
0010
0000
0000
0000
0000
0000
0000
0000
0000
0000
0000
0000
0000
0000
0000
0000
0000
0000
0000
0000
0000
0000
0000
0000
0000
0000
0000
0000
0000
0000
0000
0000
0000
0000
0000
0000
0000
0000
0000
0000
0000
0000
0000
0000
0000
0000
0000
0000
0000
0000
0000
0000
0000
0000
0000
0000
0000
0000
0000
0000
0000
0000
0000
0000
0000
0000
0000
0000
0000
0000
0000
0000
0000
0000
0000
0000
0000
0000
0000
0000
,
0000
0000
0000
0000
0000
0000
0000
0000
0000
0000
0000
0000
0000
0000
0000
0000
0000
0000
0000
0000
0000
0000
0000
0000
0000
0000
0000
0000
0000
0000
0100
0000
0000
0000
0000
0000
0000
0010
0000
0000
0000
0000
0000
0000
0000
0100
0000
0000
0000
0000
0000
0000
0010
0000
0000
0000
0000
0000
0000
0100
0000
0000
0000
0000
0000
0000
0010
0000
0000
0000
0000
0000
0000
0100
0000
0000
0000
0000
0000
0000
0010
0000
0000
0000
0000
0000
0000
0000
0000
0000
0000
0000
0000
0000
0000
0000
,
0000
0000
0000
0000
0011
0000
0000
0100
0000
1000
0000
0000
0000
0000
0000
0000
0000
0000
0000
0100
0000
0000
0010
0000
0000
0000
0000
0000
0000
0000
0000
0000
,
0002
0003
0020
0030
,
0200
0000
0000
0000
0300
0010
0000
0010
0000
0000
0000
0000
0000
0000
0000
0000
,
0000
0000
0000
0000
;
