#TITLE:Scorpion Fire;
#SUBTITLE:;
#ARTIST:Virkato;
#TITLETRANSLIT:;
#SUBTITLETRANSLIT:;
#ARTISTTRANSLIT:;
#CREDIT:DukAmok;
#BANNER:scorpionfireBN.jpg;
#BACKGROUND:scorpionfire.jpg;
#LYRICSPATH:;
#CDTITLE:!duktitle.png;
#MUSIC:Scorpion_Fire.mp3;
#OFFSET:-0.080;
#SAMPLESTART:37.480;
#SAMPLELENGTH:9.980;
#SELECTABLE:YES;
#BPMS:0.000=185.000,200.000=115.000,204.000=185.000,236.000=160.000,240.000=176.000,252.000=185.000,296.000=180.000,320.000=185.000,328.000=190.000,344.000=185.000,345.000=139.000,355.000=122.900;
#STOPS:;
#BGCHANGES:;
// cache tags:
#FIRSTBEAT:2.000;
#LASTBEAT:371.000;
#SONGFILENAME:Songs/Community Keyboard Megapack - Volume 1/(DukAmok) Scorpion Fire/Scorpion_Fire.sm;
#HASMUSIC:1;
#HASBANNER:1;
#MUSICLENGTH:127.536;
// end cache tags

//---------------dance-single - Heavy----------------
#NOTES:
     dance-single:
     Heavy:
     Hard:
     12:
     1.000,1.000,1.000,0.110,1.000,767.000,167.000,14.000,0.000,0.000:
0000
0000
2002
0000
,
0000
0000
3003
0000
,
0000
0000
0000
0000
,
0000
0000
0000
0000
,
0011
0000
0000
0000
,
1100
0000
0000
0110
,
0101
0000
0000
0000
,
0000
0000
0000
1100
,
0000
0000
0000
0000
0000
0010
0001
0100
0010
0000
0000
0000
,
0000
0000
0000
0000
0000
0000
0000
0000
0000
0000
0000
0000
0000
0000
0000
1000
0000
0000
0000
0000
0100
0000
0000
0000
0010
0000
0000
0000
0001
0000
0000
0000
0100
0000
0000
0000
0010
0000
0000
0000
1000
0000
0000
0000
0001
0000
0000
0000
,
0000
0000
0010
0000
0000
0000
0000
0000
0000
0000
0000
0000
0000
0000
0000
0000
0000
0000
0000
0001
1000
0000
0000
0000
0000
0000
0000
0000
0000
0000
0000
0000
,
0000
0101
0000
0000
,
0000
0000
1010
0000
,
0101
0000
0110
1000
0100
0010
0100
1000
,
0001
0010
0100
1000
0010
0100
0001
0010
0100
1000
0010
0000
0101
0000
0011
0000
,
1100
0010
0001
0100
0010
0100
0001
0010
0100
1000
0010
0100
0001
0100
0010
1000
,
0100
0010
0001
0010
0001
0100
0010
1000
0100
0010
0101
0000
0011
0000
0110
0000
,
1001
0010
1000
0100
0010
0001
0100
1010
,
1100
0010
0001
0100
0010
0101
0011
0110
,
1100
0000
0000
0010
0101
0000
0110
0000
1000
0100
0010
0001
0010
0100
1000
0010
,
0101
0000
0000
0000
0000
0000
0110
0000
0000
0000
0000
0000
1010
0000
0000
0000
0000
0000
1100
0000
0000
0000
0000
0000
0010
0000
0000
0100
0000
0000
1000
0000
0000
0100
0000
0000
0010
0000
0000
0000
0001
0000
0000
0000
1000
0000
0000
0000
,
0010
0000
0000
0100
0001
0000
0000
0000
0000
0000
0000
0000
2002
0000
0000
0000
0000
0000
0000
0000
0000
0000
0000
0000
0000
0000
0000
0000
0000
0000
0000
0000
,
0000
0000
0000
3003
0000
0000
0000
0000
,
0000
0000
0000
0000
0000
0000
0001
0100
,
0010
1100
0001
0110
,
1000
0011
0100
1001
,
0010
1100
0011
0101
,
0110
1010
0100
0011
,
1001
0100
1010
0000
1100
0001
0110
0100
,
1001
0100
0011
0000
0101
0010
1100
0000
,
1010
0000
0000
0100
0000
0000
1001
0000
0010
0000
1000
0000
0101
0000
0000
1000
0000
0000
0110
0000
0000
0001
0000
0000
,
1100
0001
1010
0100
0011
1000
0101
0010
,
2002
0000
0000
0000
0003
0001
3020
0030
,
0200
0000
0000
0000
0300
0010
1000
0100
,
0022
0000
0033
1000
0010
0100
0010
1000
,
0100
0010
0001
1100
0110
0000
0011
0000
,
1001
0000
0100
0011
0000
0100
1000
0010
,
0101
1000
0011
0000
0110
0001
1100
0010
,
0101
0000
0000
0110
0001
1000
0101
0010
,
1001
0100
0001
0100
0010
1000
0100
0010
0100
0010
0001
1000
,
0101
0001
0001
0000
1000
1000
0000
0100
0100
0000
0010
0010
,
0101
0100
0100
0000
0010
0010
0000
1000
1000
0000
0100
0100
,
0110
0001
0100
0000
0010
1000
0000
0010
0100
0000
0001
1000
,
0100
0010
0001
0100
0010
0100
0001
0010
0100
1000
0100
1000
,
0010
0100
0100
0001
0010
0010
0100
0010
0001
1000
0010
0100
,
0001
0000
1000
0000
1000
0000
0100
0000
1000
0000
1000
0000
0001
0000
0100
0001
0010
0000
0100
0000
1000
0100
0010
0000
,
0100
0010
0001
0100
0010
1000
0100
0010
0001
0010
0100
1000
,
1010
0010
0010
0110
0100
0100
0101
0001
0001
0011
0010
0010
,
0220
0000
0000
0000
0000
0000
0000
0000
0000
0330
0000
0000
0011
0000
0000
0000
0000
0000
1100
0000
0001
0000
0100
0000
,
1001
0000
0000
0101
0000
0000
1000
1000
1000
0100
0100
0100
,
0011
0000
0000
0000
0000
0000
0000
0000
0000
0000
0000
0000
0000
0000
0000
1000
0000
0000
0100
0000
0000
0010
0000
0000
0001
0000
0010
0000
0100
0000
1000
0000
0010
0000
0100
0000
0001
0000
0000
0000
1000
0000
0000
0000
0100
0000
0000
0000
,
0011
0000
0000
0000
0001
1000
0010
0100
0001
0100
0010
0100
0001
0010
0100
1000
,
0110
0000
0101
0000
1010
0100
0001
0010
0100
0010
0001
1000
0010
0100
0001
0010
,
1001
0000
0101
0000
0011
0100
1000
0010
0100
0010
1000
0100
0010
0001
0100
0010
,
1100
0000
0000
0000
0010
0100
0001
0010
0100
1000
0001
1000
0100
0010
0001
0100
,
1010
0000
0000
0000
0001
0100
0010
0000
1010
0100
0001
0000
0110
0001
1000
0010
,
0101
0000
0000
0000
1000
0100
0010
0001
0010
0001
1000
0010
0100
0001
0010
0100
,
1000
0010
0100
0001
0010
0100
1000
0100
0010
0100
1000
0010
0100
0001
0100
0001
,
0010
0100
1000
0100
0010
0100
0010
0001
0010
0001
0100
0001
0100
0010
1000
0100
,
0010
0001
1000
0010
0100
0001
0010
0100
1000
0010
0101
0000
0110
0000
1100
0000
,
0101
0010
1000
0100
0010
0001
0010
0100
0010
0001
1000
0010
0100
0001
1000
0100
,
0011
0000
0110
0000
1010
0001
0100
0010
1000
0010
0100
0001
0100
0001
0010
0100
,
1001
0000
0101
0000
1010
0100
0001
0010
0100
1000
0010
0100
0010
1000
0100
0010
,
0101
0000
0000
0000
0000
1000
0100
0010
0101
0010
0100
1000
0010
0100
0001
0010
,
1100
0000
0000
0000
0000
0010
0100
0001
1000
0010
0100
0001
0010
0100
0010
0001
,
1010
0000
0000
0000
0010
0001
0010
0100
1000
0010
0100
0010
1000
0100
0010
0001
,
0110
1000
1000
0001
0001
0100
0010
1000
0101
0010
1000
0100
0011
1000
0010
1000
,
0011
0101
0000
0110
0000
1010
0000
1001
0000
0100
0010
1000
0100
0010
0100
1000
,
0110
0000
0100
0001
0010
0100
1000
0010
1100
0000
1000
0001
0010
0100
0010
0001
,
0110
0000
0001
0100
0010
1000
0100
0010
1100
0001
1000
0010
0100
0001
0010
0100
,
1001
0000
0010
0001
1000
0010
0100
0001
1010
0000
0001
0010
0100
0010
0001
1000
,
0101
0000
0000
0010
0000
0000
1000
0000
0000
0100
0000
0000
1010
0000
0000
0100
0000
0000
0001
0000
0000
0010
0000
0000
1100
0000
0000
0001
0000
0000
0100
0000
0000
0010
0000
0000
1001
0000
0000
0010
0000
0000
1000
0000
0010
0000
0100
0000
,
0011
0000
0000
0000
0000
0000
0101
0000
0000
0000
0000
0000
0010
0000
0000
1000
0000
0000
0010
0000
1000
0000
0010
0000
0101
0000
0000
0000
0000
0000
0011
0000
0000
0000
0000
0000
0100
0000
0000
1000
0000
0000
0010
0000
0100
0000
0001
0000
,
1010
0000
0000
0000
0000
0000
0101
0000
0000
0000
0000
0000
0010
0000
0000
1000
0000
0000
0100
0000
0010
0000
0001
0000
1100
0000
0000
0000
0000
0000
0001
0000
0000
1000
0000
0000
0010
0000
0000
0100
0000
0000
0001
0000
0000
0010
0000
0000
,
0101
0000
0011
0000
1100
0001
0101
0000
,
1001
0010
1100
0000
0101
0010
1000
0100
,
0011
0000
1100
0000
0011
1000
0101
0010
,
1001
0100
0001
0010
0100
1000
0010
0100
,
0012
0000
0000
1003
,
0020
0000
0000
0000
0000
0000
0000
0000
0000
0000
0000
0000
0000
0000
0000
0000
0000
0000
1030
0000
0000
0001
0010
0100
,
1000
0000
0000
0000
0001
0100
0010
1000
0010
0000
0000
0000
1000
0100
0010
0001
,
0100
0000
0000
0000
0001
1000
0010
0100
0001
0000
0000
0000
1000
0010
1000
0100
,
0010
0000
0000
0000
0000
0000
0001
0010
0100
1000
0010
0100
0001
0000
0000
0000
0000
0000
1000
0100
0010
0001
0010
0100
,
1000
0000
0000
0000
0000
0000
0010
1000
0010
0100
0001
0100
0010
0000
0100
0000
0100
0000
0001
0000
0010
0000
0010
0000
,
0100
1000
1000
0010
0100
0100
0001
0010
0010
0100
1000
1000
,
1010
0010
0010
0110
0110
0110
0101
0101
0101
0011
0110
1100
,
1010
0100
0000
0101
0000
0000
0000
0000
0000
0000
0000
0000
,
0000
0000
0000
0000
,
1001
0000
0000
0101
,
0000
0000
0000
0000
0000
0000
0000
0000
0000
0000
0000
0010
0000
0000
0000
0000
1100
0000
0000
0000
0000
0000
0000
0000
0000
0000
0000
0000
0000
0000
0000
0000
,
0000
0000
0000
0000
,
0011
0000
0000
0000
0000
0100
0000
0010
0000
0000
0001
0000
1000
0000
0000
0000
,
0000
0101
0110
1010
;
