#TITLE:Unwritten;
#SUBTITLE:(Johnny Vicious Mix);
#ARTIST:Natasha Bedingfield;
#TITLETRANSLIT:;
#SUBTITLETRANSLIT:;
#ARTISTTRANSLIT:;
#CREDIT:;
#BANNER:unrwittenremix.png;
#BACKGROUND:unwrittenremixbg.PNG;
#LYRICSPATH:;
#CDTITLE:omega8bit.png;
#MUSIC:unwrittenremix.mp3;
#OFFSET:0.260;
#SAMPLESTART:41.000;
#SAMPLELENGTH:20.000;
#SELECTABLE:YES;
#BPMS:0.000=130.000;
#STOPS:;
#BGCHANGES:;
// cache tags:
#FIRSTBEAT:24.000;
#LASTBEAT:255.000;
#SONGFILENAME:Songs/new cedric/Unwritten (Johnny Vicious Mix)/unwrittenremix.sm;
#HASMUSIC:1;
#HASBANNER:1;
#MUSICLENGTH:118.073;
// end cache tags

//---------------dance-single - ----------------
#NOTES:
     dance-single:
     :
     Hard:
     8:
     0.506,0.672,0.085,0.423,0.237,358.000,10.000,50.000,0.000,1.000:
0000
0000
0000
0000
,
0000
0000
0000
0000
,
0000
0000
0000
0000
,
0000
0000
0000
0000
,
0000
0000
0000
0000
,
0000
0000
0000
0000
,
2002
0000
0000
0000
,
0000
0000
0000
0000
,
3003
0000
1000
0100
0000
1000
0000
0010
,
0000
0100
0000
0000
1000
0010
0100
0002
,
0000
0000
0000
0000
0103
0010
0100
1000
,
0000
0200
0000
1000
0000
1000
0000
1300
,
0000
0000
0100
1000
0000
0010
0000
0100
,
0000
0000
0001
0000
0000
0000
0000
0001
0100
0000
1000
0000
0010
0000
0002
0000
,
0000
0000
0000
0003
0100
1000
0010
0000
,
0200
0000
0000
0000
,
0310
0000
1000
0000
0010
0000
0100
0000
1000
0000
0000
0100
0000
0000
0001
0000
,
0010
0000
0000
0002
0000
0000
0103
0000
1000
0000
0000
0010
0000
0000
0100
0000
,
1000
0000
0000
0020
0000
0000
0130
0000
0001
0000
0000
0010
0000
0000
0001
0000
,
0100
0000
0000
1000
0000
0000
0010
0000
0100
0000
0000
1000
0000
0100
0000
0000
,
0010
0000
0000
0001
0000
0000
0100
0000
1000
0000
0000
0010
0000
0000
0100
0000
,
1000
0000
0000
0002
0000
0000
1000
0003
0100
0000
0000
1000
0000
0000
0100
0000
,
0100
0000
0000
0002
0000
0000
0100
0000
0003
0000
0100
0000
0010
0000
0001
0100
,
0000
0010
0000
0000
0010
0000
0001
0000
0100
0000
1000
0000
0010
0000
0000
0000
,
2002
0000
3003
0000
0000
1000
0000
0010
,
2002
3003
0000
0010
0000
0100
0000
1000
,
2002
0000
3003
0100
0000
1000
0000
0010
,
0200
0000
0000
1301
0000
0010
0000
0001
,
0200
0000
0300
0100
0000
1000
0000
0010
,
2200
3300
0000
0100
0000
1000
0000
0001
,
0220
0330
0000
1000
0000
0100
0000
0010
,
2002
3003
0100
1000
0010
0100
1000
0000
,
0002
0010
1003
0100
0100
1000
0010
0100
,
0001
0100
1000
0010
0100
1000
0100
0010
,
0001
0010
0100
0001
1000
0001
0010
1000
0100
0010
1000
0001
0010
1000
0100
0010
,
0001
0000
0200
0000
0000
0000
0300
0000
2002
0000
0000
0000
0000
3003
0000
0000
,
0100
0000
0001
0000
1000
0100
0000
0100
0010
0000
0100
0000
0010
1000
0000
0010
,
0100
0000
0010
0000
0001
1000
0000
0010
0100
0000
0100
0000
1000
0100
0000
0010
,
0001
0000
1000
0000
0001
0100
0000
0010
0100
0000
0001
0000
0001
0010
0000
0100
,
0001
1000
0100
1000
1000
0010
2000
3200
,
0300
0000
0100
0000
0010
0100
0000
0010
0001
0000
1000
0000
0100
0001
0000
1000
,
0010
0000
1000
0000
0100
0010
0000
0100
1000
0000
0010
0000
0010
0001
0000
0010
,
0001
0000
1000
0000
1000
0100
0000
1000
0001
0000
0001
0000
1000
0010
0000
0001
,
0100
0010
0100
1000
0100
0001
2000
0000
,
3001
0000
0010
0001
0100
1000
1000
0001
,
0100
0010
0010
0100
0001
1000
1000
0010
,
0010
1000
1000
0001
0100
1000
0001
0010
,
0100
0001
0100
0010
0100
0010
0200
0000
,
0301
0001
0010
1000
0100
0010
0001
0010
,
1000
0001
0001
0010
0100
0010
1000
0001
,
1000
1000
1000
0100
0010
1000
0100
0100
,
1000
0001
0001
0001
1000
0010
2000
0000
,
3001
1000
0001
0001
0001
0010
1000
1000
,
0010
0001
0100
0001
0001
0001
0001
0100
,
1000
0001
0001
1000
0100
0001
1000
0001
,
0001
0100
0001
1000
0001
0010
0100
0001
1000
0100
1000
0100
0010
1000
0100
0001
,
0200
0302
2003
3200
,
2300
3020
0032
2003
,
3100
1000
0010
0000
0010
0000
0001
0000
,
0001
0100
1000
0000
1000
0000
0100
0000
,
2001
3020
0230
2300
,
3200
0302
0023
0230
,
1300
0100
0001
0000
0001
0000
1000
0001
,
2000
0000
3000
0000
;

//---------------dance-single - ----------------
#NOTES:
     dance-single:
     :
     Medium:
     6:
     0.352,0.405,0.152,0.068,0.000,265.000,18.000,8.000,0.000,0.000:
0000
0000
0000
0000
,
0000
0000
0000
0000
,
0000
0000
0000
0000
,
0000
0000
0000
0000
,
0000
0000
0000
0000
,
0000
0000
0000
0000
,
2002
0000
0000
0000
,
0000
0000
0000
0000
,
3003
0000
0100
1000
0010
0000
0100
0001
,
0010
0000
0100
1000
0010
0000
0100
1000
,
0010
0000
0010
0100
0001
0000
0010
0100
,
1000
0010
0100
1000
,
0010
0000
0100
1000
,
0010
0000
0000
0000
0100
1000
0010
0000
,
0100
0000
0000
0000
0100
0001
0010
0000
,
1001
0000
0010
0000
,
0100
1000
0010
0100
,
0001
0000
0010
0100
,
1000
0000
0000
0000
0010
0100
1000
0000
,
0010
0000
0100
0000
,
1001
0000
0000
0010
0100
0000
0000
0000
,
1001
0000
0000
0010
0100
0010
0100
0000
,
1001
0000
0000
0100
1000
0000
0000
0000
,
1010
0000
0100
1000
0010
0100
0001
0000
,
1001
0000
0010
0100
,
0110
0000
1000
0100
,
1100
0000
0010
0001
,
0011
0000
0100
1000
0010
0100
0001
0000
,
1001
0000
0010
0100
,
0110
0000
1000
0100
,
1100
0000
0010
0001
,
0100
0000
0100
0010
1000
0100
0001
0000
,
1001
0100
0010
0100
,
1000
0001
0100
0010
,
0010
1000
0100
0001
0010
0100
1000
0010
,
0100
2000
0000
0000
0002
0000
0000
3003
,
0100
1000
0010
0000
0100
0100
0010
0001
,
0100
0000
0100
1000
0010
0000
0100
1000
,
0010
0100
0100
0001
0000
0010
0000
0100
,
1000
0000
0010
0100
1000
0100
0100
0001
,
0010
0000
0000
0100
0000
1000
0000
0010
,
0100
0000
0100
1000
0010
0100
0001
0100
,
1000
0000
0000
0010
0000
0100
0000
1000
,
0100
0000
0100
0100
0001
0010
0001
0000
,
0100
0000
0000
1000
0000
0100
0000
0010
,
0001
0000
0000
0100
0000
1000
0000
0010
,
0100
0000
0000
0010
0000
0001
0000
0100
,
1000
0000
0010
0100
1000
0010
0100
0000
,
0001
0000
0000
0100
0000
1000
0000
0010
,
0100
0000
0000
0001
0000
0100
0000
1000
,
0010
0000
0000
0100
0000
0001
0000
0100
,
1000
0010
0100
1000
0001
0100
1000
0000
,
0010
0100
1000
0100
0010
0000
0001
0000
,
0100
1000
0010
0100
0001
0010
0001
0000
,
0100
1000
0010
0100
0001
0010
0001
0000
,
0100
1000
0010
0100
0001
0010
0100
0000
,
0100
1100
0100
0101
,
0010
0011
0100
1100
,
0010
0100
0100
0000
1000
0100
0100
0000
,
0001
0100
0100
0000
0010
0100
0100
0000
,
1000
0010
0100
0000
0001
0010
0001
0000
,
0100
1000
0010
0000
0010
0100
1000
0000
,
2000
3100
0002
0103
,
2000
3100
0020
1030
;

//---------------dance-single - ----------------
#NOTES:
     dance-single:
     :
     Easy:
     3:
     0.288,0.350,0.229,0.364,0.000,168.000,27.000,43.000,0.000,1.000:
0000
0000
0000
0000
,
0000
0000
0000
0000
,
0000
0000
0000
0000
,
0000
0000
0000
0000
,
0000
0000
0000
0000
,
0000
0000
0000
0000
,
2002
0000
0000
0000
,
0000
0000
0000
0000
,
3003
0100
1000
0010
,
0010
0100
1001
1001
,
1001
0000
0110
0110
,
0110
0000
0200
0300
,
0020
0030
2000
3001
,
1001
0000
0010
0100
,
0110
0000
2000
3000
,
0020
0030
0002
0003
,
1001
0000
0200
0300
,
0020
0030
2000
3000
,
1001
0000
0020
0030
,
0200
0300
0002
0003
,
1001
0000
0200
0300
,
0020
0030
2000
3000
,
0002
0003
1100
0000
,
0010
0100
0100
1000
,
1001
0000
0200
2300
,
3020
0030
0200
0302
,
0023
0030
0100
1000
,
0010
0200
0302
0023
,
2032
3003
0100
1000
,
0010
0000
0010
0100
,
1000
0000
0002
0203
,
0320
0030
0001
0100
,
1001
0000
0200
0300
,
0020
0030
0200
0300
,
1000
0010
0100
0001
,
0010
0000
2002
3003
,
0100
1000
0100
0001
,
0100
1000
0100
0001
,
0010
1000
0010
0001
,
0010
1000
0100
0001
,
1001
0000
0010
0100
,
1000
0000
0010
0100
,
0001
0000
0001
0100
,
1000
1000
0010
0001
,
0100
1000
0010
0000
,
0100
1000
0010
0000
,
0001
0010
0200
0300
,
1000
0001
0010
0100
,
1100
0000
0001
0100
,
0010
0000
1000
0100
,
0001
0000
0100
1000
,
0010
0100
1000
0100
,
0001
0000
0100
1000
,
0010
0000
0100
0100
,
0100
0000
0010
0001
,
1000
0100
0001
0010
,
0200
0300
2000
3000
,
0020
0030
0002
0003
,
1001
1001
1001
0000
,
0110
0110
0110
0000
,
1000
0100
1000
1001
,
0010
0100
1000
1001
,
0001
0100
1000
0010
,
0100
2000
3000
0000
;

//---------------dance-single - ----------------
#NOTES:
     dance-single:
     :
     Beginner:
     2:
     0.175,0.214,0.102,0.000,0.000,133.000,12.000,0.000,0.000,0.000:
0000
0000
0000
0000
,
0000
0000
0000
0000
,
0000
0000
0000
0000
,
0000
0000
0000
0000
,
0000
0000
0000
0000
,
0000
0000
0000
0000
,
1001
0000
0000
0000
,
0000
0000
0000
0000
,
0000
0100
0100
0100
,
0100
0000
0010
0010
,
0010
0000
1000
1000
,
1000
0000
0000
0000
,
0000
0000
0001
0000
,
0100
0000
0010
0010
,
0010
0000
1000
1000
,
1000
0000
0000
0000
,
0100
0000
0010
0000
,
1001
0000
0100
0000
,
0001
0000
1000
0000
,
0010
0000
1001
0000
,
0100
0000
1000
0000
,
0010
0000
1001
0000
,
0100
0000
0010
0000
,
0100
0000
1000
1000
,
1000
0000
0100
0000
,
0010
0000
1000
0000
,
1001
0000
0010
0000
,
0100
0000
0001
0001
,
0001
0000
0010
0000
,
0110
0000
1000
0000
,
1001
0000
0100
0000
,
1001
0000
0010
0010
,
0010
0000
0100
0000
,
1001
0000
0010
0000
,
1000
1000
1000
1000
,
1000
0000
0100
0000
,
0010
0010
0010
0000
,
1000
1000
1000
0000
,
0100
0100
0100
0000
,
0001
0001
0001
0001
,
0001
0000
0100
0000
,
0010
0000
1000
0000
,
0100
0000
0010
0000
,
1000
0000
0100
0100
,
0100
0000
0001
0000
,
1000
0000
0100
0000
,
0010
0000
1000
0000
,
0001
0000
0100
0100
,
0100
0000
1000
0000
,
0010
0000
1001
0000
,
0100
0000
1000
0000
,
0010
0000
0001
0000
,
1001
0000
0100
0000
,
1000
0000
0010
0000
,
0100
0000
1000
0000
,
0001
0000
1001
0000
,
0010
0000
0001
0000
,
0100
0000
1000
0000
,
0010
0010
0010
0010
,
0010
0010
0010
0010
,
0000
0100
0000
1000
,
0000
0001
0000
0100
,
0100
0100
0100
0100
,
0100
0100
0000
0000
;

//---------------dance-single - ----------------
#NOTES:
     dance-single:
     :
     Challenge:
     9:
     0.558,0.674,0.119,0.042,0.402,442.000,14.000,5.000,0.000,0.000:
0000
0000
0000
0000
,
0000
0000
0000
0000
,
0000
0000
0000
0000
,
0000
0000
0000
0000
,
0000
0000
0000
0000
,
0000
0000
0000
0000
,
2002
0000
0000
0000
,
0000
0000
0000
0000
,
3003
0000
0100
1000
0000
0010
0100
1000
,
0000
0010
0100
0001
0000
0010
0100
1000
,
0000
0010
0100
0010
0000
0100
1000
0010
,
0000
0100
0000
1000
0000
0100
0000
0010
,
0001
0100
1000
0010
0000
0100
1000
0010
,
0000
0010
0001
0100
0000
0100
1000
0010
,
0000
0010
0100
0001
0000
0010
0001
0100
,
1000
0010
0100
0000
0100
1000
0010
0100
,
1000
0000
0001
0000
1000
0000
0100
0000
1000
0000
0000
0010
0000
0001
1000
0000
,
0010
0000
0000
0001
0000
0000
0001
0000
0001
0000
0010
0100
0000
1000
0000
0000
,
0010
0000
0000
0001
0000
0000
1000
0000
1000
0000
0100
1000
0000
1000
0001
0000
,
1000
0000
0010
1000
0000
0001
0010
0000
0100
0000
0001
0100
0000
0010
0001
0000
,
1000
0000
0000
1000
0000
0000
0010
0000
0010
0000
0010
1000
0000
0001
0000
0000
,
0101
0000
0000
0001
0000
0000
1000
0000
0100
0000
1000
0001
0010
0000
0001
0000
,
0010
0000
0100
0010
0000
0000
0010
0000
0001
0000
0100
0000
0010
0000
0100
0010
,
0000
1000
0000
0000
0001
0000
0100
0000
0100
0000
0010
0000
0010
0000
0000
0000
,
1100
0000
0000
0000
0010
0000
0011
0000
0000
0000
1100
0000
0010
0000
0100
1000
,
0001
0000
0000
0000
0101
0000
0001
0000
0000
0000
0010
0000
0010
0000
1000
0010
,
1000
0000
0000
0000
0110
0000
1000
0000
0000
0000
0010
0000
0001
0000
0100
0010
,
0001
0000
0000
0000
0100
0000
0010
0000
1000
0000
0010
0000
0010
0000
0100
0010
,
1000
0000
0000
0000
1100
0000
0001
0000
0000
0000
1001
0000
0010
0000
0001
1000
,
0001
0000
0000
0000
1100
0000
0010
0000
0000
0000
0100
0000
0011
0000
0001
1000
,
0100
0000
1010
0100
0000
1000
0101
1000
,
0001
0000
0100
0010
1000
0000
0010
0000
0001
0000
1000
0000
1000
0000
0000
0000
,
0001
0001
0001
1000
1000
0100
0001
1000
,
0010
0001
0001
0100
1000
0100
0100
0100
,
0010
0001
1000
0100
0010
0001
1000
0010
0001
0100
1000
0010
1000
0001
0100
0010
,
0200
0000
0000
0000
2000
0000
0300
3000
,
0100
0000
1010
0000
1000
0100
0000
0100
0001
0000
0001
0000
0010
0100
0000
0010
,
1000
0000
0100
0000
0010
0001
0000
0001
0100
0000
0010
0000
0100
0010
0000
0100
,
0010
0000
0100
0000
0001
0010
0000
1000
0010
0000
1000
0000
0001
0010
0000
1000
,
0001
0010
0100
1000
0001
0001
1000
0000
,
1000
0000
0001
0000
0001
0010
0000
1000
0001
0000
1000
0000
1000
0100
0000
0100
,
0001
0000
0100
0000
0001
1000
0000
0100
0010
0000
1000
0000
1000
0100
0000
0100
,
0010
0000
0010
0000
0010
0001
0000
0010
0100
0000
1000
0000
0100
0001
0000
1000
,
0001
0010
1000
0100
1000
0010
0001
0000
,
0100
0000
1000
0000
0010
0001
0000
1000
0001
0000
1000
0000
0010
0000
0010
0100
,
0000
0000
0010
0000
0100
0000
0100
1000
0000
0000
1000
0000
1000
0000
0100
1000
,
0000
0000
0100
0000
0100
0000
0001
0010
0000
0000
0001
0000
0010
0000
0100
0000
,
0001
0000
0010
0000
0010
0000
1000
0100
0000
0000
0010
0000
0010
0000
0010
0000
,
0001
0000
0100
0000
0100
0000
0001
0100
0000
0000
0100
0000
0001
0000
1000
0000
,
0001
0000
0010
0000
1000
0000
1000
0010
0000
0000
1000
0000
0100
0000
0100
0000
,
0010
0000
0010
0000
0100
0000
0010
1000
0000
0000
0000
0000
0100
0000
0000
0000
,
0100
0000
0010
0001
0001
0010
0001
0000
,
1000
0000
0010
0000
0010
0000
0010
0001
0000
0000
0010
0000
1000
0000
0010
0000
,
0001
0000
1000
0000
0100
0000
1000
0100
0000
0000
1000
0000
0100
0000
0001
0000
,
0010
0000
0010
0000
0001
0000
1000
0001
0000
0000
0100
0000
0100
0000
0001
0000
,
0010
0001
0100
1000
0100
1000
0010
0001
0010
0100
0010
1000
0100
0010
0100
1000
,
0100
0000
0010
0000
0001
0100
0000
0010
1000
0000
0001
0000
0100
1000
0000
0010
,
0100
0000
0001
0000
0100
0001
0000
0010
0001
0000
1000
0000
1000
0100
0000
0000
,
0001
1000
0001
0100
1000
1000
1000
0001
,
1000
0001
0001
0100
1000
0010
0010
0000
,
0100
0000
0001
0000
0001
0010
0000
0001
0100
0000
0010
0000
0010
1000
0000
0100
,
1000
0000
0001
0000
0010
1000
0000
1000
0010
0000
0100
0000
0010
0100
0000
0010
,
1000
0010
0001
1000
0001
0100
0001
1000
,
1000
0000
0010
0000
2000
0000
0000
0000
0000
0000
0000
3000
0000
0000
0000
0000
;
