#TITLE:[3-3] Iro wa jyou he to sasou;
#SUBTITLE:;
#ARTIST:Sanzensekai;
#TITLETRANSLIT:;
#SUBTITLETRANSLIT:;
#ARTISTTRANSLIT:;
#CREDIT:;
#BANNER:../Beast 4 - bn.png;
#BACKGROUND:../Beast 4 - bg.png;
#LYRICSPATH:;
#CDTITLE:;
#MUSIC:iro wa jyou he to sasou.ogg;
#OFFSET:0.010;
#SAMPLESTART:38.417;
#SAMPLELENGTH:20.400;
#SELECTABLE:YES;
#BPMS:0.000=200.000;
#STOPS:;
#BGCHANGES:;
// cache tags:
#FIRSTBEAT:32.000;
#LASTBEAT:780.000;
#SONGFILENAME:Songs/Beast Aoreo BEAST! 4/iro wa jyou he to sasou - [Aoreo]/iro wa jyou he to sasou.sm;
#HASMUSIC:1;
#HASBANNER:1;
#MUSICLENGTH:235.800;
// end cache tags

//---------------dance-single - J. Nero----------------
#NOTES:
     dance-single:
     J. Nero:
     Challenge:
     16:
     1.000,1.000,0.110,1.000,1.000,2135.000,26.000,241.000,0.000,9.000:
0000
0000
0000
0000
,
0000
0000
0000
0000
,
0000
0000
0000
0000
,
0000
0000
0000
0000
,
0000
0000
0000
0000
,
0000
0000
0000
0000
,
0000
0000
0000
0000
,
0000
0000
0000
0000
,
1000
0100
0100
0001
1000
0010
0200
0300
,
0001
0000
0000
0010
0000
0000
0100
0000
1000
0000
0000
0010
0000
0000
1000
0000
,
0001
0100
0100
1000
0001
0100
0020
0030
,
1000
0000
0000
0100
0000
0000
0010
0000
0002
0000
0000
0000
0003
0000
0000
0000
,
1000
0100
0100
0001
0100
0010
2000
3000
,
0001
0000
0000
0010
0000
0000
0100
0000
1000
0000
0000
0010
0000
0000
1000
0000
,
0001
0100
0100
1000
0001
0100
0010
0000
,
1000
0000
0000
0100
0000
0000
0010
0000
0002
0000
0000
0000
0000
0003
0000
0000
,
1001
1000
0100
1000
1010
0010
0100
0001
,
0001
0000
0010
0100
1000
0000
0001
0000
0101
0000
0100
0001
1000
0000
0100
0000
,
1100
1000
0001
0100
0110
0010
1000
0100
,
0100
0000
1000
0001
0100
0000
0001
0000
0011
0000
0010
0000
0100
0000
1000
0000
,
1001
0001
0100
0010
1010
1000
0100
0010
,
0010
0000
0001
0000
1000
0000
0001
0000
0101
0000
0100
0001
1000
0000
0100
0000
,
2000
3000
0002
0003
0020
0030
0200
0300
2000
3000
0020
0030
2000
0000
0000
3000
,
0001
1000
0001
1000
0001
1000
0001
1000
0001
1000
0001
1000
0001
1000
0001
1000
,
0010
0100
0001
1000
0001
0100
0001
1000
0100
0010
0001
1000
0001
1000
0100
1000
,
0001
0100
0010
0100
0001
1000
0001
0010
0100
1000
0001
0100
0001
0100
0010
1000
,
0001
1000
0100
0010
0001
1000
0100
1000
0001
0100
0001
0100
0010
1000
0001
0100
,
0001
1000
0001
0010
0100
1000
0001
1000
0100
0010
0001
1000
0100
1000
0001
0100
,
0001
0100
0010
1000
0001
0100
0001
0100
0010
1000
0001
1000
0100
0010
0001
1000
,
0100
1000
0001
0100
0001
1000
0001
0100
0010
0100
0001
1000
0001
0010
0100
1000
,
0001
0100
0010
0100
0001
1000
0100
0010
0001
1000
0100
1000
0001
1000
0010
0100
,
0010
1000
0001
0100
0001
1000
0001
0010
0100
1000
0001
0100
0010
1000
0010
1000
,
0100
1000
0001
0010
0001
1000
0100
0010
0001
0100
0010
1000
0001
1000
0010
1000
,
0100
0010
0001
0100
0010
1000
0001
0010
0100
1000
0001
0010
0001
0100
0010
1000
,
0001
0010
0001
0100
0010
1000
0001
0100
0001
0010
0100
1000
0001
1000
0010
1000
,
0001
0100
0001
1000
0100
0010
0001
0010
0100
1000
0010
0100
0001
1000
0001
1000
,
0001
0010
0001
1000
0010
1000
0001
0100
0001
1000
0010
0100
0010
1000
0001
0010
,
0100
1000
0001
0010
0100
0010
0001
1000
0010
1000
0001
0010
0100
0010
0001
1000
,
0010
0100
0001
1000
0010
1000
0001
0010
0001
0100
0001
1000
0010
1000
0001
1000
,
0100
0010
0001
0100
0001
1000
0010
1000
0001
1000
0100
0010
0001
1000
0010
0100
,
0001
0010
0100
1000
0001
0100
0001
1000
0100
0010
0001
1000
0010
0100
0001
1000
,
0002
0000
2003
0000
3200
0000
2300
3020
,
0000
0000
2030
3200
0320
0032
0203
0300
,
0002
0000
0023
0000
0230
0000
2300
3002
,
0000
0000
0203
0302
0023
0230
2300
0000
,
3002
0000
0203
0000
0320
0000
2030
3200
,
0000
0000
2300
3002
2003
3200
0320
0000
,
0032
0003
0200
0300
0020
0030
2000
3002
,
0003
2000
3200
0300
2000
3000
0002
0023
,
0230
0000
2300
0000
3200
0000
2300
3020
,
0000
0000
2030
3200
0320
0032
0203
0300
,
0002
0000
0023
0000
0230
0000
2300
3002
,
0000
0000
0203
0302
0023
0230
2300
0000
,
3002
0000
0203
0000
0320
0000
2030
3200
,
0000
0000
2300
3002
2003
3200
0320
0000
,
0032
0003
0200
0300
0020
0030
2000
3002
,
0003
2000
3200
0300
2000
3000
0002
1003
,
2222
0000
3333
0000
0001
1000
0100
0020
,
0000
0031
0100
0000
0002
0003
2000
3000
,
2222
0000
3333
0000
0001
1000
0010
0200
,
0000
0301
0010
0100
2000
3000
0002
0003
,
2222
0000
3333
0000
1000
0100
1000
0001
,
0000
0100
0001
0010
0200
0000
0300
1000
,
0000
1000
0010
0000
0200
0000
0300
0001
,
0000
0001
0100
0000
0002
0003
2000
3000
,
2222
0000
3333
0000
0001
0010
0100
2000
,
0000
3001
0100
0000
0002
0003
2000
3000
,
2222
0000
3333
0000
0001
1000
0100
0020
,
0000
0031
0100
0010
2000
3000
0002
0003
,
2222
0000
3333
0000
1000
0100
0010
0200
,
0300
1000
0002
0003
0200
0300
0000
0001
,
1000
0100
0020
0030
0002
0003
0000
1000
,
0001
1000
0001
1000
0001
1000
0001
1000
0001
1000
0001
1000
0001
1000
0001
1000
,
0010
0100
0001
0100
0010
1000
0001
1000
0100
0010
0001
1000
0100
1000
0001
1000
,
0010
0100
0010
1000
0001
0100
0001
0100
0010
1000
0001
0100
0001
1000
0001
0010
,
0100
1000
0001
0100
0010
0100
0001
1000
0100
1000
0001
1000
0010
0100
0010
1000
,
0001
0100
0001
0100
0010
1000
0001
1000
0100
0010
0001
1000
0100
1000
0001
0100
,
0010
0100
0001
1000
0100
1000
0100
0010
0001
1000
0100
1000
0001
1000
0010
0100
,
0010
1000
0001
0100
0001
1000
0001
0010
0100
1000
0001
0100
0010
0100
0001
1000
,
0001
0100
0010
0100
0001
1000
0100
1000
0001
0100
0001
0100
0010
1000
0001
1000
,
0100
0010
0001
1000
0100
1000
0001
1000
0010
0100
0010
1000
0001
0100
0001
1000
,
0001
0010
0100
1000
0001
0100
0001
0100
0010
1000
0001
0100
0010
0100
0001
1000
,
0100
0010
0100
0010
0001
1000
0001
0100
0010
0100
0001
1000
0001
0010
0100
1000
,
0010
0100
0001
0100
0010
1000
0010
0100
0001
0010
0100
1000
0001
0100
0010
1000
,
0100
1000
0100
0010
0001
1000
0100
1000
0001
0010
0001
1000
0010
0100
0010
1000
,
0001
0010
0100
1000
0001
0100
0001
0100
0010
1000
0001
0100
0001
1000
0010
1000
,
0001
1000
0100
0010
0001
1000
0100
1000
0001
0100
0010
1000
0001
1000
0100
1000
,
0001
0100
0001
1000
0100
1000
0001
0010
0100
1000
0001
0100
0001
1000
0010
0100
,
0010
1000
0001
1000
0100
0010
0001
1000
0100
1000
0001
0100
0010
0100
0001
1000
,
0001
0010
0100
1000
0010
0100
0001
1000
0100
0010
0001
1000
0001
0000
0000
0000
,
1000
0010
1000
0100
1000
0001
0010
0100
1000
0010
0100
0001
1000
0001
0100
0001
,
0010
0100
1000
0010
0100
0001
1000
0100
0010
0001
1000
0100
1000
0010
0100
0001
,
1000
0100
1000
0010
0100
0001
1000
0010
1000
0100
0010
0001
1000
0001
0100
0001
,
1000
0010
1000
0001
0010
0100
1000
0100
0010
0001
0100
0010
1000
0001
1000
0001
,
1000
0100
1000
0001
0100
0001
1000
0010
1000
0001
0100
0010
0100
0001
1000
0100
,
0010
0001
1000
0100
0010
0100
1000
0001
0100
0001
1000
0100
0010
0100
1000
0001
,
0100
0010
1000
0001
0100
0001
1000
0100
1000
0010
1000
0001
0100
0001
1000
0001
,
0010
0100
1000
0010
1000
0001
0100
0001
1000
0001
0010
0100
1000
0001
0100
0010
,
0100
0001
1000
0100
0010
0001
1000
0100
1000
0001
0100
0010
0100
0001
1000
0001
,
0010
0100
1000
0001
1000
0100
1000
0010
0100
0010
1000
0001
0100
0001
0010
0001
,
1000
0001
1000
0100
0010
0001
1000
0100
1000
0001
0100
0010
0100
0001
1000
0100
,
1000
0001
0100
0001
1000
0100
1000
0010
0100
0001
0100
0001
1000
0100
1000
0001
,
0100
0001
0010
0001
1000
0100
1000
0010
1000
0001
0010
0100
1000
0010
0100
0001
,
0100
0001
1000
0010
0100
0010
1000
0001
0010
0100
1000
0001
0100
0010
0100
0001
,
1000
0100
1000
0010
1000
0001
0100
0001
0010
0100
1000
0010
0100
0010
1000
0001
,
0100
0001
1000
0100
0010
0001
1000
0010
0100
0001
1000
0001
0010
0100
1000
0001
,
2000
0000
3002
0000
0023
0000
0032
0203
,
0000
0000
0302
0023
0230
2300
3020
0030
,
2000
0000
3200
0000
0320
0000
0032
2003
,
0000
0000
3020
2030
3200
0320
0032
0000
,
2003
0000
3020
0000
0230
0000
0302
0023
,
0000
0000
0032
2003
3002
0023
0230
0000
,
2300
3000
0020
0030
0200
0300
0002
2003
,
3001
0010
0100
1000
0001
0100
0001
1000
0100
0010
0001
1000
0001
0000
0000
0000
,
2222
0000
3333
0000
1000
0100
0010
0002
,
0000
1003
0010
0000
2000
3000
0002
0003
,
2222
0000
3333
0000
1000
0001
0010
0200
,
0000
1300
0010
0100
0002
0003
2000
3000
,
2222
0000
3333
0000
0001
0010
0100
0020
,
0030
0001
2000
3000
0020
0030
0000
1000
,
0001
0010
0200
0300
2000
3000
0000
0001
,
1000
0001
1000
0001
1000
0001
1000
0001
1000
0001
1000
0001
1000
0001
1000
0001
,
0100
0010
1000
0001
1000
0100
0010
0001
1000
0100
1000
0001
1000
0001
0100
0010
,
0100
0001
1000
0001
0100
0010
0100
0001
1000
0001
1000
0100
0010
0001
1000
0100
,
1000
0001
0100
0010
0100
0001
1000
0001
0010
0100
1000
0001
0100
0001
0100
0010
,
1000
0001
1000
0100
0010
0001
1000
0100
1000
0001
0100
0010
0100
0001
1000
0001
,
0010
0100
1000
0001
0100
0001
1000
0001
0100
0010
0100
0001
1000
0001
1000
0100
,
1000
0001
0010
0100
1000
0001
0100
0001
1000
0100
1000
0001
0100
0001
0100
0010
,
1000
0001
0100
0001
1000
0100
0010
0001
1000
0100
1000
0001
1000
0010
0100
0010
,
1000
0001
0100
0001
1000
0001
0010
0100
1000
0001
0100
0001
0100
0010
1000
0001
,
1000
0100
0010
0001
1000
0100
1000
0001
1000
0010
0100
0010
1000
0001
0010
0100
,
1000
0001
1000
0001
0100
0010
1000
0001
0010
0100
1000
0001
1000
0010
0100
0010
,
1000
0100
0010
0001
1000
0001
0100
0001
0010
0100
0010
0100
1000
0001
1000
0100
,
1000
0010
0100
0010
1000
0001
0100
0001
0100
0010
1000
0001
1000
0100
0010
0001
,
1000
0100
1000
0001
0100
0001
1000
0010
0100
0010
1000
0001
1000
0100
1000
0001
,
0010
0100
1000
0001
0100
0010
0100
0001
1000
0100
0010
0001
1000
0100
1000
0001
,
0100
0010
0100
0001
1000
0001
0010
0100
1000
0001
1000
0010
0100
0010
1000
0001
,
1000
0100
0010
0001
1000
0001
0100
0010
0100
0001
1000
0100
0010
0001
1000
0010
,
1000
0001
0010
0001
0101
0100
0010
1000
,
2000
0000
0000
3200
0000
0000
0320
0000
0032
0000
0003
2000
0000
3000
0020
0000
,
0130
0001
0010
0100
1100
1000
0001
0100
,
0200
0000
0000
0302
0000
0003
0020
0000
0230
0000
0000
0000
0000
0000
0300
0000
,
1000
0100
1000
0001
0101
0100
0001
0010
,
0020
0000
0000
0230
0000
0000
2300
0000
3020
0000
0000
0230
0000
0000
0302
0000
,
1003
0100
1000
0001
0011
0010
0100
1000
,
2000
0000
0000
3002
0000
0000
0203
0000
0320
0000
0000
0000
0000
0000
0030
0000
,
1010
1000
0001
0010
0110
0100
1000
0001
,
0002
0000
0000
0203
0000
0000
0302
0000
0023
0000
0000
0230
0000
0000
2300
0000
,
3010
0100
0010
1000
1100
0100
0010
0001
,
0002
0000
0000
0203
0000
0000
0320
0000
2030
0000
0000
0000
0000
0000
3000
0000
,
0001
0100
0001
0010
0110
0100
1000
0001
,
0002
0000
0000
2003
0000
0000
3200
0000
0320
0000
0000
0032
0000
0000
2003
0000
,
3002
0023
0230
2300
3020
0230
0302
0000
,
2003
0000
0000
3200
0000
0000
0320
0000
0032
0000
0000
0000
0000
0000
0003
0000
,
1000
0001
1000
0001
1000
0001
1000
0001
1000
0001
1000
0010
0100
0001
0010
0100
,
1000
0010
1000
0100
1000
0001
0010
0100
1000
0010
0100
0001
1000
0001
0100
0001
,
0010
0100
1000
0010
0100
0001
1000
0100
0010
0001
1000
0100
1000
0010
0100
0001
,
1000
0100
1000
0010
0100
0001
1000
0010
1000
0100
0010
0001
1000
0001
0100
0001
,
1000
0010
1000
0001
0010
0100
1000
0100
0010
0001
0100
0010
1000
0001
1000
0001
,
1000
0100
1000
0001
0100
0001
1000
0010
1000
0001
0100
0010
0100
0001
1000
0100
,
0010
0001
1000
0100
0010
0100
1000
0001
0100
0001
1000
0100
0010
0100
1000
0001
,
0100
0010
1000
0001
0100
0001
1000
0100
1000
0010
1000
0001
0100
0001
1000
0001
,
0010
0100
1000
0010
1000
0001
0100
0001
1000
0001
0010
0100
1000
0001
0100
0010
,
0100
0001
1000
0100
0010
0001
1000
0100
1000
0001
0100
0010
0100
0001
1000
0001
,
0010
0100
1000
0001
1000
0100
1000
0010
0100
0010
1000
0001
0100
0001
0010
0001
,
1000
0001
1000
0100
0010
0001
1000
0100
1000
0001
0100
0010
0100
0001
1000
0100
,
1000
0001
0100
0001
1000
0100
1000
0010
0100
0001
0100
0001
1000
0100
1000
0001
,
0100
0001
0010
0001
1000
0100
1000
0010
1000
0001
0010
0100
1000
0010
0100
0001
,
0100
0001
1000
0010
0100
0010
1000
0001
0010
0100
1000
0001
0100
0010
0100
0001
,
1000
0100
1000
0010
1000
0001
0100
0001
0010
0100
1000
0010
0100
0010
1000
0001
,
0100
0001
1000
0100
0010
0001
1000
0010
0100
0001
1000
0001
0010
0100
1000
0001
,
1000
0100
1000
0001
0010
0100
1000
0001
0100
0001
0100
0010
1000
0001
1000
0100
,
0010
0001
1000
0100
1000
0001
1000
0010
0100
0010
1000
0001
0100
0001
0100
0010
,
1000
0001
1000
0001
0010
0100
1000
0001
1000
0100
1000
0001
0100
0010
0100
0001
,
1000
0001
0100
0001
1000
0100
1000
0001
0010
0100
1000
0001
1000
0010
0100
0010
,
1000
0001
0100
0001
0100
0010
1000
0001
1000
0100
0010
0001
1000
0100
1000
0001
,
0100
0010
0100
0001
1000
0001
1000
0100
1000
0001
0100
0001
1000
0100
0010
0001
,
1000
0001
0100
0001
1000
0100
0010
0001
1000
0001
0100
0010
0100
0001
0100
0010
,
1000
0010
1000
0001
0010
0100
1000
0001
0100
0001
1000
0100
0010
0001
0010
0100
,
1000
0001
0100
0001
0010
0001
1000
0100
1000
0010
1000
0001
0010
0100
1000
0001
,
1000
0010
0100
0010
1000
0001
0010
0100
1000
0001
0100
0010
1000
0001
0100
0001
,
1000
0100
1000
0010
1000
0010
0100
0001
1000
0001
0010
0001
0100
0010
1000
0010
,
1000
0001
0010
0100
1000
0001
0100
0010
0100
0001
1000
0001
0100
0001
1000
0100
,
1000
0001
0100
0001
0010
0001
1000
0010
1000
0100
1000
0001
0100
0010
0100
0001
,
1000
0100
0010
0001
1000
0100
1000
0001
0100
0010
0100
0001
1000
0001
1000
0010
,
1000
0100
0010
0001
1000
0010
0100
0001
1000
0100
0010
0001
1000
0010
0100
0001
,
1000
0100
0010
0001
1000
0001
0100
0010
0100
0001
1000
0100
0010
0001
1000
0001
,
0100
0001
0010
0100
1000
0001
0100
0010
,
0100
0001
1000
0100
0010
0001
1000
0100
,
1000
0001
0100
0010
0100
0001
1000
0001
,
0010
0100
1000
0001
0100
0010
0100
0001
,
1000
0100
0010
0001
1000
0001
0100
0001
,
1000
0100
1000
0001
0100
0001
1000
0100
,
0010
0001
1000
0100
1000
0001
1000
0010
,
0100
0010
1000
0001
0010
0100
1000
0001
,
1000
0000
0000
0000
;
