#TITLE:Magical Higan Tour 2009;
#SUBTITLE:;
#ARTIST:Unknown artist;
#TITLETRANSLIT:;
#SUBTITLETRANSLIT:;
#ARTISTTRANSLIT:;
#CREDIT:;
#BANNER:higan-bn.png;
#BACKGROUND:higan-bg.png;
#LYRICSPATH:;
#CDTITLE:;
#MUSIC:Magical Higan Tour 2009.ogg;
#OFFSET:0.060;
#SAMPLESTART:84.880;
#SAMPLELENGTH:12.000;
#SELECTABLE:YES;
#BPMS:0.000=120.000,49.000=240.000,177.000=120.000,207.000=127.000,209.000=240.000,620.000=160.000,622.000=480.000,624.000=240.000,702.000=480.000,704.000=240.000,712.000=480.000,720.000=240.000,852.000=120.000,882.000=999999.938,1350.000=240.000;
#STOPS:622.000=0.063
,622.500=0.063
,623.000=0.063
,623.500=0.063
,702.000=0.063
,702.500=0.063
,703.000=0.063
,703.500=0.063
,712.000=0.031
,712.250=0.031
,712.500=0.031
,712.750=0.031
,713.000=0.031
,713.250=0.031
,713.500=0.031
,713.750=0.031
,714.000=0.031
,714.250=0.031
,714.500=0.031
,714.750=0.031
,715.000=0.031
,715.250=0.031
,715.500=0.031
,715.750=0.031
,716.000=0.031
,716.250=0.031
,716.500=0.031
,716.750=0.031
,717.000=0.031
,717.250=0.031
,717.500=0.031
,717.750=0.031
,718.000=0.031
,718.250=0.031
,718.500=0.031
,718.750=0.031
,719.000=0.031
,719.250=0.031
,719.500=0.031
,719.750=0.031
,882.000=0.125
,894.000=0.125
,906.000=0.125
,918.000=0.125
,930.000=0.125
,942.000=0.125
,954.000=0.125
,966.000=0.125
,978.000=0.125
,990.000=0.125
,1002.000=0.125
,1014.000=0.125
,1026.000=0.125
,1038.000=0.125
,1050.000=0.125
,1062.000=0.125
,1074.000=0.125
,1086.000=0.125
,1098.000=0.125
,1110.000=0.125
,1122.000=0.125
,1134.000=0.125
,1146.000=0.125
,1158.000=0.125
,1170.000=0.125
,1182.000=0.125
,1194.000=0.125
,1206.000=0.125
,1218.000=0.125
,1230.000=0.125
,1242.000=0.125
,1254.000=0.125
,1266.000=0.125
,1278.000=0.125
,1290.000=0.125
,1302.000=0.125
,1314.000=0.125
,1326.000=0.125
,1338.000=0.125
;
#BGCHANGES:;
// cache tags:
#FIRSTBEAT:17.000;
#LASTBEAT:1326.000;
#SONGFILENAME:Songs/SSSC Pack 2/Magical Higan Tour 2009 [Zarkonis]/Magical Higan Tour 2009.sm;
#HASMUSIC:1;
#HASBANNER:1;
#MUSICLENGTH:256.339;
// end cache tags

//---------------dance-single - Zarkonis----------------
#NOTES:
     dance-single:
     Zarkonis:
     Challenge:
     14:
     1.000,1.000,0.800,0.012,0.339,1683.000,205.000,3.000,1337.000,0.000:





0000
0000
0000
0000
,
0000
0000
0000
0000
,
0000
0000
0000
0000
,
0000
0000
0000
0000
,
0000
0000
0001
0000
0100
0010
0100
0000
,
0010
1000
0100
0000
0100
0010
0100
1000
,
0010
0100
0001
0000
0010
0100
0010
0000
,
0001
1000
0100
0000
1000
0010
1000
0010
,
0100
0001
0010
0000
0100
0010
0100
0000
,
0010
0100
1000
0000
1000
0010
0100
0001
,
1000
0100
0010
0000
0100
0010
0100
0000
,
0010
0001
1000
0010
0100
0010
2000
0001
,
0010
0000
3001
0000
0MM1
1000
0001
1000
0001
0000
0100
0000
0110
0000
0000
0000
,
0010
0000
1000
0000
0100
0010
0100
0010
0100
0000
0010
0000
0001
0000
1000
0000
,
0001
0000
0000
0000
1000
0010
1000
0010
1000
0000
0001
0000
0101
0000
0100
0000
,
0010
0000
0000
0000
1000
0100
1000
0100
1000
0000
0100
0000
0010
0000
0001
0000
,
0100
0000
0000
0000
0010
0100
0010
0100
0010
0000
1000
0000
0100
0000
0000
0000
,
0010
0000
0000
0000
0001
0010
0001
0010
0001
0000
0100
0000
0010
0000
1000
0000
,
0010
0000
0000
0000
0100
0001
0100
0001
0100
0000
0010
0000
1000
0000
0000
0000
,
0100
0000
0000
0000
0010
0100
0010
0100
0010
0000
0001
0000
1000
0000
0010
0000
,
0100
0000
0000
0000
0001
1000
0001
1000
0001
0000
0000
0000
0110
0000
0000
0000
,
1000
0000
0001
0000
0010
0001
0010
0001
0010
0000
0100
0000
1000
0000
0001
0000
,
0100
0000
0000
0000
0010
0100
0010
0100
0010
0000
0000
0000
1001
0000
0000
0000
,
1000
0000
0100
0000
0010
0100
0010
0100
0010
0000
0001
0000
1000
0000
0010
0000
,
0100
0000
0001
0000
1000
0001
1000
0001
1000
0000
0100
0000
0110
0000
0000
0000
,
0001
0000
1000
0000
0010
1000
0010
1000
0010
0000
0100
0000
0001
0000
1000
0000
,
0100
0000
0010
0000
0001
1000
0001
1000
0001
0000
0010
0000
0110
0000
0000
0000
,
1001
0000
0000
0000
1000
0100
1000
0100
1000
0000
0001
0000
0100
0000
0010
0000
,
1000
0000
0000
0000
0001
0100
0001
0100
0001
0000
1000
0000
0100
0000
0010
0000
,
0100
0000
1000
0000
0001
0100
0001
0100
0001
0000
1000
0000
0010
0000
0100
0000
,
0001
0000
0000
0000
1000
0100
1000
0100
1000
0000
0001
0000
0100
0000
0010
0000
,
0100
0000
0001
0000
1000
0100
1000
0100
1000
0000
0001
0000
0010
0000
0100
0000
,
1000
0000
0000
0000
0010
0100
0010
0100
0010
0000
0100
0000
0001
0000
1000
0000
,
0100
0000
0010
0000
0100
0010
0100
0010
0100
0000
0010
0000
0001
0000
1000
0000
,
0010
0000
0000
0000
1000
0001
1000
0001
1000
0000
0010
0000
0100
0000
0010
0000
,
0100
0000
0010
0000
1000
0001
1000
0001
1000
0000
0100
0000
0010
0000
0001
0000
,
1000
0000
0000
0000
0001
0010
0001
0010
0001
0000
1000
0000
0010
0000
0100
0000
,
0010
0000
1000
0000
0001
0010
0001
0010
0001
0000
1000
0000
0100
0000
0010
0000
,
0001
0000
0000
0000
1000
0010
1000
0010
1000
0000
0001
0000
0100
0000
0010
0000
,
0100
0000
0001
0000
1000
0010
1000
0010
1000
0000
0001
0000
0010
0000
0100
0000
,
0010
0000
0000
0000
0001
1000
0001
1000
0001
0000
0100
0000
0010
0000
1000
0000
,
0100
0000
0010
0000
0001
1000
0001
1000
0001
0000
0010
0000
0100
0000
1000
0000
,
0010
0000
0000
0000
0100
0001
1000
0001
0100
0000
0010
0000
1000
0000
0001
0000
,
1000
0000
0010
0000
1000
0001
0010
0001
1000
0000
0001
0000
0010
0000
0100
0000
,
1000
0010
M10M
0000
0010
0100
0010
0000
,
0100
0001
1000
0000
0001
0100
0010
0100
,
0001
1000
0100
0000
0010
0100
0010
0000
,
0100
0010
0001
0000
1000
0001
1000
0001
,
0010
0100
1000
0000
0010
0100
0010
0000
,
1000
0001
0010
0000
0010
0001
0010
0100
,
1000
0010
0100
0000
0010
0100
0010
0000
,
0100
0001
1000
0100
1000
0100
M000
0M00
,
M000
0M00
M1MM
1000
0001
1000
0100
1000
,
0001
1000
0100
1000
0001
1000
0100
1000
,
0001
1000
0010
0100
0001
0100
0010
0100
,
0001
0100
0010
0100
0001
0100
0010
0100
,
0001
0100
0010
1000
0100
1000
0010
1000
,
0100
1000
0010
1000
0100
1000
0010
1000
,
0100
1000
0001
0010
0100
0010
0001
0010
,
0100
0010
0001
0010
0100
0010
0001
0010
,
0100
0010
0001
0000
1000
0010
0000
0100
,
0001
0000
0010
0100
0000
1000
0010
0000
,
0100
0001
0010
0000
0100
1000
0000
0010
,
0100
0000
0001
1000
0000
0001
1000
0000
,
0100
0010
0100
0000
0010
0001
0000
1000
,
0010
0000
0100
0001
0000
1000
0100
0000
,
0010
0001
0100
0000
0010
0100
0000
0001
,
1000
0000
0100
0010
0000
0001
0100
0100
,
0010
0000
1000
0000
0100
0000
0010
0000
0100
0000
1000
0001
1000
0001
1000
0000
,
0010
0000
0010
0000
0100
0001
0100
0000
0001
0000
1000
0100
0010
0001
1000
0000
,
0040
0000
0430
0000
0301
0000
0100
0000
0010
0000
1000
0000
0100
0000
0010
0001
,
0010
0100
1000
1000
0010
0100
0001
1000
,
0400
0000
0310
0001
1000
0000
1000
0000
1000
0000
0010
0000
0100
0000
0001
0000
,
1000
0000
0100
0000
0010
0000
0001
0000
1000
0010
0100
0010
1000
0000
0001
0000
,
0010
0001
0010
0001
0010
0000
0100
0000
1000
0000
0010
0000
0110
0000
0100
0001
,
1000
0000
0100
0000
0010
0001
0010
0000
0100
0000
1000
0000
1000
0000
0010
0000
,
0400
0000
0301
1000
0100
0000
0000
0000
0010
0000
0001
0000
1000
0000
0000
0000
,
0010
0000
0100
0000
0001
1000
0001
0000
0010
0000
0100
1000
0001
1000
0001
0000
,
0100
0010
0100
0010
0100
0000
0010
0000
1000
0000
0001
0000
0011
0000
0010
0001
,
1000
0000
0010
0000
1000
0010
0100
0000
0001
0000
1000
0000
0100
0000
0100
0000
,
0040
0000
0031
0100
0001
0000
0100
0001
0100
0000
0010
0000
1000
0000
1000
0000
,
0001
0010
0001
0010
0001
0000
1000
0000
0010
0000
1000
0010
1000
0010
1000
0000
,
0001
0010
0100
1000
0001
0000
1000
0001
0100
0000
0001
0000
1000
0001
0100
0000
,
0010
1000
0100
0100
0010
0001
1000
0010
,
0400
0000
0301
1000
0100
0000
0010
0000
0100
0000
1000
0001
1000
0001
1000
0000
,
0100
0000
0100
0000
0010
0001
0010
0000
0001
0000
1000
0010
0100
0001
1000
0000
,
0400
0000
0340
0000
0031
0000
0010
0000
0100
0000
1000
0000
0010
0000
0100
0001
,
0100
0010
1000
1000
0100
0010
0001
1000
,
0040
0000
0130
0001
1000
0000
1000
0000
1000
0000
0100
0000
0010
0000
0001
0000
,
1000
0000
0010
0000
0100
0000
0001
0000
1000
0100
0010
0100
1000
0000
0001
0000
,
0100
0001
0100
0001
0100
0000
0010
0000
1000
0000
0100
0000
0110
0000
0010
0001
,
1000
0000
0010
0000
0100
0001
0100
0000
0010
0000
1000
0000
1000
0000
0100
0000
,
0040
0000
0031
1000
0010
0000
0000
0000
0100
0000
0001
0000
1000
0000
0000
0000
,
0100
0000
0010
0000
0001
1000
0001
0000
0100
0000
0010
1000
0001
1000
0001
0000
,
0010
0100
0010
0100
0010
0000
0100
0000
1000
0000
0001
0000
0101
0000
0100
0001
,
1000
0000
0100
0000
1000
0100
0010
0000
0001
0000
1000
0000
0010
0000
0010
0000
,
0400
0000
0301
0010
0001
0000
0010
0001
0010
0000
0100
0000
1000
0000
1000
0000
,
0001
0100
0001
0100
0001
0000
1000
0000
0100
0000
1000
0100
1000
0100
1000
0000
,
0001
0100
0010
1000
0001
0000
1000
0001
0010
0000
0001
0000
1000
0001
0010
0000
,
0100
1000
0010
0010
0100
0001
1000
0100
,
0010
0001
1000
0010
1000
0010
0100
0001
,
0100
0001
1000
0100
0010
0100
0001
0100
,
0001
0100
0010
0100
1000
0010
0100
0010
,
1000
0001
0010
0100
1000
0010
0100
0001
,
0100
0001
1000
0100
1000
0100
0010
0001
,
0100
1000
0100
0001
1000
0100
0010
0001
,
0010
0001
1000
0010
0100
0010
0001
0010
,
0100
0010
0000
1001
1001
1001
1001
0000
,
0001
0010
0110
0100
1000
0001
0101
0100
,
0010
1000
1001
0001
0010
0100
1100
1000
,
0001
0100
0110
0010
1010
1000
1001
0001
,
0011
0010
0110
0100
1000
1000
1000
0010
,
0400
0301
1001
1000
0100
0010
0011
0001
,
1000
0010
1010
1000
0001
0010
0011
0001
,
1000
0010
1010
1000
1001
0001
0101
0100
,
0110
0000
0010
0000
1000
0000
0001
1000
0001
0000
1000
0000
0400
0000
0310
0000
,
0400
0310
0011
0001
1000
0010
1010
1000
,
0001
0010
0110
0100
1000
0001
0101
0100
,
0010
1000
1010
0010
0110
0100
0101
0001
,
1001
1000
1100
0100
0010
0010
0010
0001
,
4000
3001
0101
0100
0010
1000
1001
0001
,
0010
0100
1100
1000
0001
0100
0110
0010
,
1000
0001
0011
0010
0110
0100
1100
1000
,
1001
0000
0001
0000
0010
0000
0001
1000
0001
0000
1000
0000
0040
0000
0130
0000
,
0040
0130
0101
0001
1000
0100
0010
0001
,
0011
0010
0011
0001
1000
0010
0100
0001
,
1001
1000
1001
0001
0010
0110
0100
1000
,
1001
0001
0101
0100
0010
1000
1010
0010
,
0100
0001
0011
0010
0100
1000
0001
0100
,
0110
0010
0110
0100
0010
1000
0001
0010
,
0110
0100
0110
0010
0001
0011
0010
0100
,
1100
1000
1001
0001
0101
0100
0040
1030
,
0400
1300
1100
0100
0010
0001
1001
1000
,
0010
0100
0101
0001
1000
0100
0110
0010
,
0001
1000
1010
0010
0110
0100
0101
0001
,
1001
1000
1100
0100
0010
0010
0010
0001
,
4000
3001
0101
0100
0010
1000
1010
0010
,
0100
0001
0011
0010
0100
1000
1100
0100
,
0010
0001
0100
0010
0100
0010
0100
0010
,
0100
0000
0010
0000
0100
0010
0100
0010
0100
0010
0100
0010
0400
0000
0310
0000
,
0400
0310
1000
0004
1000
0000
0100
0000
,
0010
1000
1000
0010
,
0100
1000
1000
0100
,
0010
0000
1000
0000
0010
0000
0100
0003
,
1000
0000
0001
4000
0001
0000
0100
0000
,
0010
0001
0001
0010
,
0100
0001
0001
0100
,
0010
0000
0100
0000
0001
0000
0010
3000
,
0001
0000
1001
0000
0000
1100
0000
0000
,
0101
0000
0000
0011
0000
0000
1010
0000
,
0001
0010
0011
0000
0000
1100
0000
0000
,
0101
0000
0000
1010
0000
0000
1001
0000
,
0001
1000
1100
0000
0000
0011
0000
0000
,
1010
0000
0000
0101
0000
0000
1001
0000
,
0001
1000
1010
0000
0000
0110
0000
0000
,
2002
0000
0000
0000
30M3
0M00
00M0
00M0
,
1000
0000
0100
0000
0010
0000
0001
1000
0001
1000
0001
0000
0100
0000
0100
0000
,
0010
1000
0010
0000
1000
0000
0001
0010
0100
1000
0001
0000
0400
0000
0340
0000
,
1030
0000
0010
0000
0100
0000
0001
0000
0010
0000
0100
1000
0100
0000
0010
0000
,
0001
0000
0001
0000
0100
0000
0010
0000
1000
0000
0001
0000
0040
0000
0130
1000
,
0001
0001
0001
0100
0010
1000
0001
0010
,
0100
0000
1000
0000
0001
0100
0010
0100
0001
0000
1000
0000
0100
1000
0100
1000
,
0100
0000
0010
0000
0001
0000
0100
0000
0110
0000
0010
1000
0001
0000
0010
0000
,
0100
1000
0100
0000
0010
0000
0001
0000
0001
0000
0100
0000
0040
0000
1030
0001
,
0010
0000
0100
1000
0001
0000
0100
0010
,
1000
0001
1000
0000
0100
0000
0010
0001
1000
0001
1000
0000
0010
0100
0010
0100
,
0010
0000
0100
0000
0001
0000
1000
0000
1100
0000
0100
1000
0001
0000
0100
0000
,
0001
0100
0010
0000
1000
0000
0001
0000
0010
0000
0010
0000
0400
0000
1300
0010
,
1000
0000
0010
1000
0010
0000
0100
0000
0001
0000
0001
0000
1000
0100
1000
0100
,
1000
0000
0001
0000
0100
0000
0001
0100
0001
0100
0001
0000
1000
0100
0010
0001
,
1000
0000
0001
1000
0010
0000
1000
0000
0001
1000
0010
0000
0100
0000
0001
0000
,
0100
0100
0010
1000
0001
0010
0100
1000
,
0001
0100
0001
0100
0010
1000
0010
1000
,
0001
0010
0100
0010
1000
0010
1000
0010
,
0100
0010
0001
0100
0010
0100
0001
1000
,
0100
0010
0001
0100
0010
0010
0010
0010
,
1000
0100
1000
0100
0010
0001
0100
1000
,
0100
0001
1000
0100
0010
0001
0010
0001
,
4000
3040
0430
0304
,
1003
0000
0001
0000
1000
0000
0001
0000
1000
0001
1000
0001
1000
0001
1000
0001
,
1000
1001
1001
1001
1001
0000
0001
0100
,
0110
0010
1000
0001
0011
0010
0100
1000
,
1001
0001
0100
0010
1010
1000
0001
0010
,
0110
0100
1100
1000
1001
0001
0101
0100
,
0110
0010
1000
1000
1000
0100
0040
0031
,
1001
1000
0010
0100
0101
0001
1000
0100
,
1100
1000
0001
0100
0101
0001
1000
0100
,
1100
1000
1001
0001
0011
0010
0110
0100
,
1000
0000
0001
1000
0001
0000
1000
0000
0040
0000
0130
0000
0040
0000
0130
0000
,
0101
0001
1000
0100
1100
1000
0001
0100
,
0110
0010
1000
0001
0011
0010
0100
1000
,
1100
0100
0110
0010
0011
0001
1001
1000
,
1010
0010
0100
0100
0100
0001
4000
3001
,
0011
0010
0100
1000
1001
0001
0100
0010
,
1010
1000
0001
0010
0110
0100
1000
0001
,
0101
0100
0110
0010
1010
1000
1001
0001
,
0100
0000
0001
1000
0001
0000
1000
0000
0400
0000
0310
0000
0400
0000
0310
0000
,
0011
0001
1000
0010
0100
0001
0101
0100
,
0101
0001
1000
0100
0010
0001
1001
1000
,
1001
0001
0100
0110
0010
1000
1001
0001
,
0011
0010
0100
1000
1100
0100
0010
0001
,
0101
0100
0010
1000
0001
0010
0110
0100
,
0110
0010
0100
1000
0001
0100
0110
0010
,
0110
0100
0001
0101
0100
0010
1010
1000
,
1001
0001
0011
0010
0400
1300
0040
1030
,
1010
0010
0100
0001
1001
1000
0100
0010
,
0011
0001
1000
0010
0110
0100
0001
1000
,
1100
0100
0110
0010
0011
0001
1001
1000
,
1010
0010
0100
0100
0100
0001
4000
3001
,
0011
0010
0100
1000
1100
0100
0010
0001
,
0101
0100
0010
1000
1010
0010
0100
0010
,
1000
0001
1000
0001
1000
0001
1000
0001
,
1000
0001
1000
0001
1000
0001
1000
0001
4000
0000
3001
0000
1000
0000
1000
0000
,
1001
0000
0000
0000
,
0000
0000
0000
0000
,
1000
0000
0010
0100
0010
0000
0100
0001
,
0010
0000
0010
0100
0010
0001
1000
0100
,
0010
0000
0100
0010
0100
0000
1000
0001
,
0100
0000
0001
0100
0001
0100
0010
1000
,
0001
0000
0010
0100
0010
0000
0100
0010
,
0001
0000
MMMM
0000
,
0000
0000
0000
0000
,
0000
0000
0000
0000
,
0000
0000
0000
0000
MMMM
MMMM
0000
0000
,
0000
0000
0000
0000
,
0000
0000
0000
0000
,
0000
0000
0000
0000
MMMM
MMMM
MMMM
0000
,
0000
0000
0000
0000
,
0000
0000
0000
0000
,
0000
0000
0000
0000
MMMM
MMMM
MMMM
MMMM
,
0000
0000
0000
0000
,
0000
0000
0000
0000
,
0000
0000
0000
0000
MMMM
MMMM
MMMM
MMMM
,
MMMM
0000
0000
0000
,
0000
0000
0000
0000
,
0000
0000
0000
0000
MMMM
MMMM
MMMM
MMMM
,
MMMM
MMMM
0000
0000
0000
0000
0000
0000
,
0000
0000
0000
0000
,
0000
0000
0000
0000
MMMM
MMMM
MMMM
MMMM
,
MMMM
MMMM
MMMM
0000
0000
0000
0000
0000
,
0000
0000
0000
0000
,
0000
0000
0000
0000
0M0M
M0M0
0M0M
M0M0
,
0M0M
M0M0
0M0M
M0M0
0M0M
M0M0
0M0M
M0M0
,
0M0M
M0M0
0M0M
M0M0
0M0M
M0M0
0M0M
M0M0
,
0M0M
M0M0
0M0M
M0M0
M0M0
0M0M
M0M0
0M0M
,
M0M0
0M0M
M0M0
0M0M
M0M0
0M0M
M0M0
0M0M
,
M0M0
0M0M
M0M0
0M0M
M0M0
0M0M
M0M0
0M0M
,
M0M0
0M0M
M0M0
0M0M
0M0M
M0M0
0M0M
M0M0
,
0M0M
M0M0
0M0M
M0M0
0M0M
M0M0
0M0M
M0M0
,
0M0M
M0M0
0M0M
M0M0
0M0M
M0M0
0M0M
M0M0
,
0M0M
M0M0
0M0M
M0M0
M0M0
0M0M
M0M0
0M0M
,
M0M0
0M0M
M0M0
0M0M
M0M0
0M0M
M0M0
0M0M
,
M0M0
0M0M
M0M0
0M0M
M0M0
0M0M
M0M0
0M0M
,
M0M0
0M0M
M0M0
0M0M
0M0M
M0M0
0M0M
M0M0
,
0M0M
M0M0
0M0M
M0M0
0M0M
M0M0
0M0M
M0M0
,
0M0M
M0M0
0M0M
M0M0
0M0M
M0M0
0M0M
M0M0
,
0M0M
M0M0
0M0M
M0M0
M0M0
0M0M
M0M0
0M0M
,
M0M0
0M0M
M0M0
0M0M
M0M0
0M0M
M0M0
0M0M
,
M0M0
0M0M
M0M0
0M0M
M0M0
0M0M
M0M0
0M0M
,
M0M0
0M0M
M0M0
0M0M
0M0M
M0M0
0M0M
M0M0
,
0M0M
M0M0
0M0M
M0M0
0M0M
M0M0
0M0M
M0M0
,
0M0M
M0M0
0M0M
M0M0
0M0M
M0M0
0M0M
M0M0
,
0M0M
M0M0
0M0M
M0M0
M0M0
0M0M
M0M0
0M0M
,
M0M0
0M0M
M0M0
0M0M
M0M0
0M0M
M0M0
0M0M
,
M0M0
0M0M
M0M0
0M0M
M0M0
0M0M
M0M0
0M0M
,
M0M0
0M0M
M0M0
0M0M
0M0M
M0M0
0M0M
M0M0
,
0M0M
M0M0
0M0M
M0M0
0M0M
M0M0
0M0M
M0M0
,
0M0M
M0M0
0M0M
M0M0
0M0M
M0M0
0M0M
M0M0
,
0M0M
M0M0
0M0M
M0M0
M0M0
0M0M
M0M0
0M0M
,
M0M0
0M0M
M0M0
0M0M
M0M0
0M0M
M0M0
0M0M
,
M0M0
0M0M
M0M0
0M0M
M0M0
0M0M
M0M0
0M0M
,
M0M0
0M0M
M0M0
0M0M
0M0M
M0M0
0M0M
M0M0
,
0M0M
M0M0
0M0M
M0M0
0M0M
M0M0
0M0M
M0M0
,
0M0M
M0M0
0M0M
M0M0
0M0M
M0M0
0M0M
M0M0
,
0M0M
M0M0
0M0M
M0M0
M0M0
0M0M
M0M0
0M0M
,
M0M0
0M0M
M0M0
0M0M
M0M0
0M0M
M0M0
0M0M
,
M0M0
0M0M
M0M0
0M0M
M0M0
0M0M
M0M0
0M0M
,
M0M0
0M0M
M0M0
0M0M
0M0M
M0M0
0M0M
M0M0
,
0M0M
M0M0
0M0M
M0M0
0M0M
M0M0
0M0M
M0M0
,
0M0M
M0M0
0M0M
M0M0
0M0M
M0M0
0M0M
M0M0
,
0M0M
M0M0
0M0M
M0M0
M0M0
0M0M
M0M0
0M0M
,
M0M0
0M0M
M0M0
0M0M
M0M0
0M0M
M0M0
0M0M
,
M0M0
0M0M
M0M0
0M0M
M0M0
0M0M
M0M0
0M0M
,
M0M0
0M0M
M0M0
0M0M
0M0M
M0M0
0M0M
M0M0
,
0M0M
M0M0
0M0M
M0M0
0M0M
M0M0
0M0M
M0M0
,
0M0M
M0M0
0M0M
M0M0
0M0M
M0M0
0M0M
M0M0
,
0M0M
M0M0
0M0M
M0M0
M0M0
0M0M
M0M0
0M0M
,
M0M0
0M0M
M0M0
0M0M
M0M0
0M0M
M0M0
0M0M
,
M0M0
0M0M
M0M0
0M0M
M0M0
0M0M
M0M0
0M0M
,
M0M0
0M0M
M0M0
0M0M
0M0M
M0M0
0M0M
M0M0
,
0M0M
M0M0
0M0M
M0M0
0M0M
M0M0
0M0M
M0M0
,
0M0M
M0M0
0M0M
M0M0
0M0M
M0M0
0M0M
M0M0
,
0M0M
M0M0
0M0M
M0M0
M0M0
0M0M
M0M0
0M0M
,
M0M0
0M0M
M0M0
0M0M
M0M0
0M0M
M0M0
0M0M
,
M0M0
0M0M
M0M0
0M0M
M0M0
0M0M
M0M0
0M0M
,
M0M0
0M0M
M0M0
0000
0M0M
M0M0
0M0M
M0M0
,
0M0M
M0M0
0M0M
M0M0
0M0M
M0M0
0M0M
M0M0
,
0M0M
M0M0
0M0M
M0M0
0M0M
M0M0
0M0M
M0M0
,
0M0M
0000
0000
0000
M0M0
0M0M
M0M0
0M0M
,
M0M0
0M0M
M0M0
0M0M
M0M0
0M0M
M0M0
0M0M
,
M0M0
0M0M
M0M0
0M0M
M0M0
0M0M
M0M0
0M0M
,
M0M0
0000
0000
0000
MMMM
MMMM
MMMM
MMMM
,
MMMM
MMMM
MMMM
MMMM
MMMM
MMMM
MMMM
0000
,
0000
0000
0000
0000
,
0000
0000
0000
0000
MMMM
MMMM
MMMM
MMMM
,
MMMM
MMMM
MMMM
MMMM
MMMM
MMMM
0000
0000
,
0000
0000
0000
0000
,
0000
0000
0000
0000
MMMM
MMMM
MMMM
MMMM
,
MMMM
MMMM
MMMM
MMMM
MMMM
0000
0000
0000
,
0000
0000
0000
0000
,
0000
0000
0000
0000
MMMM
MMMM
MMMM
MMMM
,
MMMM
MMMM
MMMM
MMMM
0000
0000
0000
0000
,
0000
0000
0000
0000
,
0000
0000
0000
0000
MMMM
MMMM
MMMM
MMMM
,
MMMM
MMMM
MMMM
0000
0000
0000
0000
0000
,
0000
0000
0000
0000
,
0000
0000
0000
0000
MMMM
MMMM
MMMM
MMMM
,
MMMM
MMMM
0000
0000
0000
0000
0000
0000
,
0000
0000
0000
0000
,
0000
0000
0000
0000
MMMM
MMMM
MMMM
MMMM
,
MMMM
0000
0000
0000
,
0000
0000
0000
0000
,
0000
0000
0000
0000
MMMM
MMMM
MMMM
MMMM
,
0000
0000
0000
0000
,
0000
0000
0000
0000
,
0000
0000
0000
0000
MMMM
MMMM
MMMM
0000
,
0000
0000
0000
0000
,
0000
0000
0000
0000
,
0000
0000
0000
0000
MMMM
MMMM
0000
0000
,
0000
0000
0000
0000
,
0000
0000
0000
0000
,
0000
0000
MMMM
0000
;
