#TITLE:Higurashi no Naku Koro ni;
#SUBTITLE:- Higurashi no Naku Koro ni Opening;
#ARTIST:Eiko Shimamiya;
#TITLETRANSLIT:;
#SUBTITLETRANSLIT:;
#ARTISTTRANSLIT:;
#CREDIT:;
#BANNER:Higurashi-logo.jpg;
#BACKGROUND:Higurashi-bg1.jpg;
#LYRICSPATH:;
#CDTITLE:cdtitle02.png;
#MUSIC:Higurashi_no_Naku_Koro_TV.mp3;
#OFFSET:4.260;
#SAMPLESTART:52.915;
#SAMPLELENGTH:12.000;
#SELECTABLE:YES;
#BPMS:0.000=105.000;
#STOPS:;
#BGCHANGES:7.500=Higurashi Opening.avi=1.000=0=0=1,
161.000=Higurashi-bg2.jpg=1.000=1=0=1,
99999=-nosongbg-=1.000=0=0=0 // don't automatically add -songbackground-
;
// cache tags:
#FIRSTBEAT:32.000;
#LASTBEAT:163.000;
#SONGFILENAME:Songs/Otaku's Dream 1st Anime Mix/Tweety3187 - Higurashi no Naku Koro ni (Higurashi no Naku Koro ni OP)/Trance.sm;
#HASMUSIC:1;
#HASBANNER:1;
#MUSICLENGTH:90.310;
// end cache tags

//---------------dance-single - ----------------
#NOTES:
     dance-single:
     :
     Hard:
     11:
     1.000,1.000,1.000,0.144,1.000,474.000,241.000,13.000,0.000,1.000:
0000
0000
0000
0000
,
0000
0000
0000
0000
,
0000
0000
0000
0000
,
0000
0000
0000
0000
,
0000
0000
0000
0000
,
0000
0000
0000
0000
,
0000
0000
0000
0000
,
0000
0000
0000
0000
,
1001
0100
0010
1000
0011
0100
0001
0010
1100
0010
1000
0100
0011
1000
0100
0010
,
1100
0001
1000
0010
0101
0010
0100
0001
1001
0100
0010
1000
0101
0010
0100
0001
,
1100
0010
0100
1000
0101
0010
0001
0010
1100
0010
0100
0010
1001
0010
0001
0100
,
1001
0100
0011
0101
0001
1010
0001
0110
1100
0001
0011
1000
0110
0110
1001
1001
,
0101
0010
0001
0100
1010
0100
0010
0001
1100
0010
0100
1000
0011
0100
0010
0100
,
1001
0010
1000
0001
0110
0001
1000
0100
0011
0100
0010
0001
1010
0100
0001
1000
,
0110
0001
1000
0010
0101
0010
0001
1000
0110
0001
0010
0100
1001
0010
0100
0001
,
1010
0001
0110
1010
0001
1010
0100
0001
1010
0100
0011
0100
1010
1010
0101
0101
,
1010
0001
0110
0110
0000
1010
0000
1010
0110
0000
0110
0000
1010
0001
0100
1000
,
0101
0010
1100
1100
0000
0011
0000
0101
1010
0000
1010
0000
0110
0001
1010
0110
,
0012
1000
0100
0010
1000
0100
0010
1000
0100
0010
1000
0103
0011
0100
1010
2010
,
0001
0100
0010
0001
0100
0010
0001
0010
0100
0001
0010
0100
0010
0001
0010
3100
,
0011
0100
1010
0000
0000
1010
0100
0011
0101
0000
0011
0000
0110
1000
0001
0010
,
1100
0010
0101
0110
0000
1010
0000
0110
0101
0000
1002
0010
1000
0103
1010
0110
,
2100
0001
0100
0001
0100
0001
0100
0001
0010
0001
0010
0001
3010
0001
1100
0110
,
2001
0000
0010
0000
0100
0000
0001
0000
0010
0000
0001
0000
3110
0000
0001
0000
1010
0000
0001
0010
1100
0000
0110
0000
1010
0000
1001
0000
0110
0000
0110
0000
,
1001
0000
0010
1000
0011
0110
0011
1001
0110
0000
0010
0100
1010
1001
0110
0110
,
1010
0000
0001
0100
1010
1001
0011
0110
1100
0000
0001
0100
1010
0101
1010
1010
,
0101
0000
0010
1000
0110
1010
1010
1010
0011
0000
0001
0010
1010
1100
0110
0011
,
0101
0000
1000
1000
0110
0110
0011
0011
1100
0000
0010
0100
0011
0011
1100
1100
,
1001
0000
0100
0001
1010
0110
0011
0110
1100
0000
0001
0100
1010
1010
0101
0101
,
0110
0000
1000
0001
0110
0011
0110
0011
1100
0000
0001
0010
1100
1100
1100
1100
,
0011
0000
0100
0010
1100
0011
0101
1010
0110
0000
0010
0100
1001
1010
0011
0110
,
1001
0000
0000
0010
0000
0000
1000
0000
0000
0001
0000
0000
0110
0000
0000
1000
0000
0000
0011
0000
0000
0101
0000
0000
1000
0000
0000
0110
0000
0000
0101
0000
0000
0010
0000
0000
1001
0000
0000
1001
0000
0000
1001
0000
0010
0000
0100
0000
,
1001
0100
0011
0011
0101
0010
1100
1100
0000
0001
0110
0000
2010
0001
0010
3010
,
1001
0000
0011
0110
1100
0001
0110
0011
0000
1000
0110
0000
0102
1000
0100
1003
,
0110
0000
1001
0100
0011
0000
0101
0011
0000
0011
0012
0000
1000
0100
0010
0103
,
1010
0100
0011
0011
0110
0001
1010
0110
0001
0010
1001
0100
0011
0011
1100
1100
,
1001
0010
0101
0110
1010
0001
0110
0011
0000
0010
1100
0001
2010
0100
0010
3001
,
0110
0001
1010
0110
0011
0100
1010
0110
0000
0001
1010
0100
0012
1000
1000
1003
,
0110
0001
1010
0100
0011
0100
1001
1001
0000
0011
0012
1000
0100
0010
1000
0103
,
1010
0101
0110
1001
0010
1000
0110
0001
0100
0010
1001
0001
0110
0110
0110
0010
,
2002
0000
0000
3003
;

//---------------dance-single - ----------------
#NOTES:
     dance-single:
     :
     Medium:
     6:
     0.446,0.583,0.642,0.122,0.000,213.000,58.000,11.000,0.000,0.000:
0000
0000
0000
0000
,
0000
0000
0000
0000
,
0000
0000
0000
0000
,
0000
0000
0000
0000
,
0000
0000
0000
0000
,
0000
0000
0000
0000
,
0000
0000
0000
0000
,
0000
0000
0000
0000
,
2000
0010
0001
0010
0001
0010
0001
0010
,
0100
0010
0100
0010
0100
0010
0100
3010
,
0002
1000
0010
1000
0010
1000
0010
1000
,
0100
1000
0100
1000
0100
1000
0100
1003
,
0200
0001
0010
0001
0010
0001
0010
0001
,
0010
0001
0010
0001
0010
0001
0010
0301
,
0020
1000
0100
1000
0100
1000
0100
1000
,
0100
1000
0100
1000
0100
1000
0100
1030
,
1001
0010
0100
0001
1000
0010
0100
0001
,
0010
0100
0001
1000
0100
0010
0001
0100
,
2010
0001
0010
0001
0010
0001
0010
3001
,
0210
0001
0010
0001
0010
0001
0010
0301
,
0110
0001
1000
0100
1000
0010
0100
0001
,
0010
0100
0010
1000
0001
0100
0010
0001
,
1200
0010
1000
0010
1000
0010
1000
0310
,
2001
0001
0001
3001
0110
1001
0110
1001
,
1001
0011
1100
0110
,
1001
0101
0110
1100
,
0110
1001
0110
1001
,
0011
0101
0110
1010
,
0110
0011
1001
0110
,
1001
0011
0101
0110
,
1010
1100
0110
0110
,
1002
1000
1000
1003
,
1001
0010
0100
0000
0011
0100
1000
0000
,
1010
0100
0001
0000
0110
1000
0001
0000
,
0101
0001
0001
0000
1010
1000
1000
0000
,
1001
0110
1001
0110
1001
0010
1000
0100
,
1001
0010
0100
0000
0011
0100
1000
0000
,
1010
0100
0001
0000
1010
0010
0100
0000
,
0011
0100
1000
0000
1010
0100
0001
0000
,
0011
0100
1000
0010
0100
0001
0010
0100
,
2002
0000
3003
0000
;

//---------------dance-single - ----------------
#NOTES:
     dance-single:
     :
     Easy:
     3:
     0.250,0.338,0.188,0.188,0.000,124.000,17.000,17.000,0.000,0.000:
0000
0000
0000
0000
,
0000
0000
0000
0000
,
0000
0000
0000
0000
,
0000
0000
0000
0000
,
0000
0000
0000
0000
,
0000
0000
0000
0000
,
0000
0000
0000
0000
,
0000
0000
0000
0000
,
0010
0010
0010
0010
,
0010
0010
0010
0010
,
0100
0100
0100
0100
,
0100
0100
0100
0100
,
0001
0001
0001
0001
,
0001
0001
0001
0001
,
1000
1000
1000
1000
,
1000
1000
1000
1000
,
1001
0001
0100
0001
,
1000
0010
0100
0001
,
2010
0001
0010
3001
,
0210
0001
0010
0301
,
1001
0010
0100
0001
,
0010
1000
0010
0100
,
1020
0100
1000
0130
,
2002
0000
0000
3003
0220
0000
0000
0330
,
0001
0100
0010
1000
,
0001
1000
0010
0001
,
0010
0001
0100
0010
,
1000
0100
0001
0001
,
1000
0010
0100
0001
,
0100
1000
0010
0010
,
0000
0010
0100
0001
,
0010
1000
0001
0100
,
1001
0001
0100
0012
,
0013
0100
0001
2010
,
3010
0100
0001
0010
,
0100
0001
1000
0110
,
1001
0100
0001
0120
,
0130
1000
0001
2001
,
3001
0100
0001
0010
,
2002
0000
0000
3003
0220
0000
0000
0330
,
2002
0000
0000
3003
;
