#TITLE:Infernoplex;
#SUBTITLE:(Couples Chart);
#ARTIST:Dimrain47;
#TITLETRANSLIT:;
#SUBTITLETRANSLIT:;
#ARTISTTRANSLIT:;
#CREDIT:Patrick Ruckman;
#BANNER:infernoplexbn.png;
#BACKGROUND:infernoplexbg.png;
#LYRICSPATH:;
#CDTITLE:;
#MUSIC:Infernoplex.ogg;
#OFFSET:-1.398;
#SAMPLESTART:35.734;
#SAMPLELENGTH:12.000;
#SELECTABLE:YES;
#BPMS:0.000=175.000,160.000=87.500,166.000=175.000,558.000=87.500,570.000=175.000;
#STOPS:;
#BGCHANGES:;
// cache tags:
#FIRSTBEAT:0.000;
#LASTBEAT:639.000;
#SONGFILENAME:Songs/cedric step/Copy (2) of Infernoplex/infernoplex.sm;
#HASMUSIC:1;
#HASBANNER:0;
#MUSICLENGTH:105.000;
// end cache tags

//---------------dance-double - ----------------
#NOTES:
     dance-double:
     :
     Hard:
     14:
     1.000,1.000,1.000,1.000,1.000,1582.000,815.000,306.000,219.000,204.000:



10000001
01000100
01000100
10000001
00011000
00100010
01000100
10000001
,
01000100
00100010
00100010
00011000
01000100
00100010
10000001
00100010
,
01000100
00011000
00011000
01000100
00100010
10000001
01000100
00100010
,
00011000
00100010
00100010
01000100
10000001
00011000
10000001
01000100
,
11000010
00001000
01011000
00000010
00110100
00000001
10100100
00000010
,
11001000
00000100
11000010
00000001
00100010
10000001
01000100
00100010
,
00011010
10000000
10001100
00010000
01000101
00100000
00100011
10000000
,
00011000
01000100
00100010
10000001
01000100
00100010
00011000
01000100
00100010
00000000
01000100
00000000
00100010
00000100
01000010
00000100
,
00100010
10000000
01000001
10000000
00100001
01000000
00010100
01000000
00100010
10000000
00101000
10000000
00100100
01000000
00010010
00100000
,
01000001
10000000
01000100
10000000
00010100
10000000
01000010
00100000
01001000
10000000
00010100
00100000
01000010
10000000
00100001
01000000
,
00010010
00000001
01000100
00000001
01000010
00000100
00011000
00000100
01000010
00000001
00100010
00000001
10000010
00000100
01001000
00000010
,
10000100
00000001
01000100
00000001
01001000
00000001
10000100
00000010
00100100
00000001
01001000
00000010
00100100
00000001
10000010
00000100
,
01001000
00100000
00010100
01000000
00100100
10000000
00101000
01000000
00100010
10000000
00010100
01000000
00100001
10000000
01000010
10000000
,
01000001
00100000
00010100
00100000
00010100
00100000
01000010
10000000
01001000
00100000
00010100
01000000
00100010
10000000
01000001
00100000
,
00011000
00000100
10000010
00000001
10001000
00000100
01000010
00000100
00101000
00000010
01000100
00000001
00100100
00000010
00011000
00000010
,
01001000
00000010
00101000
00000010
00100100
00000001
10000010
00000100
01001000
00000100
10001000
00000100
00101000
00000001
01001000
00000100
,
01010010
00000001
00110001
00000010
10100100
00001000
11000100
00000010
,
00020001
00001000
00001000
00000100
20030010
00000100
00001000
00000010
,
31001010
10000000
10001100
01000000
00100101
01000000
10000011
00010000
,
01002000
00100000
00100000
01000000
00013002
01000000
00100000
10000000
,
11000103
00000010
10101010
00000000
01010000
00000001
00110011
00000000
,
01000100
00000000
10001000
00000000
00101010
00000000
01000010
00001000
00010000
00000010
00101000
00000100
01001000
00000100
10000010
00000001
,
11000010
00000000
00000001
00000000
00110011
00000000
00000000
00000000
01010000
00000000
00001000
00000000
10101010
00000000
00000MM0
0000M00M
,
1000M00M
0010M00M
01000MM0
00010000
1000MMMM
0010M000
0100MMM0
0001M000
0010M000
00000000
0010MMMM
0000M000
0001MMM0
0010M000
0100M000
10000000
,
01000000
10000000
10000000
01000000
00100000
00010000
01000000
00001000
,
00010000
00000100
00000100
00001000
00000010
00000100
00000001
00000100
,
00000010
00010000
00010000
00001000
00100000
01000000
10000000
00100000
,
01000000
00000MM0
0001M00M
0000000M
0001000M
000000M0
01000M00
0000M000
0010MMMM
00000000
10000000
00000000
01000002
00000000
10000000
00000000
,
01000023
00000000
00100000
00000000
00100000
00000000
01000000
00000000
10000000
00000000
00010000
00000000
00100000
00000030
01000100
00001000
,
10000020
00000000
00010000
00000000
00010000
00000030
01001000
00000100
00100020
00000000
10000002
00000033
00010002
00000000
01000013
00000001
,
00100010
00000001
10000100
00000010
10001000
00000100
01001000
00000100
10000010
00000001
00010100
00000010
01001000
00000010
00101000
00000010
,
10000100
00000001
00100100
00000001
00101000
00000010
01000100
00000001
00010010
00000100
01000010
00000001
00102000
00000000
10003010
00001000
,
01000200
00100000
00010000
00100000
01000000
10000000
00100000
01000000
00100000
10000000
00100000
10000000
00010000
01000000
00010300
01000000
,
00100001
10000000
01000100
10000000
00100100
10000000
00010001
01000000
00100010
10000000
00010100
00100000
01001000
10000000
00100001
01000000
,
00010010
01000000
00100100
10000000
00100100
01000000
00011000
00100000
00010001
00100000
01000010
00100000
00010100
01000000
00101000
10000000
,
01000001
10000000
00100010
01000000
00010010
00100000
00010100
00100000
01001000
00100000
01000001
00100000
01000010
10000000
01000100
10000000
,
01001000
00000100
10001000
00000100
10001000
00000010
01000100
00000010
00101000
00000001
00010100
00000010
00101000
00000010
00010100
00000001
,
01000010
00000100
00010010
00000100
00011000
00000100
01001000
00000100
00100010
00000001
10001000
00000100
01000010
00000100
00101000
00000001
,
00010010
00000100
10001000
00000100
10001000
00000010
01000100
00000001
10000100
00000010
00100100
00000001
01000010
00000100
00101000
00000100
,
00001000
0MM00001
M00M0100
000M0001
000M1000
00M00100
0M001000
MMMM0010
00000100
MMM00001
M00M0010
M00M0100
MMM01000
M0000100
M0000010
00000001
,
00000011
00000000
00001100
00000000
00010100
00000000
00101000
00000000
01100000
00000MM0
1100M00M
0000000M
1000000M
010000M0
00100M00
0100MMMM
,
10000000
01000000
00100000
00010000
00001000
00000100
00000010
00000001
10000000
01000000
00100000
00010000
00001000
00000100
00000010
00000001
00022000
00000000
00000000
00000000
00000000
00000000
00000000
00000000
00000000
00000000
00000000
00000000
00000000
00000000
00000000
00000000
,
00000000
00000000
02033200
00000000
,
23000302
00000000
30200023
00000000
,
00000000
00000000
00322030
00000000
,
00000000
00000000
00000000
00000000
00000000
00000000
00000000
00000000
10033100
01000000
00100000
00010000
00100000
01000000
10000010
01000000
,
00100000
00010000
00100001
01000000
10000000
01000000
00101000
00010000
01000010
00100000
10000000
01000000
10000000
00100000
01000100
00010000
,
01000000
00100000
10000100
01000000
10000000
01000000
10000010
00010000
00101000
00010000
00100000
01000000
10000000
01000000
00100000
00010000
,
00100000
01000000
10001000
00100000
01000001
00010000
01000000
00100000
10000001
00010000
01000010
00010000
00100100
01000000
00101000
01000000
,
10000001
01000000
00100000
00010000
01001000
00100000
10000000
01000000
00200100
00000000
00000000
00000000
00000000
00000000
00001000
00000000
,
00320000
00000001
10030010
01000100
00201000
00000000
00000000
00000001
,
00000000
00000000
00001000
00000000
00000100
00000000
00000010
00000000
00320001
00000000
00000000
00000000
00000000
00000000
0000MMM0
0000M00M
,
0000M00M
0000M00M
0000MMM0
0000M000
0000M000
0000M000
0000M000
0000M000
02030000
00000000
00000000
00000000
00000000
00000000
00000100
00000000
,
03000010
00101000
10000001
01000010
00200100
00000000
00000000
00001000
,
00320000
00001000
10030100
01000010
00200001
00000000
00000000
00320100
,
00030000
00000000
00020010
00030000
20000000
30000000
00200100
00300000
02000001
03000000
0002MMM0
0003M00M
0020M00M
0030MMM0
0200MM00
0300M0M0
,
2000M00M
30000000
00200010
00300000
02000100
03000000
00021000
00030000
20000001
30000000
02000100
03000000
00200010
00300000
02000100
03000000
,
20000001
00000000
30021000
00000000
01030200
00000000
00000000
00012300
,
00000000
00103020
01000230
10000302
01000203
00000000
00000000
00100320
,
00000000
00000000
00012030
00000000
01003200
00000000
10000302
00000000
01000203
00000000
00000000
00000000
00000000
00000000
00000300
00002000
,
00003200
00000320
00000230
00002300
00003002
00000023
00000230
00002300
00003020
00000230
00000320
00002030
00003002
00000203
00100320
00002030
,
10003200
00002300
01003020
00000230
00100302
00000203
01000302
00000023
20000032
00000000
00000000
00000000
00000000
00000000
32000203
00000000
,
00000000
03200320
00000000
00322030
02033200
00000000
00000000
03200320
,
00000000
00000000
20300032
00000000
00000000
00000000
30022003
00000000
02033200
03200320
02300230
03200320
02300230
03022300
02033200
03022300
,
20033002
30022003
20033002
30022003
20033002
32000203
23000302
32000203
03200320
00322030
02033200
03200320
20300032
30200023
20300032
30200023
,
02300230
00000000
00200020
03000300
02000200
00300030
00022000
03000300
20033001
00000000
00000MM0
0000M00M
0000M00M
00000MM0
32000000
0000MMMM
,
0000M000
0000MMM0
0320M000
0000M000
00000000
0000MMMM
0032M000
0000MMM0
0203M000
0000M000
00000000
00000000
00000000
00000000
03002000
00000000
,
00000000
00023000
00000000
00030200
00000320
00000000
00000032
00000000
,
00000203
00000000
00000000
00000000
00000320
00000000
00000000
00000000
00020030
00000000
00000000
00000000
00030200
00000000
00000000
0MM00000
,
M00M0320
000M0000
000M0000
00M00000
0M000032
MMMM0000
00000000
00000000
02000203
00000000
00000000
00000000
00000000
00000000
23000302
00000000
,
00000000
30200023
00000000
20300032
30200023
00000000
00000000
02300230
,
00000000
03022300
00000000
00233020
02300230
00000000
23000302
00000000
,
30022003
00233020
02300230
00000000
,
00000000
00000000
00000000
00000000
03011300
10000001
10000001
00011000
,
01000100
00100010
10000001
00011000
01000100
00100010
00100010
01000100
,
00011000
00100010
01000100
10000001
01000100
10000001
10000001
01000100
,
00100010
01000100
10000001
00011000
00100010
00011000
00011000
10000001
,
00100010
01000100
00011000
00100010
00111010
00000000
00111010
00000000
,
10011001
10011001
01100110
01100110
,
00011000
01000100
00100010
10000001
10011001
00000000
10011001
00000000
,
11000101
00000000
00000000
00000000
11000101
00000000
00000000
00000000
00100010
00011000
10000001
01000100
10000001
00100010
01000100
00011000
,
01000100
00000000
01000100
00000000
00100010
10000001
01000100
00100010
00011000
00000100
01000010
00000001
01000010
00000100
00101000
00000100
,
10000010
00000001
01000100
00000010
00101000
00000100
00010010
00000001
01001000
00000100
00100010
00000100
00101000
00000001
10000010
00000100
,
01001000
00000100
10001000
00000010
00010100
00000001
00100010
00000100
00011000
00100000
01000100
10000000
00010100
00100000
01001000
10000000
,
00100001
10000000
01000100
10000000
00100010
01000000
00011000
01000000
00100001
10000000
00010100
01000000
00010100
10000000
01000010
10000000
,
00011000
00100000
01000001
10000000
00100100
10000000
01000001
10000000
00100010
00000100
01001000
00000100
01001000
00000100
00011000
00000001
,
01001000
00000100
00100010
00000100
10001000
00000001
01000100
00000001
10000010
00000100
00011000
00000001
00010010
00000100
01000010
00000001
,
00100100
00000001
10000100
00000001
01000100
00000010
00100100
00000001
00011000
00000000
10000001
00000000
10000001
00000000
01000100
00000000
,
10000001
00000000
00011000
00000000
01000100
00000000
00100010
10000001
01000100
10000001
01000100
10000001
00011000
10000001
00011000
10000001
,
00100010
10000001
00100010
10000001
00011000
00100100
01000010
10000001
02000100
00000000
00000001
00000000
00001000
00000000
00000010
00000000
,
00010000
00000100
00100000
00001000
00010000
00000100
00001000
00000100
,
00010000
00000100
00000010
00000100
23010000
00001000
00100000
00001000
,
00010000
00000100
00000010
00000001
00000100
00000010
00010000
00000100
,
00001000
00000010
00000100
00000001
32001000
00000100
00010000
00001000
,
00100000
00001000
00010000
00000100
00010000
00000100
00001000
00000100
,
00000010
00000100
00001000
00000010
23010000
00001000
00100000
00001000
,
00010000
00000010
00001000
00000001
00000100
00000010
00010000
00000100
,
00001000
00000000
00000001
00000000
00000010
00000000
00000100
00000000
31002000
00000000
00100000
00010000
00100000
00000000
01000000
10000000
,
01000000
00000000
00100000
00010000
00100000
01000000
10000000
01000000
10000000
00000000
01000000
00100000
01000000
00000000
00100000
00010000
,
00100000
00000000
01000000
10000000
00100000
01000000
00010000
01000000
00023100
00000000
00000010
00000001
00000010
00000000
00000100
00001000
,
00000010
00000000
00000100
00000001
00000100
00000010
00001000
00000010
00000100
00000000
00000001
00000100
00000001
00000000
00000100
00000010
,
00000100
00000000
00000010
00001000
00000010
00000100
00000001
00000100
10032000
00000000
01000000
00100000
01000000
00000000
00010000
00100000
,
00010000
00000000
10000000
01000000
00100000
00010000
01000000
00100000
10000000
00000000
00010000
10000000
00010000
00000000
01000000
00010000
,
01000000
00000000
00100000
10000000
01000000
00100000
01000000
10000000
00023001
00000000
00000010
00000001
00000010
00000000
00000100
00000010
,
00000100
00000000
00001000
00000001
00000010
00000100
00001000
00000001
00000010
00000000
00000100
00001000
00000100
00000000
00000010
00000001
,
00000010
00000000
00000100
00001000
00000001
00000100
00000010
00001000
10030100
00000000
01000010
10000000
01000001
00000000
00100010
00010000
,
00100001
00000000
01000010
10000000
00010100
00100000
01001000
10000000
00010100
00000000
00100010
00010000
00100100
00000000
01001000
10000000
,
01000001
00000000
00100100
01000000
10000010
00100000
01001000
00010000
01000100
00000000
00011000
00000010
01001000
00000000
00100001
00000100
,
10000010
00000000
01001000
00000010
00101000
00000001
00011000
00000010
00100100
00000000
01000001
00000100
10000001
00000000
00010100
00000010
,
10001000
00000000
01000010
00001000
00100001
00000100
00100001
00000100
00100001
00000000
00010100
00100000
01000010
00000000
10001000
01000000
,
10000010
00000000
01001000
10000000
00100010
01000000
00010100
00100000
00010001
00000000
10000100
00010000
10000010
00000000
00011000
10000000
,
00010100
00000000
01001000
00100000
10000001
01000000
00100010
00010000
00100001
00000000
01000100
00000001
10000100
00000000
01000010
00000100
,
00100001
00000000
00011000
00000001
01000100
00000010
00101000
00000010
10000100
00000000
01000001
00000100
10000001
00000000
00011000
00000000
,
10000001
00011000
10000001
00011000
10000001
01000100
10000001
01000100
00100010
00000000
00011000
00100000
00010100
00000000
10001000
00010000
,
10000010
00000000
01001000
10000000
00100100
01000000
00011000
00100000
01000001
00000000
10000010
01000000
10000100
00000000
00010010
10000000
,
00010001
00000000
01000100
00100000
10000010
01000000
00101000
00010000
00100001
00000000
00010100
00000001
01000100
00000000
00010010
00001000
,
00100010
00000000
01000100
00000001
10000100
00000010
00100100
00000001
10000100
00000000
01000010
00001000
10000010
00000000
00101000
00000100
,
01000010
00000000
00010001
00000010
00100100
00001000
01000010
00000100
10000001
01000100
10000001
01000100
00100010
01000100
10000001
01000100
,
10000001
01000100
10000001
01000100
00100010
01000100
10000001
01000100
10000001
01000100
10000001
01000100
00100010
01000100
10000001
01000100
,
10000001
01000100
10000001
01000100
00100010
01000100
10000001
01000100
00100010
00011000
00100010
00011000
10000001
00011000
00100010
00011000
,
00100010
00011000
00100010
01000100
00100010
00011000
00100010
01000100
20000002
00000000
32000203
00000000
03200320
00000000
00322030
00000000
,
02033200
03200320
20300032
32000203
03100320
00010000
00100000
00010000
,
00100000
00000000
00010000
00000000
00100000
00000000
00010130
00000001
00102000
00000000
00010000
00000000
00100000
00000000
00010000
00000000
,
00103000
00011000
00100100
00010010
01000002
00010000
01000000
00010203
,
01000320
00012030
01003100
00011000
01000200
00010000
01001300
00010001
,
01000020
00010032
01000103
00100002
10000023
00100000
10000000
00100230
,
10000000
00100000
10002300
00100000
10003020
00102030
10003200
00100000
,
10002300
00100000
10003002
00100000
10000023
00010000
10000000
00010000
,
10000032
00000000
00010000
00000000
10001003
00000100
00010010
00000001
10002000
00000000
01003200
00000000
00100320
00000000
00010032
00000000
,
00100023
01000230
10002300
01003200
00200310
00000100
00000010
00000100
,
00000010
00000000
00000100
00000000
00300010
00000000
00010100
10000000
02000010
00000000
00000100
00000000
00000010
00000000
00000100
00000000
,
03000010
10000100
01000010
00100100
02001000
00000100
00001000
13000100
,
00201000
10300100
02001000
23000100
32000010
03000001
02000010
13000001
,
00200010
01300001
00020010
02030001
03021000
00000001
00001000
20030001
,
00001000
00000001
32001000
00000001
03100100
00010001
02000100
00000001
,
03200100
00000001
20300100
00000001
30020100
00000010
00000100
00000010
,
02031000
00000000
00000010
00000000
03001000
00000000
00010010
01000000
00201000
00000000
00000100
00000000
00000010
00000000
00000001
00000000
,
20300001
00000000
32000010
00000000
03200100
00000000
02300010
00000000
23000002
00000000
00000000
000MM000
00M00M00
00000M00
00000M00
0000M000
,
000M0000
00000000
00MMMM00
00000000
00000000
00000000
00MMM000
00000000
00M00M00
00000000
00M00M00
00000000
00MMM000
00000000
00M00000
00000000
00M00000
00000000
00M00000
00000000
000MM000
00M00M00
00M00000
000M0000
0000M000
00000M00
00M00M00
000MM000
00000000
00M00000
00M00000
00M00000
,
00M00000
00M00000
00MMMM00
00000000
000MM000
00M00M00
00M00M00
00M00M00
000MM000
00000000
00M000M0
00M000M0
00M000M0
00M0M0M0
000M0M00
00000000
00001003
00000000
00000100
00000000
00000100
00000000
00001000
00000000
00000010
00000000
00010000
00000000
00000100
00000000
00001000
00000000
,
00000010
00010000
00010000
00001000
00100000
00010000
01000000
00001000
00010000
00000100
00000100
00001000
00000100
00001000
00000010
00000100
,
00000001
00001000
00001000
00000100
00010000
00000100
00000010
00000001
00001000
00000100
00000100
00010000
00001000
00100000
01000000
00100000
,
00010000
00000000
01000000
00000000
01000000
00000000
00001000
00000000
00010000
00000000
00000100
00000000
00001000
00000000
00000001
30000000
10000001
00000000
00000000
00000000
01000100
00000000
00000000
00000000
01000100
00000000
00000000
00000000
10000001
00000000
00000000
00000000
,
00011000
10000001
00011000
10000001
00011000
01000100
01000100
00011000
,
00100010
01000100
10000001
00100010
01000100
00011000
00011000
01000100
,
00100010
01000100
00011000
01000100
00100010
10000001
10000001
00100010
,
01000100
00011000
00100010
01000100
10000001
01000100
01000100
10000001
,
01000100
00100010
01000100
10000001
00011000
10000001
10000001
00011000
,
00100010
01000100
10000001
01000100
00100010
01000100
01000100
10000001
,
01000100
00100010
01000100
10000001
00011000
00100010
00100010
01000100
,
10000001
00011000
00100010
01000100
10000101
01000000
01001100
10000000
,
00101010
10000000
01000011
10000000
00012000
00100000
00100000
00010000
,
01003002
00010000
00100000
01000000
11001003
00000100
10100100
00000010
,
00110100
00001000
01010100
00000010
20000001
00000100
00000100
00000010
,
30021000
00000010
00000100
00000001
11030101
00000000
11000101
00000000
,
00111010
11000101
10100011
10100011
,
00011000
00000000
00000000
00100010
00000000
00000000
00011000
00000000
00000000
00100010
00000000
00000000
00222020
00333030
00000000
00000000
00000000
00000000
00222020
00000000
00333030
00000000
00000000
00000000
,
00222020
00333030
00222020
00333030
00222020
00333030
00222020
00333030
,
10000001
01000100
10000001
01000100
00100010
00011000
00100010
01000100
20000002
00000000
00000000
00000000
00000000
00000000
00000000
00000000
,
00000000
00000000
00000000
30000003
;
