#TITLE:Rude Shit;
#SUBTITLE:;
#ARTIST:Imil & m1dlet;
#TITLETRANSLIT:;
#SUBTITLETRANSLIT:;
#ARTISTTRANSLIT:;
#CREDIT:B. Abear;
#BANNER:Bn-Rude.png;
#BACKGROUND:Bg-Rude.png;
#LYRICSPATH:;
#CDTITLE:;
#MUSIC:Rude Shit.ogg;
#OFFSET:0.007;
#SAMPLESTART:23.076;
#SAMPLELENGTH:15.000;
#SELECTABLE:YES;
#DISPLAYBPM:250.000;
#BPMS:0.000=125.000,1.000=250.000,7.000=125.000,8.000=250.000,14.000=125.000,15.000=250.000,21.000=125.000,22.000=250.000;
#STOPS:;
#BGCHANGES:;
// cache tags:
#FIRSTBEAT:0.000;
#LASTBEAT:512.021;
#SONGFILENAME:Songs/SPEEEDCOOOORE/Rude Shit - [Cosmic Pope]/Rude Shit.sm;
#HASMUSIC:1;
#HASBANNER:1;
#MUSICLENGTH:124.757;
// end cache tags

//---------------dance-single - B. Abear----------------
#NOTES:
     dance-single:
     B. Abear:
     Challenge:
     12:
     1.000,1.000,0.417,0.417,0.325,807.000,52.000,52.000,81.000,14.000:

0MM0
0000
0000
0000
,
0000
0000
0000
0MM0
,
0000
0000
0000
0000
,
0000
0000
0MM0
0000
,
0000
0000
0000
0000
,
0000
0MM0
0000
0000
,
0000
0000
0000
0000
,
1000
0010
0100
0001
0010
0100
0010
0100
,
2000
0000
3001
0100
0001
1000
0100
0010
,
0001
0001
1000
0010
0100
0001
0100
0001
,
2000
0000
3100
0010
0001
0010
0100
1000
,
1001
0001
0000
1000
0001
0010
0001
0010
,
0200
0000
1300
0001
1000
0010
0100
0001
,
1000
1000
0001
0010
0100
1000
0001
1000
,
0010
0000
0100
0000
0001
1000
0001
1000
0001
1000
0001
1000
0004
0000
0000
0000
,
1003
1000
0100
1000
1000
0001
1000
0001
,
0200
0000
0310
1000
0001
0010
0100
1000
,
0001
0001
0100
0001
0001
1000
0001
1000
,
0200
0000
0310
0001
1000
0010
0100
0001
,
1000
1000
0010
0100
0001
1000
0001
1000
,
0200
0000
0310
0001
1000
0010
0100
0010
,
0100
0010
1000
0001
0100
0010
1000
0001
0100
0010
1000
0001
0100
0010
1000
0001
,
0100
0001
0100
0001
0100
0001
0100
0001
0100
0001
0100
0001
0100
0001
0100
0001
,
1000
0100
0010
0001
1000
0010
1000
0010
,
0100
0001
0010
0100
0010
0100
1000
0010
,
0100
0001
0010
0001
1000
0100
1000
0100
,
0010
0001
1000
0001
1000
0100
0010
0001
,
1000
0010
0100
0000
0001
0010
0100
0000
,
1000
0010
0100
0000
0001
0010
0100
0000
,
1000
0100
0010
0000
0001
0100
0010
0000
,
1000
0000
0100
0000
1000
0001
1000
0001
1000
0001
1000
0001
1000
0001
1000
0001
,
0100
0010
1000
0001
0010
0100
0010
0100
,
1000
0001
0100
0100
0010
4000
3001
4000
,
3100
0010
0001
1000
0010
0100
0001
1000
,
0100
0010
0001
1000
0001
0010
0100
1000
,
0001
0100
0010
0000
1000
0100
0010
0000
,
0001
0100
0010
0000
1000
0100
0010
0001
,
2002
3003
2002
3003
,
1000
0001
1000
0001
1000
0001
1000
0001
1000
0000
0000
0000
0000
0000
0000
0000
,
0001
0010
0001
1000
0010
0100
0001
0010
,
0001
1000
0100
0010
0100
1000
0001
0100
,
0010
1000
0001
0100
0001
1000
0010
1000
,
0100
0010
0000
0100
0010
0001
1000
0100
,
1000
0010
0100
0001
1000
0010
0100
0001
,
0010
0100
1000
0001
0010
0001
1000
0010
,
0100
0010
0100
0001
1000
0001
1000
0100
,
0010
0000
0001
0000
0000
0000
0010
0000
0001
0000
0001
0000
1000
0001
1000
0001
,
1000
0010
0100
0001
1000
0010
1000
0001
,
0010
0000
0100
0000
0010
0000
0001
0000
10M0
00M0
01M0
00M0
10M0
00M0
00M1
0000
,
0100
0010
1000
0100
0010
0001
0100
0010
,
0100
0000
0001
0000
0010
0000
0100
0000
1000
0000
0100
0000
0010
0000
0001
1000
,
0001
0010
0100
0010
0001
1000
0100
0010
,
0100
1000
0001
0100
0010
1000
0001
1000
,
0100
0010
0001
0100
0010
0100
0001
0010
,
0100
0010
0001
0200
0010
0000
0010
0000
,
0310
1000
0001
0010
0100
1000
0100
1000
,
0001
0000
0100
0000
0010
0000
0100
0000
0001
0000
1000
0000
0001
0000
1000
0001
,
1000
0100
0010
0001
1000
0010
1000
0010
,
0100
0000
0001
0000
1000
0000
0100
0000
0010
0000
0001
1000
0001
0000
1000
0010
,
1000
0001
0010
0100
1000
0001
1000
0010
,
0100
0001
0100
0010
1000
0100
1000
0100
,
0010
0001
1000
0010
0100
0001
0100
0001
,
1000
0010
1000
0010
1000
0010
1000
0010
1000
0001
1000
0001
1000
0001
1000
0001
,
1000
0100
0110
0010
,
0001
1000
1010
0010
,
0100
0001
0101
0100
,
0010
1010
0000
1000
1001
0000
0002
1000
,
1003
0100
0110
0010
,
0001
1000
1100
0100
,
0020
0000
0032
0000
,
1003
1010
0000
0010
0110
0000
0000
0000
,
111M
0000
0000
0000
,
M111
0000
0000
0000
,
11M1
0000
0000
0000
,
1M11
0000
1000
0000
0000
0000
0001
0000
1000
0000
0010
0100
0010
0000
1000
0001
,
1M00
0000
0010
0000
,
M111
0000
0100
0000
,
11M1
0000
0001
0000
,
111M
0000
1000
0000
0000
0000
0000
0000
0010
0000
0100
0001
0100
0000
0010
1000
,
0010
0100
0001
1000
0100
0010
0001
1000
,
0100
1000
0001
0100
0010
0000
0010
0000
,
1000
0000
0100
0000
0010
0000
0001
0000
0100
0000
0010
0000
0100
0000
0001
1000
,
0001
0010
0100
1000
0001
0000
0001
0000
,
1000
0100
0010
0000
0001
0000
1000
0000
0001
0000
0100
0000
0010
0000
1000
0000
,
0001
0000
0010
0000
0100
0000
1000
0000
0100
0000
0010
0001
0010
0000
0001
1000
,
0001
0100
0010
1000
0001
0100
0010
1000
,
0001
0000
0010
0000
0100
0000
1000
0001
1000
0000
0010
0000
0100
0000
0001
0000
,
0010
0100
1000
0001
1000
0001
0100
0010
,
0100
0010
1000
0001
0010
0000
0010
0000
,
0100
1000
0001
0100
0010
0100
0001
1000
,
0100
0000
0000
0000
0010
0000
0000
0000
0001
0000
0000
0000
1000
0000
0000
0000
0002
0000
0000
0000
0000
0000
0000
0003
0002
0000
0000
0000
0000
0000
0000
0000
,
1003
0010
1000
0010
1000
0000
0001
0000
0010
0000
0100
0000
1000
0000
0001
0000
,
0100
0000
0010
0000
0100
0000
0001
0000
1000
0000
0100
1000
0100
0000
1000
0001
,
1000
0010
0100
0001
1000
0010
0100
0001
,
1001
0000
0000
0000
0000
0000
0001
1000
0001
0000
0001
0000
1000
0000
1000
0000
,
22MM
3300
M22M
0330
,
MM22
0033
2MM2
3003
,
2M2M
3030
M22M
0330
,
M2M2
0000
0303
0000
2MM2
3003
22MM
3300
,
M22M
0330
MM22
0033
,
2MM2
3003
2M2M
3030
,
M22M
0330
M2M2
0303
,
2MM2
3003
1000
1000
,
1M11
0000
0000
0000
,
11M1
0000
0000
0000
,
M111
0000
0000
0000
,
111M
0000
0000
1M11
0000
0000
11M1
0000
,
M111
0000
0000
0000
,
0000
0000
0000
0000
,
M000
00M0
0M00
000M
M000
0M00
00M0
0M00
,
M000
000M
M000
0M00
0001
0000
0001
0000
,
0100
0010
1000
0001
0010
0100
1000
0001
,
0010
0000
0100
0000
1000
0000
0001
0000
1000
0000
0010
0100
0010
0000
1000
0001
,
1000
0100
0010
0001
1000
0010
0100
0010
,
1000
0000
0001
0000
0010
0000
0100
0000
1000
0000
0001
0000
0010
0000
0100
1000
,
0100
1000
0001
0100
0010
0100
0001
1000
,
0100
0010
0001
0100
0010
0100
0001
0010
,
0100
1000
0100
0010
0001
1000
0010
0100
,
0001
0000
0100
0000
0010
0000
1000
0000
0001
1000
0001
1000
0001
1000
0001
1000
,
0001
0010
0100
1000
00M1
0100
0010
1000
,
0001
0010
0100
1000
0M01
0010
0001
1000
,
0010
0100
0001
1000
0M10
1000
0001
0010
,
0100
M010
0001
0010
020M
0000
0000
0000
,
1300
0001
1000
0001
1000
0001
1000
0001
1000
0001
1000
0001
1000
0001
1000
0001
,
1000
0000
0001
0000
1000
0000
0001
0000
1000
0000
0001
0000
1000
0000
0001
0000
0200
0000
0000
0000
0000
0000
0000
0000
0000
0000
0000
0000
0000
0000
0000
0300
,
0101
1001
1100
0110
,
0011
0010
0000
0100
1000
0000
1000
0000
,
2002
0000
0000
0000
,
3003
M00M
0000
0000
0000
0000
0000
0000
0000
0000
0000
0000
0000
0000
0000
0000
0000
0000
0000
0000
0000
0000
0000
0000
0000
0000
0000
0000
0000
0000
0000
0000
0000
0000
0000
0000
0000
0000
0000
0000
0000
0000
0000
0000
0000
0000
0000
0000
0000
0000
0000
0000
0000
0000
0000
0000
0000
0000
0000
0000
0000
0000
0000
0000
0000
0000
0000
0000
0000
0000
0000
0000
0000
0000
0000
0000
0000
0000
0000
0000
0000
0000
0000
0000
0000
0000
0000
0000
0000
0000
0000
0000
0000
0000
0000
0000
0000
0000
0000
0000
0000
0000
0000
0000
0000
0000
0000
0000
0000
0000
0000
0000
0000
0000
0000
0000
0000
0000
0000
0000
0000
0000
0000
0000
0000
0000
0000
0000
0000
0000
0000
0000
0000
0000
0000
0000
0000
0000
0000
0000
0000
0000
0000
0000
0000
0000
0000
0000
0000
0000
0000
0000
0000
0000
0000
0000
0000
0000
0000
0000
0000
0000
0000
0000
0000
0000
0000
0000
0000
0000
0000
0000
0000
0000
0000
0000
0000
0000
0000
0000
0000
0000
0000
0000
0000
0000
0000
0000
0000
0000
0000
0000
;
