#TITLE:Fantasy Impromptu;
#SUBTITLE:;
#ARTIST:DM Ashura feat. Frideric Chopin;
#TITLETRANSLIT:;
#SUBTITLETRANSLIT:;
#ARTISTTRANSLIT:;
#CREDIT:;
#BANNER:Fantasy Impromptu Banner.JPG;
#BACKGROUND:Fantasy Impromptu Background.JPG;
#LYRICSPATH:;
#CDTITLE:;
#MUSIC:Fantasy Impromptu.mp3;
#OFFSET:-0.060;
#SAMPLESTART:28.645;
#SAMPLELENGTH:15.000;
#SELECTABLE:YES;
#BPMS:0.000=84.000,4.000=168.000,76.000=84.010,84.000=168.000,220.000=84.500,222.000=86.000,224.000=179.000,248.000=180.100,281.000=182.700,288.000=184.000,292.000=186.000,296.000=187.000,304.000=190.000;
#STOPS:;
#BGCHANGES:;
// cache tags:
#FIRSTBEAT:0.000;
#LASTBEAT:348.000;
#SONGFILENAME:Songs/cedric step/Fantasy Impromptu/Fantasy Impromptu.sm;
#HASMUSIC:1;
#HASBANNER:1;
#MUSICLENGTH:127.378;
// end cache tags

//---------------dance-single - ----------------
#NOTES:
     dance-single:
     :
     Challenge:
     12:
     1.000,1.000,0.275,0.251,1.000,1124.000,35.000,32.000,0.000,0.000:
0002
0000
1003
0000
0000
0001
0100
0000
0020
0000
0130
0000
0000
0010
1000
0000
,
0002
0000
0103
0000
0010
1000
0100
0000
,
2000
0000
3001
0000
0100
0010
0200
0000
,
0300
0010
1000
0100
1000
0100
0010
0001
0100
0010
0100
0010
1000
0001
0100
0010
,
0000
0010
1000
0100
0010
0100
1000
0001
0100
0010
0100
0001
1000
0100
1000
0001
,
0000
0001
0100
0010
1000
0001
1000
0010
0100
0001
1000
0100
1000
0100
0010
0001
,
0010
0100
1000
0001
0100
0010
0100
0001
1000
0100
0010
0100
1000
0001
0100
0010
,
0000
0010
1000
0100
1000
0100
0010
0001
0100
0010
0100
0001
1000
0100
0010
0001
,
0000
0001
0010
0100
1000
0001
0100
0010
0100
0001
1000
0100
1000
0001
0100
0010
,
0100
0010
1000
0100
0010
0001
0010
0001
0100
0010
1000
0100
1000
0010
0100
0001
,
1000
0001
1000
0010
1000
0001
0100
0001
0010
0100
0010
1000
0100
0010
0100
1000
,
0001
0010
0001
0010
0100
1000
0100
1000
0001
0100
0001
0100
0010
1000
0010
1000
,
0001
0010
0001
0010
0100
1000
0100
1000
0001
0100
0001
0100
0010
1000
0010
1000
,
0001
1000
0001
1000
0010
0100
0010
0100
0010
1000
0010
1000
0001
0100
0001
0100
,
0001
1000
0001
1000
0010
0100
0010
0100
0010
1000
0010
1000
0001
0100
0001
0100
,
0001
0100
0010
0100
0001
0100
0010
0100
0001
1000
0100
1000
0010
1000
0100
1000
,
0001
0100
0010
0100
0001
0100
0010
0100
0001
1000
0100
1000
0010
1000
0100
1000
,
0001
0010
0100
0010
0001
0010
0100
0010
0001
1000
0100
0010
0100
1000
0100
0010
,
0001
0100
0001
0100
0001
0100
0001
0100
0001
0100
0001
0100
0001
0100
0001
0100
,
0010
1000
0010
0100
0010
1000
0010
0100
0010
1000
0010
0100
0010
1000
0010
0100
0001
0010
0001
1000
0001
0010
0001
1000
0001
0010
0001
1000
0001
0010
0001
1000
,
0100
0010
0100
1000
0100
0010
0100
1000
0100
0010
0100
1000
0100
0010
0100
1000
0001
0100
0001
0010
0001
0100
0001
0010
0001
0100
0001
0010
0001
1000
0200
0000
,
0300
1000
0100
1000
0100
0010
0001
0010
0001
0100
0010
0100
0010
1000
0100
0010
,
0000
0010
0001
0010
0100
1000
0001
0100
0001
0010
0001
0100
0010
1000
0100
1000
,
0000
1000
0001
0100
0010
1000
0100
1000
0100
0010
0001
0010
0001
0100
0010
1000
,
0010
1000
0100
1000
0100
0001
0100
0010
0100
1000
0100
0010
0001
0010
0100
1000
,
0000
1000
0001
0100
0010
1000
0100
1000
0001
0100
0010
0100
0001
1000
0100
0010
,
0100
0010
0001
0010
0100
1000
0001
0100
0010
0100
0001
1000
0100
0010
0100
1000
,
0000
1000
0001
0100
0010
1000
0001
0100
0010
1000
0100
0010
0100
1000
0001
0100
,
0010
1000
0100
1000
0001
0100
0010
1000
0100
1000
0100
0010
0001
0010
0100
1000
,
0001
0100
0010
0100
0001
1000
0100
1000
0001
0010
0100
1000
0001
0100
0010
1000
,
0100
0010
0001
1000
0010
0100
0001
0100
0010
1000
0100
1000
0001
0100
0010
0100
,
0020
0030
2002
3003
,
1000
0100
1000
0001
0100
0010
1000
0100
1000
0100
0010
0001
0100
0010
0100
0001
,
2000
0000
3000
0000
0001
0010
0100
1000
0001
0010
0100
1000
0100
0010
0001
1000
,
0100
0010
0001
0010
0100
1000
0001
0010
0100
1000
0100
0010
0001
0010
0100
1000
,
0001
0010
0100
1000
0001
0000
1000
0000
1100
0000
1000
0000
0011
0000
0100
0000
,
0110
1000
1100
1000
1010
0010
0110
0100
,
0102
0000
0003
0000
1000
0100
0010
0001
0010
0100
1000
0001
1000
0100
0010
0001
,
2000
0000
0000
0000
3001
0010
0100
1000
0100
0010
0001
1000
0001
0010
0100
1000
,
0002
0000
0103
0000
0010
1000
0100
1000
,
1002
0103
1020
0130
,
1100
0011
0101
1010
,
0020
0000
1030
0000
1100
0100
0010
0001
,
0101
0000
1001
0000
0011
0001
0010
0100
,
1100
0011
0101
1010
,
1000
0000
0000
0000
1000
0100
0010
0001
0020
0000
0000
0000
0000
0000
0001
0000
,
0032
0010
1000
0103
,
1020
0000
0000
0000
1030
0000
0000
0000
1100
0000
0000
1000
0100
0000
0000
0010
,
0001
0000
0000
0000
0102
0000
0000
0000
0003
1000
0100
0010
0001
0100
0010
1000
,
0020
0000
0000
0000
1030
0000
0000
1000
0100
0000
0000
0100
0010
0000
0000
0010
,
0002
1000
0203
0001
,
0320
0000
1030
0000
1100
0100
0010
0001
,
0101
0011
1100
1010
,
1000
0000
0000
0000
1000
0001
0010
0100
2000
0000
0000
0000
0000
0000
0010
0000
,
3010
1100
0011
0101
,
0010
0100
0010
1000
0010
0100
0010
1000
0010
0100
0010
1000
0010
0100
0010
1000
0001
0010
0001
0100
0001
0010
0001
0100
0001
0010
0001
0100
0001
0010
0001
0100
,
0001
0010
0001
0010
0100
1000
0100
1000
0001
1000
0001
1000
0010
0100
0010
0100
,
0001
0100
0001
0100
0010
1000
0010
1000
0100
0010
0100
0010
0001
0100
0020
0000
,
0030
0010
1000
0100
1000
0100
0010
0001
0100
0010
0100
0001
1000
0100
0010
0001
,
0000
0001
0100
0010
0100
0001
1000
0100
0010
0100
1000
0001
0100
0010
0100
0001
,
0000
1000
0100
1000
0001
0100
0010
0100
0010
1000
0100
0010
0001
0010
0001
0100
,
0001
0100
0010
1000
0100
1000
0001
0100
0010
1000
0100
0010
0100
0010
0001
0100
,
0000
0100
0010
1000
0100
0010
0100
0010
0001
0100
0001
1000
0010
0100
0001
1000
,
0100
1000
0001
0100
0001
1000
0100
0010
0001
0100
0010
0100
0001
1000
0100
1000
,
0000
1000
0001
0100
0010
0100
0001
1000
0100
0010
0100
0010
0001
0100
0010
0100
,
0010
1000
0100
1000
0001
0100
0010
0100
0001
0010
0100
1000
0100
0010
0001
0100
,
0010
1000
0001
0100
0010
1000
0100
1000
0001
0010
0100
0010
0001
0100
0010
1000
,
0001
0100
0001
1000
0100
0010
0001
0100
0010
1000
0001
0100
0010
0100
0001
1000
,
0200
0300
2002
3003
,
1000
0100
0010
0100
1000
0001
0100
0010
0100
0010
1000
0001
0100
0010
0100
0001
,
2000
0000
0000
0000
3001
0010
0001
0010
0100
1000
0100
1000
0010
1000
0010
1000
,
0001
0100
0001
0100
0001
1000
0001
1000
0010
0100
0010
0100
0001
0010
0001
0010
,
0001
1000
0001
0100
0001
0010
0001
0100
0001
1000
0001
0100
0001
0010
0001
0100
,
0001
1000
0010
0100
0001
1000
0010
0100
0001
0010
0100
1000
0001
0010
0100
1000
,
0001
1000
0001
0100
0001
0010
0001
0100
0001
1000
0001
0100
0001
0010
0001
0100
,
0001
1000
0010
1000
0100
1000
0001
1000
0010
1000
0100
1000
0001
1000
0010
1000
,
0001
0010
0001
0100
0001
1000
0001
0010
0001
0100
0001
1000
0001
0010
0001
0100
,
0001
1000
0010
1000
0100
1000
0001
1000
0010
1000
0100
1000
0001
1000
0010
1000
,
0010
0100
0001
0100
1000
0100
0010
0100
0001
0100
1000
0100
0010
0100
0001
0100
,
0010
1000
0010
0100
0010
0001
0010
0100
0010
1000
0010
0100
0010
0001
0010
0100
,
0001
1000
0100
1000
0100
0010
0001
0100
0010
1000
0100
1000
0001
0100
0010
0100
,
0001
1000
0001
0100
0010
0100
0001
1000
0100
1000
0001
0100
0010
0100
0001
1000
,
0100
1000
0001
0100
0010
0100
0001
1000
0100
0010
0001
0010
0001
0100
0010
1000
,
0001
0100
0010
1000
0100
0010
0100
1000
0001
0100
0010
1000
0001
0100
0001
1000
,
2200
0000
0000
0000
,
0000
0000
0000
0000
,
0000
0000
0000
0000
,
3300
0000
0000
0000
;

//---------------dance-single - ----------------
#NOTES:
     dance-single:
     :
     Hard:
     10:
     0.801,0.990,0.353,0.353,0.338,624.000,45.000,45.000,0.000,0.000:
0002
0000
0103
0000
0000
0010
0200
0000
0320
0000
1030
0000
0000
0100
2000
0000
,
3002
0000
0103
0000
0010
1000
0100
0000
,
2000
0000
3001
0000
0100
0010
1000
0100
,
0000
1000
0100
0000
0010
0000
0001
0000
0100
0000
0010
0000
1000
0000
0100
1000
,
0000
0001
0100
0000
0010
0000
0100
0000
0001
0000
1000
0000
0100
0000
0010
0001
,
0000
0001
0100
0000
0010
0000
1000
0000
0100
0000
0010
0000
0100
0000
1000
0000
,
0001
0000
0100
0000
0010
0000
1000
0000
0001
0000
0100
0000
0010
0100
0010
0100
,
0000
0010
1000
0000
0100
0000
0010
0000
0100
0000
1000
0000
0001
0000
0100
0010
,
0000
0010
1000
0000
0100
0000
1000
0000
0001
0000
0100
0000
0010
0000
0100
0001
,
0100
0010
1000
0100
0010
0100
1000
0001
,
0101
0000
1010
1000
1100
0000
0011
0000
,
1000
0010
1000
0000
0001
0010
0001
0000
,
1000
0100
1000
0000
0001
0100
0001
0000
,
1000
0001
1000
0000
0001
1000
0001
0000
,
0100
0010
0100
0000
0010
0100
0010
0000
,
1000
0001
0100
0010
0100
0001
1000
0100
,
0010
0001
0100
0010
1000
0001
0100
0010
,
1000
0010
0100
0001
1000
0100
0010
0001
,
0101
0100
0110
0010
1010
1000
1100
0100
,
0010
0001
0100
0010
1000
0100
1000
0001
0100
0010
0100
0001
1000
0100
0010
0001
,
0100
0010
1000
0100
0010
0100
1000
0001
0100
0010
1000
0100
0010
0001
0100
0010
,
0000
0100
0010
0000
1000
0000
0100
0000
0010
0000
0100
0000
1000
0000
0001
0100
,
0000
0100
0010
0000
1000
0000
0001
0000
0100
0000
1000
0000
0100
0000
0001
0010
,
0000
0010
0100
0000
1000
0000
0001
0000
0100
0000
0010
0000
1000
0000
0001
0000
,
0100
0000
0001
0000
1000
0000
0100
0000
0010
0000
0001
0000
0100
0010
0100
0010
,
0000
0100
0001
0000
1000
0000
0100
0000
0010
0000
0001
0000
0100
0000
0010
0000
,
1000
0000
0100
0000
1000
0000
0001
0000
0100
0000
0010
0000
1000
0100
1000
0100
,
0000
1000
0001
0000
0100
0000
0010
0000
1000
0000
0100
0000
1000
0000
0001
0000
,
0100
0000
0010
0000
1000
0000
0100
0000
0010
0000
0001
0000
0100
0001
0100
0001
,
0100
0010
0100
0000
0001
0000
1000
0000
0100
0000
0010
0000
0001
0000
0100
0000
,
0010
0100
0010
0000
1000
0000
0100
0000
1000
0000
0001
0000
0100
0000
0010
0000
,
0102
0103
2002
0000
,
0000
0000
0000
3003
,
1001
0000
0000
0000
1000
0010
1000
0000
0001
0100
0001
0000
1000
0100
1000
0000
,
0001
0010
0001
0000
1000
0001
1000
0000
0001
1000
0001
0000
0100
0010
0100
0000
,
0001
1000
0100
1000
0001
0100
0010
1000
,
0100
0010
0001
0100
0010
0100
0001
1000
,
2100
0000
3001
0100
0010
0100
0001
1000
,
2100
0000
3001
1000
0010
0100
0001
0010
,
1200
0000
1300
0000
0001
0100
0010
1000
,
2100
3001
0102
0013
,
1001
1100
0011
0101
,
2001
0000
3100
0000
0001
0100
0010
1000
,
1020
0000
1030
0000
0001
1000
0100
0010
,
0012
1003
0120
1030
,
1020
0000
0130
0001
2000
0000
0000
0100
,
3100
1100
0001
0101
,
1002
0000
0000
0000
0103
0000
0000
0000
0010
0000
0000
1000
0100
0000
0000
0010
,
0001
0000
1002
0000
0000
0103
0010
1000
,
1200
0000
0000
0000
0300
0000
0000
1000
0100
0000
0000
0010
0001
0000
0000
1000
,
0020
0000
0130
0000
2001
0000
3010
0100
,
0001
1000
1200
0000
1300
0001
0100
0010
,
0200
0302
2003
3200
,
0320
0000
0031
0100
0120
0000
0000
1000
,
1030
1100
0001
0101
,
1001
0000
1000
0000
1100
0000
0010
0000
0001
0100
0001
0010
0001
1000
0001
0100
,
0020
2030
3200
0320
,
0031
0100
0010
1000
0100
0010
0001
0100
,
0000
0010
1000
0000
0100
0000
0010
0000
0001
0000
0100
0000
0010
0000
1000
0100
,
0000
0100
0010
0000
0001
0000
1000
0000
0001
0000
0100
0000
0010
0000
1000
0100
,
0000
0100
1000
0000
0001
0000
0100
0000
0010
0000
1000
0000
0100
0000
0010
0000
,
0100
0000
1000
0000
0001
0000
0100
0000
0010
0000
1000
0000
0001
0100
0001
0100
,
0000
0010
1000
0000
0100
0000
1000
0000
0001
0000
0100
0000
0010
0000
1000
0000
,
0100
0000
0010
0000
0001
0000
0100
0000
0010
0000
0100
0000
0001
1000
0001
1000
,
0000
1000
0100
0000
0010
0000
0001
0000
0100
0000
0010
0000
0100
0000
0001
0000
,
1000
0000
0100
0000
0010
0000
0001
0000
0100
0000
0010
0000
0100
0001
0100
0001
,
0100
0010
0100
0000
0001
0000
1000
0000
0010
0000
0100
0000
0001
0000
1000
0000
,
0100
1000
0100
0000
0010
0000
0001
0000
0100
0000
0010
0000
1000
0000
0001
0000
,
0201
0310
2002
0000
,
0000
0000
0000
3003
,
1001
0000
0000
0000
1000
0001
1000
0000
0001
0100
0001
0000
0100
0010
0100
0000
,
0010
1000
0010
0000
1000
0100
1000
0000
0001
0010
0001
0000
0100
0010
0100
0000
,
0010
1000
0100
0010
0001
0100
0010
1000
,
0001
0100
0010
1000
0100
0010
0001
0100
,
0001
1000
0010
0100
0001
1000
0100
0010
,
0100
1000
0001
0100
0010
0100
0001
1000
,
2100
0001
0010
3001
,
0102
0010
1000
0013
,
2001
0010
0100
3010
,
1002
0100
0010
0103
,
0001
1000
0100
0010
0001
0100
0001
1000
,
0010
0100
0001
1000
0100
0010
0001
0100
,
0010
1000
0001
0100
0010
1000
0100
0010
,
0001
0100
0001
0000
0100
0010
0100
0000
0010
1000
0010
0000
1000
0100
1000
0000
,
2002
0000
0000
0000
,
0000
0000
0000
0000
,
0000
0000
0000
0000
,
3003
0000
0000
0000
;

//---------------dance-single - ----------------
#NOTES:
     dance-single:
     :
     Medium:
     8:
     0.727,0.717,0.322,0.840,0.106,500.000,41.000,107.000,0.000,0.000:
0002
0100
0000
0103
0020
1000
0000
1030
,
0200
0000
1300
0000
0001
0100
0010
0000
,
2000
0000
3100
0000
1000
0001
0100
0010
,
0000
0000
1000
0000
0001
0000
0100
0000
0010
0000
1000
0000
0002
0000
0000
1003
,
0000
0000
0001
0000
0100
0000
0010
0000
1000
0000
0001
0000
0200
0000
0000
0310
,
0000
1000
0100
0010
0100
1000
0001
0100
,
0010
0000
1000
0000
0001
0000
0100
0000
0010
0000
1000
0000
0200
0000
0000
1300
,
0000
0000
1000
0000
0001
0000
0100
0000
0001
0000
0010
0000
0200
0000
0000
1300
,
0000
0000
1000
0000
0010
0000
0100
0000
0001
0000
1000
0000
0200
0000
0000
1300
,
0000
1000
0010
0100
0001
1000
0100
0010
,
0001
0100
0010
1000
0001
0100
0010
1000
,
2100
3001
0102
1003
,
2010
3001
0012
1003
,
2001
3010
1002
0103
,
0120
1030
0210
0301
,
2010
0000
0100
0000
3001
0100
0010
0000
,
0102
0000
0010
0000
1003
0100
0010
0000
,
2001
0000
0010
0000
3100
1000
0001
0000
,
0100
0010
1000
0010
0100
0001
0200
0000
,
0310
0000
2000
0000
0000
3001
0100
0010
0100
0000
0002
0000
0000
1003
0010
0100
,
0010
0000
2000
0000
0000
3100
0010
0001
0100
0000
0020
0000
0000
1030
0100
0010
,
0000
0000
0001
0000
0100
0000
0010
0000
1000
0000
0001
0000
0200
0000
0000
0310
,
0000
0000
1000
0000
0001
0000
0100
0000
0010
0000
1000
0000
0200
0000
0000
0310
,
0000
0001
0010
0100
0010
0001
0100
0010
,
1000
0000
0001
0000
0100
0000
0010
0000
1000
0000
0100
0000
0020
0000
0000
0031
,
0000
1000
0010
0100
0001
1000
0100
1000
,
0002
0000
0000
0203
0000
0000
0310
0000
0200
0000
0000
0302
0000
0000
1003
0000
,
0100
0010
0001
0100
0010
1000
0001
0100
,
0020
0000
0000
2030
0000
0000
3100
0000
0020
0000
0000
0032
0000
0000
0103
0000
,
0010
1000
0100
0010
0100
1000
0001
0100
,
0010
0100
0001
0010
0100
1000
0100
1000
,
2001
3001
2002
0000
,
0000
0000
0000
3003
,
1001
1100
0011
0101
,
1010
0110
1100
0101
,
1001
0100
1000
0100
0010
0001
0010
0001
,
1000
0010
1000
0010
0100
0001
0100
0001
,
2000
0000
3100
0010
0002
0000
0203
0000
,
0320
0000
1030
0001
0200
0000
0320
0000
,
2030
3100
2000
3020
,
0230
0301
2000
3100
,
0002
0203
0320
2030
,
3100
0000
1100
0000
0002
0000
1003
0010
,
0200
0000
0320
0000
2030
0000
3001
0100
,
0020
2030
3002
0203
,
0302
0000
1003
0100
0020
0000
0000
0001
,
0031
0101
1001
1100
,
2000
0000
3200
0000
2300
0000
3001
0100
,
0020
0000
2030
0000
0000
3100
0010
0001
,
0200
0000
0310
0000
1000
0001
0100
0010
,
2000
3100
0012
0103
,
1001
0000
1100
0000
0010
0001
0100
0010
,
2000
3020
0230
0302
,
2003
0000
3100
0010
0002
0000
0000
0100
,
0203
0010
0001
0010
,
0301
0100
0010
1000
0100
1000
0001
0100
,
0020
1030
0002
0103
,
0002
1003
0200
0310
,
0001
0000
0100
0000
0010
0000
1000
0000
0001
0000
0100
0000
0020
0000
0000
0130
,
0000
0000
0100
0000
0010
0000
1000
0000
0100
0000
1000
0000
0002
0000
0000
0103
,
0000
0010
1000
0001
1000
0100
0010
0001
,
0100
0000
0010
0000
1000
0000
0010
0000
0100
0000
0001
0000
2000
0000
0000
3100
,
0000
1000
0001
0100
0010
1000
0100
0010
,
0002
0000
0000
2003
0000
0000
3100
0000
0020
0000
0000
0032
0000
0000
1003
0000
,
0010
0100
0001
1000
0100
0010
0001
1000
,
0020
0000
0000
0230
0000
0000
0301
0000
2000
0000
0000
3200
0000
0000
0310
0000
,
0012
0000
0103
0010
1000
0100
0010
0001
,
0102
0000
1003
0010
0100
0001
1000
0100
,
2100
3010
2002
0000
,
0000
0000
0000
3003
,
1001
0000
1000
0001
0100
0010
1000
0100
,
0010
0001
0100
0010
1000
0001
0100
0010
,
0100
0001
1000
0100
1000
0001
0100
0010
,
1000
0100
0010
0001
0100
0010
0100
0001
,
1000
0001
0100
0010
1000
0100
0010
0001
,
0100
0010
0100
0001
1000
0001
0100
0010
,
0102
0000
1003
0000
1000
0001
0100
0000
,
1002
0000
0013
0000
0100
0010
1000
0000
,
2100
0000
3010
0000
0100
0001
1000
0000
,
0012
0000
0103
0000
0010
1000
0100
0000
,
1002
1003
2001
3001
,
1000
0010
0100
0001
1000
0100
0010
0000
,
1000
0001
0100
0010
1000
0100
0010
0000
,
0001
0100
0010
1000
0001
0100
0010
1000
,
2002
0000
0000
0000
,
0000
0000
0000
0000
,
0000
0000
0000
0000
,
3003
0000
0000
0000
;

//---------------dance-single - ----------------
#NOTES:
     dance-single:
     :
     Easy:
     5:
     0.408,0.444,0.039,0.455,0.000,301.000,5.000,58.000,0.000,0.000:
0002
0100
0103
0000
2000
0100
3100
0000
,
0002
0000
2003
0000
,
3020
0000
2030
0000
,
3001
0100
0001
1000
,
0001
0100
0010
1000
,
0100
1000
0100
0010
,
0100
1000
0001
0100
,
0010
1000
0010
0100
,
0010
1000
0100
0010
,
0001
0100
0010
1000
,
0001
0010
0100
1000
,
0002
0000
1000
1003
,
0020
0000
0100
0130
,
0002
0000
0010
0013
,
0200
0000
1000
1300
,
0001
1000
0010
0100
,
0001
1000
0100
0010
,
0100
1000
0001
0100
,
0010
1000
1000
1000
,
0002
0203
0320
2030
,
3002
2003
3200
0320
,
0031
0100
0010
1000
,
0001
1000
0001
0100
,
0001
1000
0100
0010
,
0001
1000
0001
0100
,
0010
1000
0100
0010
,
0001
0100
0010
1000
,
0001
0010
0100
1000
,
0001
0100
0010
1000
,
0001
1000
0100
1000
,
0010
1000
0001
1000
,
2002
3003
2002
0000
,
0000
0000
0000
0000
,
3003
1000
0001
0100
,
0010
1000
0100
0010
,
0001
0001
0001
0010
,
0001
1000
0001
0001
,
0100
0010
1000
0100
,
1000
0100
0010
0100
,
1000
0001
0100
0100
,
0020
0000
2030
0000
,
3001
1000
0100
1000
,
0002
0000
0203
0000
,
0310
1000
0001
0100
,
0010
1000
0100
0010
,
0020
0000
0001
0000
,
0031
0100
0010
1000
,
0200
0000
1300
0001
,
0100
0020
0000
1030
,
0200
0000
0310
0001
,
0100
0010
2000
0000
,
3100
1000
0100
1000
,
2000
3200
2300
3002
,
0203
0000
0320
0000
,
1030
0001
0100
0010
,
2000
0000
3002
0000
0103
0010
1000
0100
,
1000
0001
0100
0010
,
1000
0100
1000
0001
,
0100
0010
1000
0100
,
1000
0001
0100
0010
,
1000
0100
0010
0001
,
0010
0100
1000
0001
,
0100
0010
1000
0100
,
1000
0001
1000
0010
,
0100
0001
0010
0001
,
1000
0001
0100
0001
,
0010
0100
1000
0001
,
0100
0010
1000
0001
,
2002
3003
2002
0000
,
0000
0000
0000
0000
,
3003
1000
0001
0100
,
0010
1000
0100
0010
,
0001
1000
0001
0100
,
0001
1000
0001
0010
,
0100
1000
0001
0100
,
0010
1000
0100
0010
,
0002
0000
0100
0100
,
0203
0320
2030
3200
,
0320
0000
0001
0031
,
0002
0000
0100
0103
,
0200
0000
0320
0000
,
2030
0000
3200
0320
,
0032
0100
0100
0103
,
0010
1000
0100
0010
,
2002
0000
0000
0000
,
0000
0000
0000
0000
,
0000
0000
0000
0000
,
3003
0000
0000
0000
;

//---------------dance-single - ----------------
#NOTES:
     dance-single:
     :
     Beginner:
     3:
     0.257,0.342,0.039,0.463,0.000,165.000,5.000,59.000,0.000,0.000:
0002
0003
2000
3000
,
0002
0000
2003
0000
,
3002
0000
2003
0000
,
3010
0000
0100
0000
,
0010
0000
0100
0000
,
0001
0000
1000
0000
,
0010
0000
0100
0000
,
0010
0000
1000
0000
,
0100
0000
1000
0000
,
0001
0000
0100
0000
,
0001
0000
0010
0000
,
0001
0000
1000
0000
,
0001
0000
1000
0000
,
0010
0000
0100
0000
,
0001
0000
0100
0000
,
0010
0000
1000
0000
,
0100
0000
1000
0000
,
0010
0000
0100
0000
,
0001
0000
1000
0000
,
0200
0000
2300
0000
,
3002
0000
0203
0000
,
0310
0000
0100
0000
,
0010
0000
0100
0000
,
0001
0000
1000
0000
,
0001
0000
1000
0000
,
0100
0000
1000
0000
,
0001
0000
0100
0000
,
0010
0000
1000
0000
,
0100
0000
0010
0000
,
0001
0000
1000
0000
,
0001
0000
1000
0000
,
1001
0000
2002
0000
,
0000
0000
0000
0000
,
3003
1000
0000
0001
,
0000
0100
0000
0010
,
0010
0000
1000
0000
,
0010
0000
0100
0000
,
0001
0000
1000
0000
,
0001
0000
0010
0000
,
0200
0000
1300
0000
,
0002
0000
1003
0000
,
0020
0000
0130
0000
,
0002
0000
1003
0000
,
0200
0000
0310
0000
,
0002
0000
0103
0000
,
0020
0000
1030
0000
,
0002
0000
0103
0000
,
0020
0000
0130
0000
,
0002
0000
1003
0000
,
0020
0000
0130
0000
,
2000
0000
3001
0000
,
0200
0000
0310
0000
,
2000
0000
3001
0000
,
2000
0000
3010
0000
,
0200
0000
0302
0000
,
2003
0000
3002
0000
,
2003
0000
3020
0000
,
0230
0000
0302
0000
,
1003
0000
0100
0000
,
1000
0000
0010
0000
,
0100
0000
0001
0000
,
1000
0000
0100
0000
,
0010
0000
0001
0000
,
0100
0000
0010
0000
,
1000
0000
0001
0000
,
0100
0000
0010
0000
,
1000
0000
0001
0000
,
0100
0000
0010
0000
,
1001
0000
2002
0000
,
0000
0000
0000
0000
,
3003
1000
0000
0001
,
0000
0100
0000
0010
,
0010
0000
1000
0000
,
0001
0000
0100
0000
,
0020
0000
2030
0000
,
3002
0000
2003
0000
,
3020
0000
0230
0000
,
0302
0000
2003
0000
,
3200
0000
0320
0000
,
0032
0000
2003
0000
,
3020
0000
0230
0000
,
0302
0000
2003
0000
,
3002
0000
0203
0000
,
0320
0000
2030
3000
,
2002
0000
0000
0000
,
0000
0000
0000
0000
,
0000
0000
0000
0000
,
3003
0000
0000
0000
;
