#TITLE:Orbital Strike;
#SUBTITLE:~prepare for liftoff edition~;
#ARTIST:Helblinde;
#TITLETRANSLIT:;
#SUBTITLETRANSLIT:;
#ARTISTTRANSLIT:;
#CREDIT:;
#BANNER:../ban - Jawn2.png;
#BACKGROUND:../Jawn2 - bg.png;
#LYRICSPATH:;
#CDTITLE:../CDa.png;
#MUSIC:Orbital Strike.ogg;
#OFFSET:1.076;
#SAMPLESTART:115.170;
#SAMPLELENGTH:17.070;
#SELECTABLE:YES;
#DISPLAYBPM:225.000;
#BPMS:0.000=225.037,296.000=225.038;
#STOPS:;
#BGCHANGES:;
// cache tags:
#FIRSTBEAT:8.000;
#LASTBEAT:604.000;
#SONGFILENAME:Songs/Jimmy Jawns 2/Orbital Strike - [Zaia & Aoreo]/Orbital Strike.sm;
#HASMUSIC:1;
#HASBANNER:1;
#MUSICLENGTH:164.281;
// end cache tags

//---------------dance-single - 4/32/14-32----------------
#NOTES:
     dance-single:
     4/32/14-32:
     Challenge:
     18:
     1.000,1.000,0.006,0.055,1.000,1808.000,1.000,9.000,0.000,0.000:
0000
0000
0000
0000
,
0000
0000
0000
0000
,
0002
0000
0000
0000
0013
0100
1000
0001
1000
0000
0100
0000
0010
0000
0100
0000
,
1000
0001
0000
0000
,
0100
0010
1000
0000
0001
0000
1000
0000
,
0000
0000
0000
0000
,
0200
0000
0000
0000
0310
0001
1000
0001
1000
0000
0010
0000
0100
0000
0001
0000
,
0010
0001
0000
0000
,
1000
0010
0100
0000
0001
0000
1000
0000
,
0000
0000
0000
0000
,
0002
0000
0000
0000
0013
0100
0010
0100
1000
0000
0001
0000
0100
0000
0010
0000
,
1000
0001
0010
0100
,
1000
0001
0100
0000
0010
0000
1000
0000
,
0001
0100
0001
0010
,
0100
1000
0001
0100
0010
1000
0010
1000
0100
0010
0001
1000
0001
0010
0001
0010
,
0100
1000
0010
1000
0001
0100
0001
0100
0010
1000
0001
0010
0100
1000
0100
1000
,
0010
0100
0001
0010
0001
0100
0010
1000
0100
0010
0100
1000
0010
0100
0001
0010
,
0100
1000
0010
0100
0010
1000
0100
0010
0001
0100
0010
0100
0001
0010
0001
1000
,
0100
0000
0000
1000
,
0001
0100
0010
1000
0001
1000
0100
1000
0001
0100
0010
1000
0100
0010
0001
1000
,
0001
0100
0010
0100
0001
1000
0100
1000
0001
1000
0010
0100
0001
0010
0100
1000
,
0010
0100
0001
0010
0001
0100
0010
1000
0001
0010
0100
1000
0010
0100
0001
1000
,
0001
0010
0100
0010
0001
1000
0010
1000
0001
1000
0100
0010
0001
0100
0010
1000
,
0100
0010
0001
0100
0001
0010
0100
1000
0001
0100
0010
1000
0100
0010
0001
1000
,
0001
0100
0010
0100
0001
1000
0100
1000
0001
1000
0010
0100
0001
0010
0100
1000
,
0010
0100
0010
1000
0100
1000
0010
0100
0001
1000
0100
0010
0001
0100
0010
1000
,
0001
1000
0100
0010
0100
1000
0001
0100
0001
1000
0001
0010
0100
1000
0010
0100
,
0001
0010
0100
1000
0010
1000
0100
0010
0001
1000
0010
0100
0001
0010
0100
1000
,
0001
1000
0010
0100
0010
1000
0001
0010
0001
1000
0001
0100
0010
1000
0100
0010
,
0001
0100
0010
1000
0100
1000
0010
0100
0001
1000
0100
0010
0001
0100
0010
1000
,
0001
1000
0100
0010
0100
1000
0001
0100
0001
1000
0001
0010
0100
1000
0010
0100
,
0001
0010
0100
1000
0010
1000
0100
0010
0001
1000
0010
0100
0001
0010
0100
1000
,
0001
1000
0010
0100
0010
1000
0001
0010
0001
1000
0001
0100
0010
1000
0100
0010
,
0001
0100
0010
0100
0001
0010
0001
0100
0010
1000
0001
0010
0100
1000
0010
0100
,
0001
1000
0001
0010
0100
0010
0001
1000
0010
1000
0001
1000
0100
0010
0001
0100
,
0001
1000
0100
1000
0001
0100
0010
1000
0001
0010
0100
1000
0010
0100
0001
1000
,
0001
0010
0100
0010
0001
1000
0010
1000
0001
1000
0100
0010
0001
0100
0010
1000
,
0100
0010
0001
0100
0001
0010
0100
1000
0001
0100
0010
1000
0100
0010
0001
1000
,
0001
0100
0010
0100
0001
1000
0100
1000
0001
1000
0010
0100
0001
0010
0100
1000
,
0010
0100
0001
0010
0001
0100
0010
1000
0001
0010
0100
1000
0010
0100
0001
1000
,
0001
0010
0100
0010
0001
1000
0010
1000
0001
1000
0100
0010
0001
0100
0010
1000
,
0100
0010
0100
1000
0010
1000
0100
0010
0001
1000
0010
0100
0001
0010
0100
1000
,
0001
1000
0010
0100
0001
1000
0100
0010
0001
1000
0001
0100
0001
0010
0001
1000
,
0010
0100
0010
1000
0100
1000
0010
0100
0001
1000
0100
0010
0001
0100
0010
1000
,
0001
1000
0100
0010
0100
1000
0001
0100
0001
1000
0001
0010
0100
1000
0010
0100
,
0001
0010
0100
1000
0010
1000
0100
0010
0001
1000
0010
0100
0001
0010
0100
1000
,
0001
1000
0010
0100
0010
1000
0001
0010
0001
1000
0001
0100
0010
1000
0100
0010
,
0001
0100
0010
1000
0100
1000
0010
0100
0001
1000
0100
0010
0001
0100
0010
1000
,
0001
1000
0100
0010
0100
1000
0001
0100
0001
1000
0001
0010
0100
1000
0010
0100
,
0001
0010
0100
0010
0001
0100
0001
0010
0100
1000
0001
0100
0010
1000
0100
0010
,
0001
1000
0001
0100
0010
0100
0001
1000
0100
1000
0001
1000
0010
0100
0001
0010
,
0100
0000
0000
0000
,
0000
0000
0000
0000
,
1000
0000
0001
0000
0010
0000
0001
1000
0001
0100
0010
0000
0100
0000
0001
1000
,
0100
0000
0010
0000
0100
0000
1000
0010
1000
0001
0100
0000
0010
1000
0001
1000
,
0100
0000
0010
0000
0100
0000
1000
0100
1000
0001
0100
0000
0010
0000
1000
0100
,
0010
0000
0001
0000
0100
0000
0001
0000
0020
0000
0000
0230
0000
0000
2300
0000
,
3001
0000
0100
0000
0010
0000
1000
0001
1000
0100
0010
0000
0001
0000
1000
0010
,
0100
0000
0001
0000
0010
0000
0100
1000
0001
0100
0001
0000
1000
0100
1000
0001
,
0100
0000
0010
0000
1000
0000
0001
0100
0001
0010
0100
0000
1000
0000
0001
0100
,
0010
0000
1000
0000
0100
0000
0010
0001
1000
0001
0100
0000
0010
1000
0010
0100
,
0001
0000
0010
0000
0100
0000
1000
0100
1000
0001
0100
0000
0010
0000
1000
0100
,
0010
0000
0001
0000
0100
0000
0001
1000
0001
0010
0100
0000
1000
0001
0100
0010
,
0100
0000
0010
0000
1000
0000
0100
0010
0001
1000
0001
0000
0100
0000
0001
1000
,
0010
0000
1000
0000
0100
0000
0010
0001
0100
0001
1000
0000
0001
0100
0001
1000
,
0100
0000
0010
0000
0100
0000
1000
0001
1000
0010
0100
0000
0010
0000
0100
0001
,
1000
0000
0100
0000
0010
0000
0001
1000
0001
0100
0010
0000
1000
0001
1000
0100
,
0010
0000
0001
0000
0100
0000
0001
0100
0001
1000
0100
0000
0010
0000
0001
0100
,
0001
0000
1000
0000
0010
0000
1000
0001
1000
0100
0010
0000
0001
1000
0001
0100
,
0010
0000
1000
0000
0100
0000
0010
0100
1000
0001
1000
0000
0010
0000
0100
0001
,
1000
0000
0001
0000
0010
0000
0100
1000
0010
1000
0001
0000
1000
0010
0100
0001
,
1000
0000
0010
0000
0100
0000
0001
1000
0001
0010
0100
0000
1000
0000
0001
1000
,
0001
0000
0010
0000
0100
0000
1000
0001
1000
0010
0100
0000
0001
0010
0100
1000
,
0010
0000
0000
0000
,
0000
0000
0000
0000
,
0000
0000
0000
0000
,
0000
0000
0000
0000
,
1000
0010
0100
0001
1000
0001
0010
0100
1000
0001
1000
0001
0100
0010
1000
0000
,
0000
0000
0000
0000
,
0001
1000
0100
0010
0001
1000
0001
0100
0010
0100
0001
1000
0001
0100
0010
0000
,
0000
0000
0000
0000
,
1000
0001
1000
0001
0100
0010
0100
0001
0100
0001
1000
0100
0010
0001
1000
0000
,
0000
0000
0000
0000
,
0001
1000
0001
0100
0010
1000
0010
0100
0001
1000
0100
0010
0001
1000
0001
0000
,
1000
0000
0100
0010
0100
0000
1000
0000
0010
0000
0100
0000
0001
0000
0010
0000
,
0100
1000
0010
0100
0001
0100
0001
0010
,
0100
1000
0100
1000
0001
0100
0010
0100
,
0001
0010
0001
0010
0100
1000
0010
0100
,
0010
1000
0100
1000
0001
0010
0001
0100
,
0010
1000
0010
1000
0001
0100
0001
0100
,
0001
0010
0001
0010
0100
1000
0100
1000
,
0001
0010
0100
1000
0001
1000
0010
0100
0001
1000
0100
1000
0010
0100
0001
0010
,
0200
0000
0000
0300
,
1000
0100
0010
0100
1000
0010
0100
0001
1000
0100
1000
0001
0100
0001
0010
0001
,
1000
0010
0100
0010
1000
0001
1000
0100
0010
0001
0100
0001
1000
0100
0010
0100
,
1000
0010
0100
0001
1000
0001
0010
0100
1000
0010
1000
0001
0100
0001
0010
0001
,
1000
0010
0100
0001
0010
0100
1000
0001
0100
0010
1000
0100
1000
0010
1000
0001
,
0010
0100
0010
0001
0100
0010
1000
0001
0010
0001
1000
0010
1000
0100
1000
0001
,
0100
0010
0100
0001
1000
0001
0010
0100
1000
0010
1000
0001
0010
0100
0010
0001
,
0100
0010
1000
0001
1000
0100
0010
0001
0100
0001
1000
0010
1000
0100
1000
0001
,
0100
0010
0100
0010
1000
0001
1000
0001
0010
0100
1000
0001
1000
0100
0010
0100
,
1000
0001
0100
0010
1000
0100
0010
0001
1000
0010
1000
0001
0010
0001
0100
0001
,
1000
0100
0010
0100
1000
0001
1000
0010
0100
0001
0010
0001
1000
0010
0100
0010
,
1000
0100
0010
0001
1000
0001
0100
0010
1000
0100
1000
0001
0010
0001
0100
0001
,
1000
0100
0010
0001
0100
0010
1000
0001
0010
0100
1000
0010
1000
0100
1000
0001
,
0100
0010
0100
0001
0010
0100
1000
0001
0100
0001
1000
0100
1000
0010
1000
0001
,
0010
0100
0010
0001
1000
0001
0100
0010
1000
0100
1000
0001
0100
0010
0100
0001
,
0010
0000
0000
0100
0000
0000
1000
0000
0000
0001
0000
0000
1000
0000
0000
0000
,
0001
0000
0000
1000
0000
0000
0100
0000
0000
0010
0000
0000
0001
0000
0000
0000
,
1000
0001
0010
0001
0100
0001
1000
0100
1000
0010
1000
0001
0010
0001
0100
0001
,
0010
0100
1000
0010
0100
0001
0010
0001
0100
0001
1000
0010
1000
0100
1000
0010
,
0100
0010
1000
0100
1000
0001
0010
0001
1000
0010
1000
0100
1000
0001
0100
0001
,
0010
0100
1000
0010
1000
0001
0010
0001
0100
0001
1000
0100
1000
0010
1000
0001
,
0100
0010
1000
0100
1000
0001
0010
0001
0100
0001
1000
0010
1000
0100
1000
0001
,
0100
0001
0010
0001
1000
0100
1000
0010
1000
0001
0100
0001
0010
0001
1000
0010
,
1000
0100
0010
0001
0100
0010
0100
0001
0010
0100
1000
0010
1000
0100
0010
0001
,
1000
0010
0100
0001
0010
0100
0010
0001
0100
0010
1000
0100
1000
0010
0100
0001
,
0010
0001
1000
0100
1000
0010
1000
0001
0010
0001
0100
0001
1000
0100
1000
0010
,
0100
0010
1000
0100
1000
0001
0100
0001
0010
0001
1000
0010
1000
0100
1000
0001
,
0100
0010
0100
0001
0010
0001
1000
0010
1000
0100
1000
0001
0100
0001
0010
0001
,
0100
0010
0100
0001
0010
0001
1000
0010
1000
0100
1000
0001
0100
0001
0010
0001
,
1000
0100
0010
0001
0100
0010
0100
0001
0010
0100
1000
0010
0100
0010
1000
0100
,
0010
0100
1000
0010
0100
0001
0010
0100
0010
0001
0100
0010
1000
0100
0010
0100
,
1000
0010
1000
0001
0100
0001
0010
0001
1000
0100
1000
0010
1000
0001
0100
0001
,
0010
0100
1000
0001
1000
0001
0100
0010
1000
0100
1000
0001
0010
0001
0100
0010
,
1000
0100
0010
0001
1000
0001
0100
0001
1000
0100
0010
0001
0100
0010
1000
0001
,
1000
0100
0010
0100
1000
0001
0100
0001
1000
0001
0010
0100
1000
0010
0100
0001
,
0010
0100
1000
0010
1000
0100
0010
0001
1000
0010
0100
0001
0010
0100
1000
0001
,
1000
0010
0100
0010
1000
0001
0010
0001
1000
0001
0100
0010
1000
0100
0010
0001
,
0100
0010
1000
0100
1000
0010
0100
0001
1000
0100
0010
0001
0100
0010
1000
0001
,
1000
0100
0010
0100
1000
0001
0100
0001
1000
0001
0010
0100
1000
0010
0100
0001
,
0010
0100
0010
0001
0100
0001
0010
0100
1000
0001
0100
0010
1000
0100
0010
0001
,
1000
0001
0100
0010
0100
0001
1000
0100
1000
0001
1000
0010
0100
0001
0010
0100
,
1000
0010
0100
0001
0010
0001
0100
0010
1000
0001
0010
0100
1000
0010
0100
0001
,
1000
0001
0010
0100
0010
0001
1000
0010
1000
0001
1000
0100
0010
0001
0100
0010
,
1000
0100
0010
0001
0100
0001
0010
0100
1000
0001
0100
0010
1000
0100
0010
0001
,
1000
0001
0100
0010
0100
0001
1000
0100
1000
0001
1000
0010
0100
0001
0010
0100
,
1000
0010
0100
0001
0010
0001
0100
0010
1000
0001
0010
0100
1000
0010
0100
0001
,
1000
0001
0010
0100
0010
0001
1000
0010
1000
0001
1000
0100
0010
0001
0100
0010
,
1000
0100
0010
0100
1000
0010
1000
0100
0010
0001
1000
0010
0100
0001
0010
0100
,
1000
0001
1000
0010
0100
0010
1000
0001
0010
0001
1000
0100
1000
0010
0100
0001
,
1000
0100
0010
0001
0100
0001
1000
0010
,
1000
0100
1000
0001
0100
0010
1000
0100
,
1000
0010
0100
0001
0010
0100
1000
0010
,
1000
0100
0010
0001
0100
0010
0000
0100
,
0001
1000
0100
0010
0001
1000
0010
0100
,
0001
1000
0100
0010
0100
1000
0010
0100
,
0001
0010
0001
1000
0001
0100
0010
1000
0100
1000
0001
0010
0100
1000
0010
1000
,
0001
0000
0000
0010
0000
0000
0100
0000
0000
1000
0000
0000
0001
0000
0000
0000
,
0220
0000
0000
0000
,
0000
0000
0000
0000
,
0330
0000
0000
0000
;

//---------------dance-single - 4/16/32----------------
#NOTES:
     dance-single:
     4/16/32:
     Hard:
     17:
     1.000,1.000,0.006,0.055,1.000,1576.000,1.000,9.000,0.000,0.000:
0000
0000
0000
0000
,
0000
0000
0000
0000
,
0002
0000
0000
0000
0013
0100
1000
0001
1000
0000
0100
0000
0010
0000
0100
0000
,
1000
0001
0000
0000
,
0100
0010
1000
0000
0001
0000
1000
0000
,
0000
0000
0000
0000
,
0200
0000
0000
0000
0310
0001
1000
0001
1000
0000
0010
0000
0100
0000
0001
0000
,
0010
0001
0000
0000
,
1000
0010
0100
0000
0001
0000
1000
0000
,
0000
0000
0000
0000
,
0002
0000
0000
0000
0013
0100
0010
0100
1000
0000
0001
0000
0100
0000
0010
0000
,
1000
0001
0010
0100
,
1000
0001
0100
0000
0010
0000
1000
0000
,
0001
0100
0001
0010
,
0100
1000
0001
0100
0010
1000
0010
1000
0100
0010
0001
1000
0001
0010
0001
0010
,
0100
1000
0010
1000
0001
0100
0001
0100
0010
1000
0001
0010
0100
1000
0100
1000
,
0010
0100
0001
0010
0001
0100
0010
1000
0100
0010
0100
1000
0010
0100
0001
0010
,
0100
1000
0010
0100
0010
1000
0100
0010
0001
0100
0010
0100
0001
0010
0001
1000
,
0100
0000
0000
1000
,
0001
0100
0001
0010
0001
1000
0100
0010
,
0100
1000
0010
0100
0010
1000
0100
0010
,
0001
0100
0001
1000
0100
1000
0001
1000
,
0010
0100
0010
1000
0001
1000
0100
0010
,
0001
0100
0001
1000
0100
0010
0100
1000
,
0010
0100
0001
0100
0010
1000
0100
0010
,
0001
0100
0001
1000
0100
1000
0010
0100
,
0001
0100
0010
1000
0100
0010
0001
0100
,
0001
1000
0100
0010
0100
1000
0010
0100
,
0001
0100
0010
1000
0100
0010
0001
0100
,
0001
1000
0100
1000
0010
0100
0010
1000
,
0001
0010
0001
0100
0001
1000
0100
0010
,
0100
1000
0010
0100
0010
1000
0001
1000
,
0100
0010
0001
0100
0001
1000
0100
0010
,
0100
1000
0010
0100
0010
1000
0001
1000
,
0100
0010
0001
0100
0001
1000
0100
1000
,
0001
1000
0100
1000
0001
0100
0010
1000
0001
0010
0100
1000
0010
0100
0001
1000
,
0001
0010
0100
0010
0001
1000
0010
1000
0001
1000
0100
0010
0001
0100
0010
1000
,
0100
0010
0001
0100
0001
0010
0100
1000
0001
0100
0010
1000
0100
0010
0001
1000
,
0001
0100
0010
0100
0001
1000
0100
1000
0001
1000
0010
0100
0001
0010
0100
1000
,
0010
0100
0001
0010
0001
0100
0010
1000
0001
0010
0100
1000
0010
0100
0001
1000
,
0001
0010
0100
0010
0001
1000
0010
1000
0001
1000
0100
0010
0001
0100
0010
1000
,
0100
0010
0100
1000
0010
1000
0100
0010
0001
1000
0010
0100
0001
0010
0100
1000
,
0001
1000
0010
0100
0001
1000
0100
0010
0001
1000
0001
0100
0001
0010
0001
1000
,
0010
0100
0010
1000
0100
1000
0010
0100
0001
1000
0100
0010
0001
0100
0010
1000
,
0001
1000
0100
0010
0100
1000
0001
0100
0001
1000
0001
0010
0100
1000
0010
0100
,
0001
0010
0100
1000
0010
1000
0100
0010
0001
1000
0010
0100
0001
0010
0100
1000
,
0001
1000
0010
0100
0010
1000
0001
0010
0001
1000
0001
0100
0010
1000
0100
0010
,
0001
0100
0010
1000
0100
1000
0010
0100
0001
1000
0100
0010
0001
0100
0010
1000
,
0001
1000
0100
0010
0100
1000
0001
0100
0001
1000
0001
0010
0100
1000
0010
0100
,
0001
0010
0100
0010
0001
0100
0001
0010
0100
1000
0001
0100
0010
1000
0100
0010
,
0001
1000
0001
0100
0010
0100
0001
1000
0100
1000
0001
1000
0010
0100
0001
0010
,
0100
0000
0000
0000
,
0000
0000
0000
0000
,
1000
0000
0001
0000
0010
0000
0001
1000
0001
0100
0010
0000
0100
0000
0001
1000
,
0100
0000
0010
0000
0100
0000
1000
0010
1000
0001
0100
0000
0010
1000
0001
1000
,
0100
0000
0010
0000
0100
0000
1000
0100
1000
0001
0100
0000
0010
0000
1000
0100
,
0010
0000
0001
0000
0100
0000
0001
0000
0020
0000
0000
0230
0000
0000
2300
0000
,
3001
0000
0100
0000
0010
0000
1000
0001
1000
0100
0010
0000
0001
0000
1000
0010
,
0100
0000
0001
0000
0010
0000
0100
1000
0001
0100
0001
0000
1000
0100
1000
0001
,
0100
0000
0010
0000
1000
0000
0001
0100
0001
0010
0100
0000
1000
0000
0001
0100
,
0010
0000
1000
0000
0100
0000
0010
0001
1000
0001
0100
0000
0010
1000
0010
0100
,
0001
0000
0010
0000
0100
0000
1000
0100
1000
0001
0100
0000
0010
0000
1000
0100
,
0010
0000
0001
0000
0100
0000
0001
1000
0001
0010
0100
0000
1000
0001
0100
0010
,
0100
0000
0010
0000
1000
0000
0100
0010
0001
1000
0001
0000
0100
0000
0001
1000
,
0010
0000
1000
0000
0100
0000
0010
0001
0100
0001
1000
0000
0001
0100
0001
1000
,
0100
0000
0010
0000
0100
0000
1000
0001
1000
0010
0100
0000
0010
0000
0100
0001
,
1000
0000
0100
0000
0010
0000
0001
1000
0001
0100
0010
0000
1000
0001
1000
0100
,
0010
0000
0001
0000
0100
0000
0001
0100
0001
1000
0100
0000
0010
0000
0001
0100
,
0001
0000
1000
0000
0010
0000
1000
0001
1000
0100
0010
0000
0001
1000
0001
0100
,
0010
0000
1000
0000
0100
0000
0010
0100
1000
0001
1000
0000
0010
0000
0100
0001
,
1000
0000
0001
0000
0010
0000
0100
1000
0010
1000
0001
0000
1000
0010
0100
0001
,
1000
0000
0010
0000
0100
0000
0001
1000
0001
0010
0100
0000
1000
0000
0001
1000
,
0001
0000
0010
0000
0100
0000
1000
0001
1000
0010
0100
0000
0001
0010
0100
1000
,
0010
0000
0000
0000
,
0000
0000
0000
0000
,
0000
0000
0000
0000
,
0000
0000
0000
0000
,
1000
0010
0100
0001
1000
0001
0010
0100
1000
0001
1000
0001
0100
0010
1000
0000
,
0000
0000
0000
0000
,
0001
1000
0100
0010
0001
1000
0001
0100
0010
0100
0001
1000
0001
0100
0010
0000
,
0000
0000
0000
0000
,
1000
0001
1000
0001
0100
0010
0100
0001
0100
0001
1000
0100
0010
0001
1000
0000
,
0000
0000
0000
0000
,
0001
1000
0001
0100
0010
1000
0010
0100
0001
1000
0100
0010
0001
1000
0001
0000
,
1000
0000
0100
0010
0100
0000
1000
0000
0010
0000
0100
0000
0001
0000
0010
0000
,
0100
1000
0010
0100
0001
0100
0001
0010
,
0100
1000
0100
1000
0001
0100
0010
0100
,
0001
0010
0001
0010
0100
1000
0010
0100
,
0010
1000
0100
1000
0001
0010
0001
0100
,
0010
1000
0010
1000
0001
0100
0001
0100
,
0001
0010
0001
0010
0100
1000
0100
1000
,
0001
0010
0100
1000
0001
1000
0010
0100
0001
1000
0100
1000
0010
0100
0001
0010
,
0200
0000
0000
0300
,
1000
0100
1000
0010
0100
0010
1000
0001
,
1000
0100
0010
0001
0100
0001
1000
0001
,
0010
0100
1000
0010
1000
0001
1000
0100
,
0010
0001
0100
0001
1000
0001
0010
0100
,
1000
0010
0100
0001
0100
0010
1000
0100
,
0010
0100
1000
0001
1000
0100
0010
0001
,
0100
0001
1000
0100
0010
0100
1000
0010
,
1000
0001
1000
0100
0010
0001
1000
0001
0100
0010
0100
0001
1000
0100
0010
0100
,
1000
0001
0100
0001
1000
0100
0010
0100
,
1000
0001
1000
0100
1000
0010
0100
0001
,
1000
0100
1000
0010
0100
0001
0100
0010
,
1000
0001
1000
0100
0010
0001
0100
0001
,
1000
0001
0010
0100
1000
0010
0100
0001
,
1000
0100
0010
0100
1000
0001
0100
0010
,
1000
0000
0000
0100
0000
0000
0010
0000
0000
0001
0000
0000
1000
0000
0000
0000
,
0001
0000
0000
1000
0000
0000
0100
0000
0000
0010
0000
0000
0001
0000
0000
0000
,
1000
0001
0010
0001
0100
0001
1000
0100
1000
0010
1000
0001
0010
0001
0100
0001
,
0010
0100
1000
0010
0100
0001
0010
0001
0100
0001
1000
0010
1000
0100
1000
0010
,
0100
0010
1000
0100
1000
0001
0010
0001
1000
0010
1000
0100
1000
0001
0100
0001
,
0010
0100
1000
0010
1000
0001
0010
0001
0100
0001
1000
0100
1000
0010
1000
0001
,
0100
0010
1000
0100
1000
0001
0010
0001
0100
0001
1000
0010
1000
0100
1000
0001
,
0100
0001
0010
0001
1000
0100
1000
0010
1000
0001
0100
0001
0010
0001
1000
0010
,
1000
0100
0010
0001
0100
0010
0100
0001
0010
0100
1000
0010
1000
0100
0010
0001
,
1000
0010
0100
0001
0010
0100
0010
0001
0100
0010
1000
0100
1000
0010
0100
0001
,
0010
0001
1000
0100
1000
0010
1000
0001
0010
0001
0100
0001
1000
0100
1000
0010
,
0100
0010
1000
0100
1000
0001
0100
0001
0010
0001
1000
0010
1000
0100
1000
0001
,
0100
0010
0100
0001
0010
0001
1000
0010
1000
0100
1000
0001
0100
0001
0010
0001
,
0100
0010
0100
0001
0010
0001
1000
0010
1000
0100
1000
0001
0100
0001
0010
0001
,
1000
0100
0010
0001
0100
0010
0100
0001
0010
0100
1000
0010
0100
0010
1000
0100
,
0010
0100
1000
0010
0100
0001
0010
0100
0010
0001
0100
0010
1000
0100
0010
0100
,
1000
0010
1000
0001
0100
0001
0010
0001
1000
0100
1000
0010
1000
0001
0100
0001
,
0010
0100
1000
0001
1000
0001
0100
0010
1000
0100
1000
0001
0010
0001
0100
0010
,
1000
0100
0010
0001
1000
0001
0100
0001
1000
0100
0010
0001
0100
0010
1000
0001
,
1000
0100
0010
0100
1000
0001
0100
0001
1000
0001
0010
0100
1000
0010
0100
0001
,
0010
0100
1000
0010
1000
0100
0010
0001
1000
0010
0100
0001
0010
0100
1000
0001
,
1000
0010
0100
0010
1000
0001
0010
0001
1000
0001
0100
0010
1000
0100
0010
0001
,
0100
0010
1000
0100
1000
0010
0100
0001
1000
0100
0010
0001
0100
0010
1000
0001
,
1000
0100
0010
0100
1000
0001
0100
0001
1000
0001
0010
0100
1000
0010
0100
0001
,
0010
0100
0010
0001
0100
0001
0010
0100
1000
0001
0100
0010
1000
0100
0010
0001
,
1000
0001
0100
0010
0100
0001
1000
0100
1000
0001
1000
0010
0100
0001
0010
0100
,
1000
0010
0100
0001
0010
0001
0100
0010
1000
0001
0010
0100
1000
0010
0100
0001
,
1000
0001
0010
0100
0010
0001
1000
0010
1000
0001
1000
0100
0010
0001
0100
0010
,
1000
0100
0010
0001
0100
0001
0010
0100
1000
0001
0100
0010
1000
0100
0010
0001
,
1000
0001
0100
0010
0100
0001
1000
0100
1000
0001
1000
0010
0100
0001
0010
0100
,
1000
0010
0100
0001
0010
0001
0100
0010
1000
0001
0010
0100
1000
0010
0100
0001
,
1000
0001
0010
0100
0010
0001
1000
0010
1000
0001
1000
0100
0010
0001
0100
0010
,
1000
0100
0010
0100
1000
0010
1000
0100
0010
0001
1000
0010
0100
0001
0010
0100
,
1000
0001
1000
0010
0100
0010
1000
0001
0010
0001
1000
0100
1000
0010
0100
0001
,
1000
0100
0010
0001
0100
0001
1000
0010
,
1000
0100
1000
0001
0100
0010
1000
0100
,
1000
0010
0100
0001
0010
0100
1000
0010
,
1000
0100
0010
0001
0100
0010
0000
0100
,
0001
1000
0100
0010
0001
1000
0010
0100
,
0001
1000
0100
0010
0100
1000
0010
0100
,
0001
0010
0001
1000
0001
0100
0010
1000
0100
1000
0001
0010
0100
1000
0010
1000
,
0001
0000
0000
0010
0000
0000
0100
0000
0000
1000
0000
0000
0001
0000
0000
0000
,
0220
0000
0000
0000
,
0000
0000
0000
0000
,
0330
0000
0000
0000
;

//---------------dance-single - 4/16/16----------------
#NOTES:
     dance-single:
     4/16/16:
     Medium:
     16:
     1.000,1.000,0.006,0.055,1.000,1456.000,1.000,9.000,0.000,0.000:
0000
0000
0000
0000
,
0000
0000
0000
0000
,
0002
0000
0000
0000
0013
0100
1000
0001
1000
0000
0100
0000
0010
0000
0100
0000
,
1000
0001
0000
0000
,
0100
0010
1000
0000
0001
0000
1000
0000
,
0000
0000
0000
0000
,
0200
0000
0000
0000
0310
0001
1000
0001
1000
0000
0010
0000
0100
0000
0001
0000
,
0010
0001
0000
0000
,
1000
0010
0100
0000
0001
0000
1000
0000
,
0000
0000
0000
0000
,
0002
0000
0000
0000
0013
0100
0010
0100
1000
0000
0001
0000
0100
0000
0010
0000
,
1000
0001
0010
0100
,
1000
0001
0100
0000
0010
0000
1000
0000
,
0001
0100
0001
0010
,
0100
1000
0001
0100
0010
1000
0010
1000
0100
0010
0001
1000
0001
0010
0001
0010
,
0100
1000
0010
1000
0001
0100
0001
0100
0010
1000
0001
0010
0100
1000
0100
1000
,
0010
0100
0001
0010
0001
0100
0010
1000
0100
0010
0100
1000
0010
0100
0001
0010
,
0100
1000
0010
0100
0010
1000
0100
0010
0001
0100
0010
0100
0001
0010
0001
1000
,
0100
0000
0000
1000
,
0001
0100
0001
0010
0001
1000
0100
0010
,
0100
1000
0010
0100
0010
1000
0100
0010
,
0001
0100
0001
1000
0100
1000
0001
1000
,
0010
0100
0010
1000
0001
1000
0100
0010
,
0001
0100
0001
1000
0100
0010
0100
1000
,
0010
0100
0001
0100
0010
1000
0100
0010
,
0001
0100
0001
1000
0100
1000
0010
0100
,
0001
0100
0010
1000
0100
0010
0001
0100
,
0001
1000
0100
0010
0100
1000
0010
0100
,
0001
0100
0010
1000
0100
0010
0001
0100
,
0001
1000
0100
1000
0010
0100
0010
1000
,
0001
0010
0001
0100
0001
1000
0100
0010
,
0100
1000
0010
0100
0010
1000
0001
1000
,
0100
0010
0001
0100
0001
1000
0100
0010
,
0100
1000
0010
0100
0010
1000
0001
1000
,
0100
0010
0001
0100
0001
1000
0100
1000
,
0001
1000
0100
1000
0001
0100
0010
1000
0001
0010
0100
1000
0010
0100
0001
1000
,
0001
0010
0100
0010
0001
1000
0010
1000
0001
1000
0100
0010
0001
0100
0010
1000
,
0100
0010
0001
0100
0001
0010
0100
1000
0001
0100
0010
1000
0100
0010
0001
1000
,
0001
0100
0010
0100
0001
1000
0100
1000
0001
1000
0010
0100
0001
0010
0100
1000
,
0010
0100
0001
0010
0001
0100
0010
1000
0001
0010
0100
1000
0010
0100
0001
1000
,
0001
0010
0100
0010
0001
1000
0010
1000
0001
1000
0100
0010
0001
0100
0010
1000
,
0100
0010
0100
1000
0010
1000
0100
0010
0001
1000
0010
0100
0001
0010
0100
1000
,
0001
1000
0010
0100
0001
1000
0100
0010
0001
1000
0001
0100
0001
0010
0001
1000
,
0010
0100
0010
1000
0100
1000
0010
0100
0001
1000
0100
0010
0001
0100
0010
1000
,
0001
1000
0100
0010
0100
1000
0001
0100
0001
1000
0001
0010
0100
1000
0010
0100
,
0001
0010
0100
1000
0010
1000
0100
0010
0001
1000
0010
0100
0001
0010
0100
1000
,
0001
1000
0010
0100
0010
1000
0001
0010
0001
1000
0001
0100
0010
1000
0100
0010
,
0001
0100
0010
1000
0100
1000
0010
0100
0001
1000
0100
0010
0001
0100
0010
1000
,
0001
1000
0100
0010
0100
1000
0001
0100
0001
1000
0001
0010
0100
1000
0010
0100
,
0001
0010
0100
0010
0001
0100
0001
0010
0100
1000
0001
0100
0010
1000
0100
0010
,
0001
1000
0001
0100
0010
0100
0001
1000
0100
1000
0001
1000
0010
0100
0001
0010
,
0100
0000
0000
0000
,
0000
0000
0000
0000
,
1000
0000
0001
0000
0010
0000
0001
1000
0001
0100
0010
0000
0100
0000
0001
1000
,
0100
0000
0010
0000
0100
0000
1000
0010
1000
0001
0100
0000
0010
1000
0001
1000
,
0100
0000
0010
0000
0100
0000
1000
0100
1000
0001
0100
0000
0010
0000
1000
0100
,
0010
0000
0001
0000
0100
0000
0001
0000
0020
0000
0000
0230
0000
0000
2300
0000
,
3001
0000
0100
0000
0010
0000
1000
0001
1000
0100
0010
0000
0001
0000
1000
0010
,
0100
0000
0001
0000
0010
0000
0100
1000
0001
0100
0001
0000
1000
0100
1000
0001
,
0100
0000
0010
0000
1000
0000
0001
0100
0001
0010
0100
0000
1000
0000
0001
0100
,
0010
0000
1000
0000
0100
0000
0010
0001
1000
0001
0100
0000
0010
1000
0010
0100
,
0001
0000
0010
0000
0100
0000
1000
0100
1000
0001
0100
0000
0010
0000
1000
0100
,
0010
0000
0001
0000
0100
0000
0001
1000
0001
0010
0100
0000
1000
0001
0100
0010
,
0100
0000
0010
0000
1000
0000
0100
0010
0001
1000
0001
0000
0100
0000
0001
1000
,
0010
0000
1000
0000
0100
0000
0010
0001
0100
0001
1000
0000
0001
0100
0001
1000
,
0100
0000
0010
0000
0100
0000
1000
0001
1000
0010
0100
0000
0010
0000
0100
0001
,
1000
0000
0100
0000
0010
0000
0001
1000
0001
0100
0010
0000
1000
0001
1000
0100
,
0010
0000
0001
0000
0100
0000
0001
0100
0001
1000
0100
0000
0010
0000
0001
0100
,
0001
0000
1000
0000
0010
0000
1000
0001
1000
0100
0010
0000
0001
1000
0001
0100
,
0010
0000
1000
0000
0100
0000
0010
0100
1000
0001
1000
0000
0010
0000
0100
0001
,
1000
0000
0001
0000
0010
0000
0100
1000
0010
1000
0001
0000
1000
0010
0100
0001
,
1000
0000
0010
0000
0100
0000
0001
1000
0001
0010
0100
0000
1000
0000
0001
1000
,
0001
0000
0010
0000
0100
0000
1000
0001
1000
0010
0100
0000
0001
0010
0100
1000
,
0010
0000
0000
0000
,
0000
0000
0000
0000
,
0000
0000
0000
0000
,
0000
0000
0000
0000
,
1000
0010
0100
0001
1000
0001
0010
0100
1000
0001
1000
0001
0100
0010
1000
0000
,
0000
0000
0000
0000
,
0001
1000
0100
0010
0001
1000
0001
0100
0010
0100
0001
1000
0001
0100
0010
0000
,
0000
0000
0000
0000
,
1000
0001
1000
0001
0100
0010
0100
0001
0100
0001
1000
0100
0010
0001
1000
0000
,
0000
0000
0000
0000
,
0001
1000
0001
0100
0010
1000
0010
0100
0001
1000
0100
0010
0001
1000
0001
0000
,
1000
0000
0100
0010
0100
0000
1000
0000
0010
0000
0100
0000
0001
0000
0010
0000
,
0100
1000
0010
0100
0001
0100
0001
0010
,
0100
1000
0100
1000
0001
0100
0010
0100
,
0001
0010
0001
0010
0100
1000
0010
0100
,
0010
1000
0100
1000
0001
0010
0001
0100
,
0010
1000
0010
1000
0001
0100
0001
0100
,
0001
0010
0001
0010
0100
1000
0100
1000
,
0001
0010
0100
1000
0001
1000
0010
0100
0001
1000
0100
1000
0010
0100
0001
0010
,
0200
0000
0000
0300
,
1000
0100
1000
0010
0100
0010
1000
0001
,
1000
0100
0010
0001
0100
0001
1000
0001
,
0010
0100
1000
0010
1000
0001
1000
0100
,
0010
0001
0100
0001
1000
0001
0010
0100
,
1000
0010
0100
0001
0100
0010
1000
0100
,
0010
0100
1000
0001
1000
0100
0010
0001
,
0100
0001
1000
0100
0010
0100
1000
0010
,
1000
0001
1000
0100
0010
0001
1000
0001
0100
0010
0100
0001
1000
0100
0010
0100
,
1000
0001
0100
0001
1000
0100
0010
0100
,
1000
0001
1000
0100
1000
0010
0100
0001
,
1000
0100
1000
0010
0100
0001
0100
0010
,
1000
0001
1000
0100
0010
0001
0100
0001
,
1000
0001
0010
0100
1000
0010
0100
0001
,
1000
0100
0010
0100
1000
0001
0100
0010
,
1000
0000
0000
0100
0000
0000
0010
0000
0000
0001
0000
0000
1000
0000
0000
0000
,
0001
0000
0000
1000
0000
0000
0100
0000
0000
0010
0000
0000
0001
0000
0000
0000
,
1000
0100
1000
0010
0100
0010
1000
0001
,
1000
0100
0010
0001
0100
0001
0010
0001
,
1000
0100
0010
0100
1000
0010
0100
0010
,
1000
0001
1000
0100
0010
0001
0100
0001
,
0010
0001
0100
0010
1000
0100
0010
0100
,
1000
0001
0100
0001
0010
0100
1000
0010
,
1000
0100
0010
0001
0100
0001
1000
0010
,
1000
0001
0010
0100
0010
0001
0100
0001
,
1000
0100
1000
0001
1000
0010
0100
0010
,
1000
0100
0010
0001
0100
0001
1000
0001
,
0010
0100
1000
0010
0100
0001
0010
0100
,
0010
0001
0100
0010
1000
0010
0100
0001
,
1000
0100
0010
0001
0100
0001
1000
0100
,
0010
0100
1000
0010
1000
0001
1000
0100
,
0010
0001
0100
0001
1000
0100
1000
0010
,
0100
0001
1000
0100
1000
0001
0100
0010
1000
0100
1000
0001
0010
0001
0100
0010
,
1000
0100
0010
0001
1000
0001
0100
0001
1000
0100
0010
0001
0100
0010
1000
0001
,
1000
0100
0010
0100
1000
0001
0100
0001
1000
0001
0010
0100
1000
0010
0100
0001
,
0010
0100
1000
0010
1000
0100
0010
0001
1000
0010
0100
0001
0010
0100
1000
0001
,
1000
0010
0100
0010
1000
0001
0010
0001
1000
0001
0100
0010
1000
0100
0010
0001
,
0100
0010
1000
0100
1000
0010
0100
0001
1000
0100
0010
0001
0100
0010
1000
0001
,
1000
0100
0010
0100
1000
0001
0100
0001
1000
0001
0010
0100
1000
0010
0100
0001
,
0010
0100
0010
0001
0100
0001
0010
0100
1000
0001
0100
0010
1000
0100
0010
0001
,
1000
0001
0100
0010
0100
0001
1000
0100
1000
0001
1000
0010
0100
0001
0010
0100
,
1000
0010
0100
0001
0010
0001
0100
0010
1000
0001
0010
0100
1000
0010
0100
0001
,
1000
0001
0010
0100
0010
0001
1000
0010
1000
0001
1000
0100
0010
0001
0100
0010
,
1000
0100
0010
0001
0100
0001
0010
0100
1000
0001
0100
0010
1000
0100
0010
0001
,
1000
0001
0100
0010
0100
0001
1000
0100
1000
0001
1000
0010
0100
0001
0010
0100
,
1000
0010
0100
0001
0010
0001
0100
0010
1000
0001
0010
0100
1000
0010
0100
0001
,
1000
0001
0010
0100
0010
0001
1000
0010
1000
0001
1000
0100
0010
0001
0100
0010
,
1000
0100
0010
0100
1000
0010
1000
0100
0010
0001
1000
0010
0100
0001
0010
0100
,
1000
0001
1000
0010
0100
0010
1000
0001
0010
0001
1000
0100
1000
0010
0100
0001
,
1000
0100
0010
0001
0100
0001
1000
0010
,
1000
0100
1000
0001
0100
0010
1000
0100
,
1000
0010
0100
0001
0010
0100
1000
0010
,
1000
0100
0010
0001
0100
0010
0000
0100
,
0001
1000
0100
0010
0001
1000
0010
0100
,
0001
1000
0100
0010
0100
1000
0010
0100
,
0001
0010
0001
1000
0001
0100
0010
1000
0100
1000
0001
0010
0100
1000
0010
1000
,
0001
0000
0000
0010
0000
0000
0100
0000
0000
1000
0000
0000
0001
0000
0000
0000
,
0220
0000
0000
0000
,
0000
0000
0000
0000
,
0330
0000
0000
0000
;

//---------------dance-single - Chino Would----------------
#NOTES:
     dance-single:
     Chino Would:
     Easy:
     13:
     1.000,1.000,0.006,0.055,0.523,1200.000,1.000,9.000,0.000,0.000:
0000
0000
0000
0000
,
0000
0000
0000
0000
,
0002
0000
0000
0000
0013
0100
1000
0001
1000
0000
0100
0000
0010
0000
0100
0000
,
1000
0001
0000
0000
,
0100
0010
1000
0000
0001
0000
1000
0000
,
0000
0000
0000
0000
,
0200
0000
0000
0000
0310
0001
1000
0001
1000
0000
0010
0000
0100
0000
0001
0000
,
0010
0001
0000
0000
,
1000
0010
0100
0000
0001
0000
1000
0000
,
0000
0000
0000
0000
,
0002
0000
0000
0000
0013
0100
0010
0100
1000
0000
0001
0000
0100
0000
0010
0000
,
1000
0001
0010
0100
,
1000
0001
0100
0000
0010
0000
1000
0000
,
0001
0100
0001
0010
,
0100
1000
0001
0100
0010
1000
0010
1000
0100
0010
0001
1000
0001
0010
0001
0010
,
0100
1000
0010
1000
0001
0100
0001
0100
0010
1000
0001
0010
0100
1000
0100
1000
,
0010
0100
0001
0010
0001
0100
0010
1000
0100
0010
0100
1000
0010
0100
0001
0010
,
0100
1000
0010
0100
0010
1000
0100
0010
0001
0100
0010
0100
0001
0010
0001
1000
,
0100
0000
0000
1000
,
0001
0100
0001
0010
0001
1000
0100
0010
,
0100
1000
0010
0100
0010
1000
0100
0010
,
0001
0100
0001
1000
0100
1000
0001
1000
,
0010
0100
0010
1000
0001
1000
0100
0010
,
0001
0100
0001
1000
0100
0010
0100
1000
,
0010
0100
0001
0100
0010
1000
0100
0010
,
0001
0100
0001
1000
0100
1000
0010
0100
,
0001
0100
0010
1000
0100
0010
0001
0100
,
0001
1000
0100
0010
0100
1000
0010
0100
,
0001
0100
0010
1000
0100
0010
0001
0100
,
0001
1000
0100
1000
0010
0100
0010
1000
,
0001
0010
0001
0100
0001
1000
0100
0010
,
0100
1000
0010
0100
0010
1000
0001
1000
,
0100
0010
0001
0100
0001
1000
0100
0010
,
0100
1000
0010
0100
0010
1000
0001
1000
,
0100
0010
0001
0100
0001
1000
0100
1000
,
0001
0100
0001
0010
0100
1000
0010
1000
,
0001
0100
0010
0100
0001
1000
0100
0010
,
0100
1000
0010
1000
0001
1000
0100
0010
,
0001
0100
0001
0010
0100
1000
0010
0100
,
0010
0100
0001
1000
0100
0010
0100
1000
,
0010
0100
0001
0010
0001
0100
0001
1000
,
0100
0010
0100
1000
0001
1000
0100
0010
,
0001
0100
0001
1000
0001
0010
0100
1000
,
0010
0100
0001
0100
0010
1000
0100
0010
,
0100
1000
0001
1000
0100
0010
0001
0100
,
0001
1000
0001
0010
0100
1000
0010
0100
,
0001
0100
0010
1000
0001
1000
0100
0010
,
0001
0100
0001
0100
0010
1000
0001
1000
,
0001
0010
0100
1000
0001
1000
0100
0010
,
0100
1000
0001
0100
0001
0010
0001
0100
,
0010
1000
0010
0100
0001
1000
0100
0010
,
0001
0000
0000
0000
,
0000
0000
0000
0000
,
1000
0000
0001
0000
0010
0000
0001
1000
0001
0100
0010
0000
0100
0000
0001
1000
,
0100
0000
0010
0000
0100
0000
1000
0010
1000
0001
0100
0000
0010
1000
0001
1000
,
0100
0000
0010
0000
0100
0000
1000
0100
1000
0001
0100
0000
0010
0000
1000
0100
,
0010
0000
0001
0000
0100
0000
0001
0000
0020
0000
0000
0230
0000
0000
2300
0000
,
3001
0000
0100
0000
0010
0000
1000
0001
1000
0100
0010
0000
0001
0000
1000
0010
,
0100
0000
0001
0000
0010
0000
0100
1000
0001
0100
0001
0000
1000
0100
1000
0001
,
0100
0000
0010
0000
1000
0000
0001
0100
0001
0010
0100
0000
1000
0000
0001
0100
,
0010
0000
1000
0000
0100
0000
0010
0001
1000
0001
0100
0000
0010
1000
0010
0100
,
0001
0000
0010
0000
0100
0000
1000
0100
1000
0001
0100
0000
0010
0000
1000
0100
,
0010
0000
0001
0000
0100
0000
0001
1000
0001
0010
0100
0000
1000
0001
0100
0010
,
0100
0000
0010
0000
1000
0000
0100
0010
0001
1000
0001
0000
0100
0000
0001
1000
,
0010
0000
1000
0000
0100
0000
0010
0001
0100
0001
1000
0000
0001
0100
0001
1000
,
0100
0000
0010
0000
0100
0000
1000
0001
1000
0010
0100
0000
0010
0000
0100
0001
,
1000
0000
0100
0000
0010
0000
0001
1000
0001
0100
0010
0000
1000
0001
1000
0100
,
0010
0000
0001
0000
0100
0000
0001
0100
0001
1000
0100
0000
0010
0000
0001
0100
,
0001
0000
1000
0000
0010
0000
1000
0001
1000
0100
0010
0000
0001
1000
0001
0100
,
0010
0000
1000
0000
0100
0000
0010
0100
1000
0001
1000
0000
0010
0000
0100
0001
,
1000
0000
0001
0000
0010
0000
0100
1000
0010
1000
0001
0000
1000
0010
0100
0001
,
1000
0000
0010
0000
0100
0000
0001
1000
0001
0010
0100
0000
1000
0000
0001
1000
,
0001
0000
0010
0000
0100
0000
1000
0001
1000
0010
0100
0000
0001
0010
0100
1000
,
0010
0000
0000
0000
,
0000
0000
0000
0000
,
0000
0000
0000
0000
,
0000
0000
0000
0000
,
1000
0010
0100
0001
1000
0001
0010
0100
1000
0001
1000
0001
0100
0010
1000
0000
,
0000
0000
0000
0000
,
0001
1000
0100
0010
0001
1000
0001
0100
0010
0100
0001
1000
0001
0100
0010
0000
,
0000
0000
0000
0000
,
1000
0001
1000
0001
0100
0010
0100
0001
0100
0001
1000
0100
0010
0001
1000
0000
,
0000
0000
0000
0000
,
0001
1000
0001
0100
0010
1000
0010
0100
0001
1000
0100
0010
0001
1000
0001
0000
,
1000
0000
0100
0010
0100
0000
1000
0000
0010
0000
0100
0000
0001
0000
0010
0000
,
0100
1000
0010
0100
0001
0100
0001
0010
,
0100
1000
0100
1000
0001
0100
0010
0100
,
0001
0010
0001
0010
0100
1000
0010
0100
,
0010
1000
0100
1000
0001
0010
0001
0100
,
0010
1000
0010
1000
0001
0100
0001
0100
,
0001
0010
0001
0010
0100
1000
0100
1000
,
0001
0010
0100
1000
0001
1000
0010
0100
0001
1000
0100
1000
0010
0100
0001
0010
,
0200
0000
0000
0300
,
1000
0100
1000
0010
0100
0010
1000
0001
,
1000
0100
0010
0001
0100
0001
1000
0001
,
0010
0100
1000
0010
1000
0001
1000
0100
,
0010
0001
0100
0001
1000
0001
0010
0100
,
1000
0010
0100
0001
0100
0010
1000
0100
,
0010
0100
1000
0001
1000
0100
0010
0001
,
0100
0001
1000
0100
0010
0100
1000
0010
,
1000
0001
1000
0100
0010
0001
1000
0001
0100
0010
0100
0001
1000
0100
0010
0100
,
1000
0001
0100
0001
1000
0100
0010
0100
,
1000
0001
1000
0100
1000
0010
0100
0001
,
1000
0100
1000
0010
0100
0001
0100
0010
,
1000
0001
1000
0100
0010
0001
0100
0001
,
1000
0001
0010
0100
1000
0010
0100
0001
,
1000
0100
0010
0100
1000
0001
0100
0010
,
1000
0000
0000
0100
0000
0000
0010
0000
0000
0001
0000
0000
1000
0000
0000
0000
,
0001
0000
0000
1000
0000
0000
0100
0000
0000
0010
0000
0000
0001
0000
0000
0000
,
1000
0100
1000
0010
0100
0010
1000
0001
,
1000
0100
0010
0001
0100
0001
0010
0001
,
1000
0100
0010
0100
1000
0010
0100
0010
,
1000
0001
1000
0100
0010
0001
0100
0001
,
0010
0001
0100
0010
1000
0100
0010
0100
,
1000
0001
0100
0001
0010
0100
1000
0010
,
1000
0100
0010
0001
0100
0001
1000
0010
,
1000
0001
0010
0100
0010
0001
0100
0001
,
1000
0100
1000
0001
1000
0010
0100
0010
,
1000
0100
0010
0001
0100
0001
1000
0001
,
0010
0100
1000
0010
0100
0001
0010
0100
,
0010
0001
0100
0010
1000
0010
0100
0001
,
1000
0100
0010
0001
0100
0001
1000
0100
,
0010
0100
1000
0010
1000
0001
1000
0100
,
0010
0001
0100
0001
1000
0100
1000
0010
,
0100
0001
1000
0100
1000
0001
0100
0010
1000
0100
1000
0001
0010
0001
0100
0010
,
1000
0001
1000
0100
0010
0001
0100
0001
,
1000
0001
0010
0100
1000
0001
0100
0010
,
0100
0001
1000
0100
0010
0100
1000
0010
,
1000
0001
1000
0100
0010
0001
0100
0001
,
1000
0100
1000
0010
1000
0001
0100
0010
,
0100
0001
1000
0100
0010
0100
1000
0001
,
0100
0001
0010
0001
0100
0010
1000
0010
,
0100
0001
1000
0100
0010
0001
0100
0001
,
1000
0100
0010
0100
1000
0010
0100
0001
,
1000
0100
0010
0001
0100
0001
1000
0100
,
0010
0100
1000
0010
0100
0001
0100
0010
,
1000
0100
0010
0001
0100
0001
1000
0010
,
0100
0010
1000
0001
0010
0100
0010
0001
,
0100
0010
1000
0010
0100
0001
1000
0100
,
1000
0010
1000
0100
0010
0001
0100
0001
,
1000
0100
0010
0100
1000
0010
0100
0001
,
1000
0100
0010
0001
0100
0001
1000
0010
,
1000
0100
1000
0001
0100
0010
1000
0100
,
1000
0010
0100
0001
0010
0100
1000
0010
,
1000
0100
0010
0001
0100
0010
0000
0100
,
0001
1000
0100
0010
0001
1000
0010
0100
,
0001
1000
0100
0010
0100
1000
0010
0100
,
0001
0010
0001
1000
0001
0100
0010
1000
0100
1000
0001
0010
0100
1000
0010
1000
,
0001
0000
0000
0010
0000
0000
0100
0000
0000
1000
0000
0000
0001
0000
0000
0000
,
0220
0000
0000
0000
,
0000
0000
0000
0000
,
0330
0000
0000
0000
;
