#TITLE:God Is A Girl;
#SUBTITLE:;
#ARTIST:Groove Coverage feat. Nightcore;
#TITLETRANSLIT:;
#SUBTITLETRANSLIT:;
#ARTISTTRANSLIT:;
#CREDIT:;
#BANNER:BN.PNG;
#BACKGROUND:BG.PNG;
#LYRICSPATH:;
#CDTITLE:ov1_title.png;
#MUSIC:Nightcore - God Is A Girl.mp3;
#OFFSET:4.400;
#SAMPLESTART:53.300;
#SAMPLELENGTH:29.999;
#SELECTABLE:YES;
#BPMS:0.000=191.700;
#STOPS:;
#BGCHANGES:;
// cache tags:
#FIRSTBEAT:16.000;
#LASTBEAT:709.000;
#SONGFILENAME:Songs/Owenviau1 Simfiles 4/God Is A Girl - Nightcore [owenviau1]/Nightcore - God Is A Girl.sm;
#HASMUSIC:1;
#HASBANNER:1;
#MUSICLENGTH:220.943;
// end cache tags

//---------------dance-single - ----------------
#NOTES:
     dance-single:
     :
     Challenge:
     13:
     1.000,1.000,1.000,1.000,0.222,1322.000,580.000,309.000,0.000,1.000:

0000
0000
0000
0000
,
0000
0000
0000
0000
,
0000
0000
0000
0000
,
0000
0000
0000
0000
,
2000
3200
0000
0320
,
0032
0000
2003
0000
0000
3000
0000
0000
,
0200
0320
0000
0032
,
2003
0000
3020
0000
0000
0030
0000
0000
,
2000
3200
0000
0320
,
0032
0000
2003
0000
0000
3000
0000
0000
,
0020
0230
0000
2300
,
3002
0223
0000
0330
,
2000
3002
0000
0023
,
0230
0000
2300
0000
0000
3000
0000
0000
,
0200
0302
0000
2003
,
3020
0000
0230
0000
0000
0300
0000
0000
,
2000
3002
0023
0230
,
2300
0000
3002
0000
0000
0003
0000
0000
,
2000
3002
0203
0320
,
2030
3002
0000
0000
,
0000
0000
0003
0000
0000
0000
1010
0001
,
0110
0000
1001
0100
0010
0001
0011
1000
,
0001
0100
0110
1000
0001
0100
1010
0100
,
0010
0001
0101
1000
0010
0100
0011
1000
,
0001
0100
0110
1000
0010
0100
1001
0010
,
0100
0001
1100
0010
0100
1000
0011
0100
,
0010
1000
0101
1000
0001
0100
0110
1000
,
0001
0010
1100
0010
0001
0100
1001
0010
,
1000
0001
0110
1000
0100
0010
0011
0001
,
1000
0010
1001
0100
0101
0001
0010
1000
,
0101
1000
0001
0100
0011
1000
0001
0010
,
0110
1000
0100
0010
1001
0100
0010
0001
,
1010
0100
0001
0100
1001
0010
1000
0001
,
0110
1000
0100
0010
0011
1000
0001
0010
,
1100
1000
0001
0100
0011
1000
0010
0100
,
0101
1000
0001
0100
1010
0100
0010
0001
,
0110
1000
0001
0100
1001
0100
0010
0001
,
1000
0000
0100
0000
0010
0000
0001
0000
0000
0000
0000
0000
1000
0000
0000
0100
0000
0000
0010
0000
0000
0001
0000
0000
,
0010
0100
1001
0100
0110
0001
1100
0010
,
1001
0011
0110
0001
1100
0100
0011
0100
,
1001
0110
1100
0100
0011
1000
0110
0010
,
1001
0101
1010
0001
1100
0110
0011
1001
,
0110
0000
1001
0000
0101
0010
0100
1000
0001
0100
0010
1000
0100
0010
0001
0100
,
0001
0010
0100
1000
0010
1000
0100
0010
0001
0100
0010
1000
0100
1000
0010
0100
,
0001
0010
0001
0100
0010
1000
0100
0010
0001
0100
0001
0010
0100
1000
0100
0010
,
0001
0100
0010
1000
0100
0010
0001
0100
0001
1000
0010
1000
0100
0010
0001
0010
,
0100
1000
0001
0100
1001
0000
1000
0000
0110
0000
0001
0000
1100
0000
0010
0000
,
1001
0011
0110
0001
1100
0100
0011
0100
,
1001
0110
1100
0100
0011
1000
0110
0010
,
1001
0101
1010
0001
1100
0110
0011
1001
,
0110
1001
1010
0001
0110
0001
1100
0010
,
1001
0011
0110
0001
1100
0100
0011
0100
,
1001
0110
1100
0100
0011
1000
0110
0010
,
1001
0101
1010
0001
1100
0110
0011
1001
,
0110
1001
0101
1000
0110
0001
1001
0010
,
0101
0110
1010
0001
1100
1000
0110
0010
,
0101
1010
0110
0010
1001
0100
0011
1000
,
1100
0101
1010
0001
1100
0110
1001
0011
,
1001
0110
0101
0010
1001
0100
1010
1000
,
0101
1010
1100
0010
0101
1000
1001
0010
,
1100
0110
0011
0100
1001
1000
0110
0001
,
0011
0110
1100
0010
1001
0101
0110
1010
,
1001
0101
1001
0100
0110
0001
1100
0010
,
1001
0011
0110
0001
1100
0100
0011
0100
,
1001
0110
1100
0100
0011
1000
0110
0010
,
1001
0101
1010
0001
1100
0110
0011
1001
,
0110
1001
0101
1000
0110
0001
1100
0010
,
1001
0011
0110
0001
1100
0100
0011
0100
,
1001
0110
1100
0100
0011
1000
0110
0010
,
1001
0101
1010
0001
1100
0110
0011
1001
,
0110
0000
1001
0000
0101
0000
0100
0000
2020
3030
2020
3030
0101
0000
0010
0000
,
1001
0000
0010
0000
1100
0000
0001
0000
0220
0330
0220
0330
1001
0000
0001
0000
,
1100
0000
1000
0000
0011
0000
0100
0000
0022
0033
0022
0033
1100
0000
0001
0000
,
0110
0000
0100
0000
1001
0000
0010
0000
2200
3300
2200
3300
0101
0000
0001
0000
,
1010
0000
0001
0000
0110
0000
0100
0000
2002
3003
2002
3003
0110
0000
0001
0000
,
1010
0000
0010
0000
0101
0000
1000
0000
2020
3030
2002
3003
0110
0000
0001
0000
,
0110
0000
1000
0000
1010
0000
0100
0000
0202
0303
2002
3003
0110
0000
1000
0000
,
0101
0000
0100
0000
1010
0000
0001
0000
0220
0330
0022
0033
1100
0000
0001
0000
,
1100
0000
0010
0000
0101
0000
0010
0000
2002
3003
2200
3300
0101
0000
0010
0000
,
1001
0000
0100
0000
0101
0000
0001
0000
2020
3030
2020
3030
0101
0000
0010
0000
,
1001
0000
0010
0000
1100
0000
0001
0000
0220
0330
0220
0330
1001
0000
0001
0000
,
1100
0000
1000
0000
0011
0000
0100
0000
0022
0033
0022
0033
1100
0000
0001
0000
,
0110
0000
0100
0000
1001
0000
0010
0000
2200
3300
2200
3300
0101
0000
0001
0000
,
1010
0000
0001
0000
0110
0000
0100
0000
2002
3003
2002
3003
0110
0000
0001
0000
,
1010
0000
0010
0000
0101
0000
1000
0000
2020
3030
2002
3003
0110
0000
0001
0000
,
0110
0000
1000
0000
1010
0000
0100
0000
0202
0303
2002
3003
0110
0000
1000
0000
,
0101
0000
0100
0000
1010
0000
0001
0000
0220
0330
0022
0033
1100
0000
0001
0000
,
1100
0000
0010
0000
0101
0000
0010
0000
2002
3003
2200
3300
0101
0000
0010
0000
,
1100
0000
0001
0000
0110
0000
0001
0000
2200
3300
2200
3300
0101
0000
0001
0000
,
1010
0000
0001
0000
0110
0000
0100
0000
2002
3003
2002
3003
0110
0000
0001
0000
,
1010
0000
0010
0000
0101
0000
1000
0000
2020
3030
2002
3003
0110
0000
0001
0000
,
0110
0000
1000
0000
1010
0000
0100
0000
0202
0303
2002
3003
0110
0000
1000
0000
,
0101
0000
0100
0000
1010
0000
0001
0000
0220
0330
0022
0033
1100
0000
0001
0000
,
1100
0000
0010
0000
0101
0000
0010
0000
2002
3003
2200
3300
0101
0000
0010
0000
,
1100
0000
0001
0000
0110
0000
0001
0000
2200
3300
2200
3300
0101
0000
0001
0000
,
1010
0000
0001
0000
0110
0000
0100
0000
2002
3003
2002
3003
0110
0000
0001
0000
,
1010
0000
0010
0000
0101
0000
1000
0000
2020
3030
2002
3003
0110
0000
0001
0000
,
0110
0000
1000
0000
1010
0000
0100
0000
0202
0303
2002
3003
0110
0000
1000
0000
,
0101
0000
0100
0000
1010
0000
0001
0000
0220
0330
0022
0033
1100
0000
0001
0000
,
1100
0000
0010
0000
0101
0000
0010
0000
2002
3003
2200
3300
0101
0000
1000
0000
,
0110
0000
0001
0000
1100
0000
0010
0000
0202
0303
2020
3030
0110
0000
0001
0000
,
1100
0010
1001
0010
0101
1000
0001
0100
,
0011
1000
1001
0100
0110
1000
0001
0100
,
1010
0100
0010
0001
0101
1000
0010
0100
,
0011
1000
0001
0100
0110
1000
0010
0100
,
1001
0010
0100
0001
1100
0010
0100
1000
,
0011
0100
0010
1000
0101
1000
0001
0100
,
0110
1000
0001
0010
1100
0010
0001
0100
,
1001
0010
1000
0001
0110
1000
0100
0010
,
0011
0001
1000
0010
1001
0100
0010
0001
,
0110
2000
0000
3200
0320
0032
0203
0000
,
2300
3020
0000
0030
0000
0000
2000
3200
,
0320
0032
0000
0023
0230
2300
3002
0000
,
0203
0320
0000
0030
0000
0000
2000
3002
,
0203
0320
0000
2030
0000
3200
0320
0000
,
0032
0200
0000
0303
0000
2000
3020
0230
,
0302
2003
0000
3020
0000
0230
0302
0000
,
2003
0020
0000
3030
,
0000
0000
0000
0000
0000
0000
2000
3002
,
0203
0000
0320
0000
0030
0200
2300
3002
,
0023
0000
2030
0000
3000
0000
0200
0320
,
0032
0000
0203
0000
0000
0000
0020
0000
0000
0330
0000
0000
2000
0000
3200
0000
,
0320
0032
0000
2003
0000
3000
0200
0320
,
0032
0000
2003
0000
3000
0002
0023
0230
,
2300
0000
3020
0000
0030
0000
0200
0302
,
0023
0000
0230
0000
0000
0000
2000
0000
0000
3300
0000
0000
0002
0000
0203
0000
,
0320
2030
0000
3002
0000
0003
0020
0230
,
1300
0000
0100
0000
1001
0010
0100
1000
0001
0100
0010
1000
0010
0100
0001
0010
,
0001
0100
0010
1000
0100
0010
0001
0100
0001
0010
0100
1000
0010
1000
0001
0100
,
0010
1000
0100
0010
0001
0100
0010
1000
0100
1000
0010
0100
0001
0010
0001
0100
,
0010
1000
0100
0010
0001
0010
0100
1000
0010
0100
0001
0100
0010
1000
0010
0100
,
0001
0010
0100
1000
0010
0100
0001
0100
0010
1000
0100
0010
0001
0100
0010
1000
,
0010
0100
0001
0010
0100
1000
0100
0010
0001
0100
0001
0010
0100
1000
0100
0010
,
0001
0100
0010
1000
0010
0100
0001
0010
0100
1000
0100
0010
0001
1000
0001
0100
,
0010
1000
0100
0010
0001
0010
0100
1000
0010
1000
0100
0010
0001
0100
0001
0010
,
0100
1000
0001
0010
1001
0000
0000
0000
1000
0000
0010
0000
1000
0000
0001
0000
,
0100
0001
1001
1000
0110
0001
1100
0010
,
1001
0011
0110
0001
1100
0100
0011
0100
,
1001
0110
1100
0100
0011
1000
0110
0010
,
1001
0101
1010
0001
1100
0110
0011
1001
,
0110
1001
1010
0001
0110
0001
1100
0010
,
1001
0011
0110
0001
1100
0100
0011
0100
,
1001
0110
1100
0100
0011
1000
0110
0010
,
1001
0101
1010
0001
1100
0110
0011
1001
,
0110
1001
0101
1000
0110
0001
1001
0010
,
0101
0110
1010
0001
1100
1000
0110
0010
,
0101
1010
0110
0010
1001
0100
0011
1000
,
1100
0101
1010
0001
1100
0110
1001
0011
,
1001
0110
0101
0010
1001
0100
1010
1000
,
0101
1010
1100
0010
0101
1000
1001
0010
,
1100
0110
0011
0100
1001
1000
0110
0001
,
0011
0110
1100
0010
1001
0101
0110
1010
,
1001
0101
1001
0100
0110
0001
1100
0010
,
1001
0011
0110
0001
1100
0100
0011
0100
,
1001
0110
1100
0100
0011
1000
0110
0010
,
1001
0101
1010
0001
1100
0110
0011
1001
,
0110
1001
0101
1000
0110
0001
1100
0010
,
1001
0011
0110
0001
1100
0100
0011
0100
,
1001
0110
1100
0100
0011
1000
0110
0010
,
1001
0101
1010
0001
1100
0110
0011
1001
,
0110
0000
1001
0000
0101
0000
0001
0000
2020
3030
2020
3030
0101
0000
0010
0000
,
1001
0000
0010
0000
1100
0000
0001
0000
0220
0330
0220
0330
1001
0000
0001
0000
,
1100
0000
1000
0000
0011
0000
0100
0000
0022
0033
0022
0033
1100
0000
0001
0000
,
0110
0000
0100
0000
1001
0000
0010
0000
2200
3300
2200
3300
0101
0000
0001
0000
,
1010
0000
0001
0000
0110
0000
0100
0000
2002
3003
2002
3003
0110
0000
0001
0000
,
1010
0000
0010
0000
0101
0000
1000
0000
2020
3030
2002
3003
0110
0000
0001
0000
,
0110
0000
1000
0000
1010
0000
0100
0000
0202
0303
2002
3003
0110
0000
1000
0000
,
0101
0000
0100
0000
1010
0000
0001
0000
0220
0330
0022
0033
1100
0000
0001
0000
,
1100
0000
0010
0000
0101
0000
0010
0000
2002
3003
2200
3300
0101
0000
0010
0000
,
1001
0000
0100
0000
0101
0000
0001
0000
2020
3030
2020
3030
0101
0000
0010
0000
,
1001
0000
0010
0000
1100
0000
0001
0000
0220
0330
0220
0330
1001
0000
0001
0000
,
1100
0000
1000
0000
0011
0000
0100
0000
0022
0033
0022
0033
1100
0000
0001
0000
,
0110
0000
0100
0000
1001
0000
0010
0000
2200
3300
2200
3300
0101
0000
0001
0000
,
1010
0000
0001
0000
0110
0000
0100
0000
2002
3003
2002
3003
0110
0000
0001
0000
,
1010
0000
0010
0000
0101
0000
1000
0000
2020
3030
2002
3003
0110
0000
0001
0000
,
0110
0000
1000
0000
1010
0000
0100
0000
0202
0303
2002
3003
0110
0000
1000
0000
,
0101
0100
2002
0000
0000
0000
0000
0000
,
0000
3003
0000
0000
;

//---------------dance-single - ----------------
#NOTES:
     dance-single:
     :
     Hard:
     10:
     0.678,0.842,0.059,0.548,0.000,914.000,13.000,121.000,0.000,1.000:

0000
0000
0000
0000
,
0000
0000
0000
0000
,
0000
0000
0000
0000
,
0000
0000
0000
0000
,
2000
3200
0000
0320
,
0032
0000
2003
0000
0000
3000
0000
0000
,
0200
0320
0000
0032
,
2003
0000
3020
0000
0000
0030
0000
0000
,
2000
3200
0000
0320
,
0032
0000
2003
0000
0000
3000
0000
0000
,
0020
0230
0000
2300
,
3002
0223
0000
0330
,
2000
3002
0000
0023
,
0230
0000
2300
0000
0000
3000
0000
0000
,
0200
0302
0000
2003
,
3020
0000
0230
0000
0000
0300
0000
0000
,
2000
3002
0023
0230
,
2300
0000
3002
0000
0000
0003
0000
0000
,
2000
3002
0203
0320
,
2030
3002
0000
0000
,
0000
0003
0000
0000
,
1000
0100
0000
0010
,
0001
0000
0100
0000
0000
0000
0010
1000
,
0010
0100
0000
0001
0000
0000
0010
0100
,
1000
0001
0000
0000
0100
0000
0010
1000
,
0001
0000
0010
0000
0100
1000
0001
0010
,
0100
0000
1000
0000
0001
0000
0100
0001
,
0010
0100
0000
1000
0000
0000
0001
0100
,
0001
0010
0000
0100
0000
0000
1000
0001
,
0100
0000
0010
0000
1001
0000
0001
0010
,
0100
0000
1000
0000
1010
0000
0010
0100
,
0001
0000
0010
0000
0110
0000
0100
1000
,
0001
0000
0100
0000
0101
0000
0001
1000
,
0100
0000
1100
0000
1100
0000
0001
0100
,
0001
0000
0010
0000
0110
0000
0100
1000
,
0001
0100
0010
1000
0001
0000
0001
1000
,
0001
0010
0100
0000
1000
0000
0001
0000
,
0010
0000
0100
0000
1000
0001
1000
0001
,
0010
0100
1000
0000
1000
0000
1000
0000
,
1000
0010
0100
0000
0100
0000
0100
0000
,
0100
0001
0010
0000
0010
0000
0010
0000
,
0010
0001
1000
0000
1000
0001
0100
0001
,
0100
0010
1000
0010
0100
0010
0100
0001
,
0010
0100
0010
0001
1000
0100
0010
0001
,
1000
0001
0100
0001
0010
0001
1000
0010
,
0100
0001
1000
0100
0001
0100
1000
0010
,
0001
0010
0001
0000
1000
0000
0010
0000
,
1000
0001
0010
0000
0001
0000
1000
0000
,
0010
1000
0001
0000
0010
0000
0100
0000
,
0001
1000
0001
0000
1000
1000
0001
0001
,
0100
0100
0010
0000
1000
0000
0001
0000
,
1000
0001
0010
0000
0010
0000
0010
0000
,
0001
1000
0001
0000
0100
0000
0010
0000
,
1000
0001
0010
0000
1000
1000
0001
0001
,
0100
0100
0110
0000
0001
0000
1001
0000
,
0001
0010
0100
0000
1000
0000
0001
0000
,
0100
0010
1000
0000
1000
0000
1000
0000
,
1000
0001
0010
0000
1000
0001
0100
1000
,
0001
0100
0100
0000
0010
0000
1000
0000
,
0001
0010
0100
0000
1000
0000
0001
0000
,
1000
0010
0100
0000
0001
0000
1000
0000
,
0001
0010
0100
0000
1000
1000
0001
0001
,
0010
0010
0100
0000
0001
0000
1000
0000
,
0010
0100
0001
0000
1000
0000
0001
0000
,
1000
0001
0010
0000
0100
0000
1000
0000
,
0001
1000
0001
0000
1000
1000
0010
0010
,
0100
0100
0001
0000
1000
0000
0010
0000
,
0100
0001
0010
0000
0100
0000
1000
0000
,
0001
1000
0010
0000
0100
0000
0001
0000
,
1000
0100
0010
0000
0001
0001
1000
1000
,
0010
0010
0100
0001
0010
0100
1000
0000
,
0001
0000
0100
0000
0010
1000
0010
0100
,
0001
0000
0010
0000
0100
1000
0001
0100
,
0001
0000
1000
0000
0010
1000
0010
0100
,
0001
0000
0010
0000
0100
1000
0001
0100
,
0001
0000
0010
0000
0001
1000
0001
0100
,
0010
0000
1000
0000
0001
1000
0001
0010
,
0100
0000
1000
0000
0001
1000
0001
0010
,
0100
0000
1000
0000
0001
1000
0001
0010
,
0100
0000
1000
0000
0001
1000
0001
0010
,
0100
0000
1000
0000
0010
1000
0010
0100
,
0010
0000
1000
0000
0001
1000
0001
0010
,
0100
0000
1000
0000
0001
1000
0001
0010
,
0100
0000
1000
0000
0010
0100
0010
0001
,
0010
0000
1000
0000
0001
1000
0100
0001
,
0100
0000
0010
0000
1000
0001
0010
0100
,
1000
0000
0001
0000
0100
0010
1000
0010
,
0100
0000
0001
0000
1000
0001
0100
0001
,
0010
0000
0100
0000
1000
0100
0001
0100
,
1000
0000
0010
0000
0100
0001
0010
0100
,
1000
0000
0001
0000
0100
0010
1000
0010
,
0100
0000
0001
0000
1000
0001
1000
0001
,
0010
0000
0100
0000
1000
0001
0100
0010
,
1000
0000
0001
0000
1000
0001
0010
0100
,
1000
0001
0100
0000
0010
1000
0001
0010
,
0100
0000
1000
0000
0001
1000
0001
0010
,
0100
0000
1000
0000
0010
1000
0010
0100
,
0001
0000
0010
0000
0100
1000
0100
0010
,
0001
0000
0100
0000
0010
1000
0010
0100
,
0001
0000
1000
0000
0001
1000
0001
0010
,
0100
0000
1000
0000
0001
1000
0001
0010
,
0100
0000
1000
0000
0001
0010
0001
1000
,
0010
0100
0001
0010
,
1100
0000
0001
0000
0100
0000
0010
1000
,
0010
0000
0100
0000
0001
0000
1000
0001
,
1000
0000
0010
0000
0100
0000
0001
0010
,
0100
0000
1000
0000
0010
0000
1000
0010
,
0100
0000
0001
0000
1000
0000
0001
1000
,
0001
0000
0010
0000
0100
0000
1000
0001
,
0010
0000
0100
0000
1000
0000
0010
0100
,
0010
2000
0000
3200
0320
0032
0203
0000
,
2300
3020
0000
0030
0000
0000
2000
3200
,
0320
0032
0000
0023
0230
2300
3002
0000
,
0203
0320
0000
0030
0000
0000
2000
3002
,
0203
0320
0000
2030
0000
3200
0320
0000
,
0032
0200
0000
0303
0000
2000
3020
0230
,
0302
2003
0000
3020
0000
0230
0302
0000
,
2003
0020
0000
3030
,
0000
0000
0000
0000
0000
0000
2000
3002
,
0203
0000
0320
0000
0030
0200
2300
3002
,
0023
0000
2030
0000
3000
0000
0200
0320
,
0032
0000
0203
0000
0000
0000
0020
0000
0000
0330
0000
0000
2000
0000
3200
0000
,
0320
0032
0000
2003
0000
3000
0200
0320
,
0032
0000
2003
0000
3000
0002
0023
0230
,
2300
0000
3020
0000
0030
0000
0200
0302
,
0023
0000
0230
0000
0000
0000
2000
0000
0000
3300
0000
0000
0002
0000
0203
0000
,
0320
2030
0000
3002
0000
0003
0020
0230
,
1300
0000
0001
0000
0010
0000
0100
1000
,
0001
0000
0100
0000
0010
0000
1000
0010
,
0100
0001
0010
0000
0100
0000
1000
0001
,
1000
0001
0010
0000
0100
0000
1000
0001
,
1000
0001
0100
0010
1000
0010
0100
0001
,
0010
0100
0010
0001
1000
0100
0010
0001
,
1000
0010
0001
1000
0100
0010
1000
0001
,
0010
0100
0001
1000
0010
0001
0010
0100
,
1001
0000
0010
0000
0100
0001
1000
0001
,
0010
0100
1000
0000
0001
0000
0001
0000
,
0001
1000
0010
0000
0010
0000
0010
0000
,
0010
1000
0001
0000
0001
0000
0001
0000
,
1000
0100
1000
0000
0001
0001
1000
1000
,
0010
0010
1000
0000
0001
0000
0100
0000
,
0010
1000
0001
0000
0010
0000
0100
0000
,
1000
0001
1000
0000
0010
0000
0100
0000
,
0001
0010
0100
0000
1000
1000
0010
0010
,
0100
0100
0001
0000
0001
0000
0010
0000
,
0100
1000
0001
0000
0001
0000
0100
0000
,
0010
1000
0001
0000
0010
0000
0100
0000
,
1000
0100
1000
0000
0001
0001
0100
0100
,
0010
0010
1000
0000
0001
0000
1000
0000
,
1000
0100
0001
0000
0010
0000
0100
0000
,
1000
0010
0001
0000
0010
0000
0100
0000
,
1000
0001
0100
0000
1000
1000
0100
0100
,
0001
0001
0010
0000
0001
0000
0100
0000
,
0010
1000
0001
0000
0100
0000
0010
0000
,
1000
0001
0010
0000
0100
0000
0001
0000
,
1000
0001
0100
0000
0010
0010
1000
1000
,
0001
0001
0010
0000
0100
0000
0001
0000
,
1000
0001
0100
0000
0010
0000
0001
0000
,
1000
0100
0001
0000
0010
0000
0001
0000
,
1000
0010
0001
0000
1000
1000
0001
0001
,
0010
0100
1000
0001
0100
0010
1000
0000
,
0001
0000
0100
0000
0001
0100
0001
0010
,
0100
0000
1000
0000
0001
0100
1000
0100
,
0001
0000
0100
0000
0010
1000
0001
0010
,
0100
0000
1000
0000
0001
1000
0001
0100
,
0010
0000
1000
0000
0001
0100
0001
0010
,
0100
0000
1000
0000
0010
0100
0010
1000
,
0001
0000
0010
0000
0100
1000
0100
0010
,
0001
0100
0010
0000
1000
0001
0010
0100
,
1000
0000
0001
0000
0100
0001
0100
0001
,
0010
0000
0100
0000
1000
0001
1000
0001
,
0100
0000
0010
0000
1000
0010
1000
0010
,
0100
0000
0001
0000
0010
0001
0010
0001
,
0010
0000
0100
0000
1000
0010
1000
0010
,
1000
0000
0100
0000
0001
0010
0001
0010
,
0100
1000
0001
0100
,
0010
2002
0000
0000
,
0000
3003
0000
0000
;
