#TITLE:Wind (Extended Mix);
#SUBTITLE:- Naruto 1st Ending;
#ARTIST:Akeboshi;
#TITLETRANSLIT:;
#SUBTITLETRANSLIT:;
#ARTISTTRANSLIT:;
#CREDIT:;
#BANNER:Wind (Extended Mix).png;
#BACKGROUND:Wind (Extended Mix)-bg.png;
#LYRICSPATH:;
#CDTITLE:Dj DMA Otaku Original.png;
#MUSIC:Wind (Extended Mix).mp3;
#OFFSET:0.120;
#SAMPLESTART:68.182;
#SAMPLELENGTH:12.000;
#SELECTABLE:YES;
#BPMS:0.000=88.000;
#STOPS:;
#BGCHANGES:;
// cache tags:
#FIRSTBEAT:7.750;
#LASTBEAT:156.000;
#SONGFILENAME:Songs/Otaku's Dream 1st Anime Mix/DJ DMAxel - Wind (Extended Mix)/Wind (Extended Mix).sm;
#HASMUSIC:1;
#HASBANNER:1;
#MUSICLENGTH:108.938;
// end cache tags

//---------------dance-single - ----------------
#NOTES:
     dance-single:
     :
     Challenge:
     7:
     0.345,0.358,0.092,0.018,0.542,251.000,10.000,2.000,0.000,0.000:
0000
0000
0000
0000
,
0000
0000
0000
0000
0000
0000
0000
0000
0000
0000
0000
0000
0000
0000
0000
0110
,
0000
0000
1000
0100
0001
0000
0000
0000
1010
0000
0000
0000
0100
0010
0001
0000
,
0000
0000
0101
0000
0000
0000
0010
1000
0100
0000
0000
0000
0000
1100
0000
0000
,
0010
0000
0001
0000
0000
0000
0000
0110
0000
0000
1000
0010
1000
0000
0000
0000
,
0101
0000
0000
0000
0100
0001
0100
0000
0000
0000
1010
0000
0000
0000
0010
0001
,
0010
0000
0000
0000
1000
0000
0000
0000
0000
0100
0000
0010
0000
0000
0000
0000
,
0000
0000
0000
0000
,
0000
2000
0000
0000
0000
0000
0000
0000
0000
0000
0000
0000
0000
0000
0000
3000
,
0000
0000
0001
0000
0000
0000
0000
1000
0010
0100
0000
0000
0000
0010
0000
0000
,
0000
0100
0001
0100
0000
0000
0000
1000
0000
0000
0000
1000
0010
1000
0000
0000
,
0000
0100
0000
0000
0000
0100
0010
0100
0000
0000
0000
0010
0000
0000
0001
1000
,
0000
0010
0100
0000
0010
0000
1000
0000
0100
0000
0001
0000
0010
0000
0001
0000
,
0001
0100
1000
0000
1000
0010
0000
1000
0000
0000
1000
0000
0010
0000
0100
0000
,
0010
1000
0001
0100
1000
0010
0100
0010
,
0000
1000
0100
0001
0010
0000
0000
0000
0001
0000
0100
1000
0000
1000
0010
0000
,
0100
0000
0000
0000
1000
0100
0001
0000
1010
0000
0000
0000
0001
0000
0000
0000
,
0001
0100
1000
0000
0000
0000
0010
0000
0000
0000
1000
0100
0010
0000
0000
1000
,
0010
0000
0100
0000
0010
0000
0001
0000
0010
0000
0001
0000
0001
0100
1000
0000
,
0011
0000
0000
0000
1000
0000
1000
0100
0000
0100
0010
0000
0001
0000
0000
0000
,
0001
0100
0000
1010
0000
0001
0000
0000
1000
0000
1000
0010
0000
0001
0010
0000
,
0100
0000
0000
0010
0000
0001
0010
0100
1000
0010
0000
0000
0000
1000
0000
0100
,
0001
0010
0000
0001
0000
0010
0000
1000
0000
1000
0100
0001
0000
0010
0000
0000
,
0000
0001
0000
0000
0010
0100
1000
0010
0000
0000
0000
1000
0000
0000
0100
0010
,
0001
0010
0000
0000
0001
0010
0000
0100
0000
1000
0100
0010
0000
0000
0000
1000
,
0000
0100
0000
0001
0100
0001
0010
0000
0000
1000
0000
0000
1000
0010
0100
0010
,
0000
0000
0000
0010
0000
0000
0001
0100
0001
0010
0000
0000
1000
0010
0000
0000
,
0100
0010
0001
0010
0000
1000
0000
0100
0000
0000
0010
0000
0001
0010
0000
0001
,
0000
0001
0000
0001
0100
0000
1000
1000
0000
0010
0000
0100
0000
0100
0010
0010
,
1000
0000
0010
0000
0000
0100
0000
0100
0010
0000
0001
0010
0000
1000
0000
0002
,
0000
0000
0000
0000
,
0000
0000
0003
0000
0000
0000
0000
0000
1000
0000
0000
0010
0000
0000
0000
0000
,
0000
0100
0010
0000
0001
0000
0000
1000
0000
0000
0000
0000
1000
0000
0000
0010
,
0000
0000
0000
0000
0100
0000
0001
0000
0010
0000
0000
1000
0000
0000
0000
0000
,
0100
0000
0000
0010
0000
0000
0000
0000
0001
0100
0000
1000
0000
0000
0000
1000
,
0000
0000
0000
1000
0010
0000
0100
0010
0000
0001
0010
0000
1000
0100
0000
0010
,
0000
0000
0001
0010
0000
0001
0100
1000
0000
0000
0000
0010
1000
0000
0010
0100
,
0000
0000
0010
0000
1000
0000
0000
0010
0000
0000
0000
0000
0001
0000
0000
0000
,
0100
0000
0000
0000
1000
0000
0010
0000
0100
0000
0000
0001
0000
0000
0010
0000
,
1000
0000
0000
0000
;

//---------------dance-single - ----------------
#NOTES:
     dance-single:
     :
     Hard:
     5:
     0.214,0.268,0.000,0.009,0.335,162.000,0.000,1.000,0.000,0.000:
0000
0000
0000
0000
,
0000
0000
0000
0000
,
0000
0000
0000
0000
0000
0000
0000
0000
0000
0001
0000
0000
0000
0000
0000
0000
,
0000
0000
0000
1000
0000
0000
0000
0000
0000
0000
0000
0000
0000
0010
0000
0000
,
0000
0000
0000
0000
0000
0000
0000
0010
0000
0000
0000
0000
0000
0000
0000
0000
,
0000
0100
0000
0000
0000
0000
0000
0000
0000
0000
0000
0100
0000
0000
0000
0000
,
0000
0000
0000
0000
0000
0001
0000
0000
0000
0000
0000
0000
0000
0000
0000
0000
,
0000
0000
0000
0000
,
0000
0000
0000
0000
,
0000
0000
0000
0000
1000
0000
0000
0000
1000
0010
1000
0000
0000
0000
0100
0000
,
0000
0000
0010
0001
0010
0000
0000
0000
0010
0000
0000
0000
0010
1000
0010
0000
,
0000
0000
0100
0000
0000
0000
0100
0001
0100
0000
0000
0000
0010
0000
0000
0000
,
0000
0010
0010
0100
0000
0000
1000
1000
,
0001
0000
0000
0010
0010
0100
0000
0000
,
0001
0001
0010
0000
0000
1000
1000
0010
,
0000
0000
0100
0100
0010
0000
0000
0001
,
0001
0000
1000
0000
0000
0000
0000
0000
0000
1000
0000
1000
0010
0000
0000
0000
,
0100
0001
0100
0000
0000
0000
0000
0010
0000
0000
0000
1000
0100
1000
0000
0000
,
0000
0010
0000
0000
0000
0000
0010
0000
0010
0000
0001
0000
0000
0000
0000
0000
,
0001
0001
1000
0000
0000
1000
1000
0010
,
0000
0000
0000
1000
0010
0010
0000
0100
,
0001
0001
0000
0000
0000
0010
0001
0001
,
0000
0000
0001
0000
1000
0000
1000
0000
0000
0000
0000
0000
0000
0010
0000
0010
,
0000
0100
0000
0000
0000
0010
0001
0010
0000
0000
0000
0010
0000
0000
0000
0100
,
1000
0100
0000
0000
0000
0010
0000
0000
0100
0000
0001
0100
0000
0000
0000
0010
,
0000
0000
0000
0010
1000
0010
0000
0000
0000
0100
0000
0000
0100
0010
0100
0000
,
0000
0000
0000
0010
0000
0000
0010
0000
0001
0010
0000
0000
0000
0001
0000
0000
,
0000
0100
0000
0000
1000
0000
0000
0000
0000
0000
0010
0000
0000
0000
1000
0000
,
0000
0010
0000
0000
1000
0000
0000
0010
0000
0000
0000
0000
0100
0000
0000
0010
,
0000
0001
0000
0000
0000
0010
0000
0000
0001
0000
0000
1000
0000
0000
0000
0020
,
0000
0000
0000
0000
0000
0030
0000
0000
,
0000
0000
0000
0000
,
0000
0000
0000
0010
0000
0000
0000
0001
0000
0000
0000
1000
0000
0000
0010
0000
,
0000
0000
0000
0000
0100
0010
0000
0000
0001
0000
0000
1000
0000
0000
0000
0010
,
0000
0000
0100
0000
0000
0000
0000
0000
0001
0010
0000
1000
0000
0000
0000
0100
,
0000
0000
1000
0100
0000
0000
0010
0001
0000
0010
0000
0001
0010
0000
0100
0000
,
0000
0100
0010
0000
0000
1000
0010
1000
0010
0000
0000
0010
0000
0001
0010
0000
,
0000
0100
0000
0010
0000
0000
0000
0100
0000
0100
0000
0010
0000
0000
0000
0000
,
0100
0001
0000
0010
0000
1000
0000
0000
0000
0000
0001
0100
0000
1000
0000
0010
;

//---------------dance-single - ----------------
#NOTES:
     dance-single:
     :
     Medium:
     3:
     0.180,0.197,0.009,0.229,0.000,111.000,1.000,25.000,0.000,0.000:
0000
0000
0000
0000
,
0000
0000
0000
0000
,
0000
0000
0020
0000
,
0030
0002
0000
0000
0000
0003
2000
0000
,
0000
0000
0000
3020
0000
0000
0000
0030
,
0200
0000
0000
0000
0300
0002
0000
0000
,
0000
0003
2000
0000
0000
0000
0000
0000
,
0000
3000
0000
0000
0000
0000
0000
0000
,
0000
0000
0000
0000
,
0000
0010
0000
0000
0001
0100
1000
0000
,
0000
1010
0000
0100
0000
0000
0010
0001
,
0000
1000
0100
0010
0000
0000
0002
0000
,
0000
1000
1003
0010
0000
0000
1000
0010
,
0100
0000
0000
0010
0001
0010
0000
0000
,
1000
0010
0100
0000
0000
0100
0010
0001
,
0000
0000
0001
0100
1000
0000
0000
1000
,
0010
0100
0000
0000
1000
0010
0100
0000
,
0010
0001
0000
0001
0000
0100
1000
0000
,
0010
0000
0000
1000
0010
0100
0000
0000
,
0010
0100
0001
0000
0000
1000
0010
0100
,
0000
0000
0100
0010
0001
0000
0000
1000
,
0010
0100
0000
0000
1000
0010
0100
0000
,
0000
0001
0010
1000
0000
0000
0100
0001
,
0010
0000
0000
1000
0000
0000
0020
0000
,
1030
0000
0002
0000
0000
1003
0000
0000
,
2000
0000
3020
0000
0230
0000
0000
0302
,
0000
0000
0003
0000
2000
3000
0020
0000
,
0030
0200
0000
0300
0002
0000
0003
0000
,
1000
0000
0000
0010
0000
0000
0100
0000
,
0000
0001
0010
0000
0000
1000
0000
0002
,
0000
0000
0000
0000
0000
0000
0000
0003
,
0000
0000
0000
0000
1000
0020
0000
0000
,
0000
0000
0000
0030
0000
0000
0100
0002
,
0000
0000
0000
0000
0000
0003
0000
0000
,
0010
2000
0000
0000
0000
0000
0000
3000
,
0000
0000
0100
0000
0000
0010
0000
0001
,
0000
0000
1000
0000
0010
0200
0000
0000
,
0300
0001
0000
2000
0000
3000
0010
0200
,
0000
0300
0000
1000
,
0001
0000
0000
0000
;

//---------------dance-single - ----------------
#NOTES:
     dance-single:
     :
     Easy:
     1:
     0.085,0.125,0.028,0.156,0.000,45.000,3.000,17.000,0.000,0.000:
0000
0000
0000
0000
,
0000
0000
0000
0000
,
0010
0000
0100
0000
,
0000
0001
0000
0000
0000
0000
0100
0000
,
0000
0000
0000
0002
0000
0000
0000
0003
,
2000
0000
0000
0000
3000
0200
0000
0000
,
0000
0300
0002
0000
0000
0000
0000
0003
,
0000
0000
0000
0000
,
0000
0000
0000
0000
,
0000
2000
0000
0000
0000
3000
0020
0000
,
0000
0000
0030
0000
0200
0000
0000
0300
,
2000
0000
0000
0000
3000
0001
0000
0000
,
0000
0000
0000
0010
0000
0000
0000
0000
,
0100
0000
0000
0000
0000
0010
0000
0000
,
0000
0000
0001
0000
0000
0000
0000
0010
,
0000
0000
0100
0000
,
0000
0001
0000
0000
0000
0000
1000
2000
,
0000
0000
3000
0002
0000
0000
0000
0003
,
0010
0000
0000
0000
0000
0100
0000
0000
,
0000
0000
0010
0000
0000
0000
0000
0001
,
0000
0000
1000
0000
,
0000
0010
0000
0000
0000
0000
0100
0000
,
0000
0000
0000
0001
0000
0000
0000
0000
,
0020
0000
0000
0000
0000
0030
0000
0000
,
0000
0002
0000
0000
,
0000
0003
2000
0000
,
0000
3000
0000
0200
,
0000
0000
0000
0000
0000
0300
0000
0000
,
0010
0000
0000
0000
,
0000
0000
0001
0000
0000
0000
0000
1001
,
0000
0000
0000
0000
,
0000
0000
0020
0000
,
0000
0000
0000
0030
0000
0200
0000
0000
,
0000
0000
0000
0000
0000
0300
0000
0000
,
0002
0000
0000
0003
,
0000
1000
0000
0000
,
0000
0000
0110
0000
,
0000
0000
0000
1010
,
0000
0000
0000
0000
,
0001
0000
0000
0000
;
