#TITLE:Madness;
#SUBTITLE:;
#ARTIST:goreshit;
#TITLETRANSLIT:;
#SUBTITLETRANSLIT:;
#ARTISTTRANSLIT:;
#CREDIT:;
#BANNER:Madness - bn.png;
#BACKGROUND:Madness - bg.png;
#LYRICSPATH:;
#CDTITLE:;
#MUSIC:Madness.ogg;
#OFFSET:0.257;
#SAMPLESTART:30.522;
#SAMPLELENGTH:11.980;
#SELECTABLE:YES;
#BPMS:0.000=241.000;
#STOPS:;
#BGCHANGES:;
// cache tags:
#FIRSTBEAT:40.000;
#LASTBEAT:692.500;
#SONGFILENAME:Songs/SPEEEDCOOOORE 4/Madness - [Aoreo]/Madness.sm;
#HASMUSIC:1;
#HASBANNER:1;
#MUSICLENGTH:174.273;
// end cache tags

//---------------dance-single - J. Nero & Zaia----------------
#NOTES:
     dance-single:
     J. Nero & Zaia:
     Challenge:
     20:
     1.000,1.000,0.000,0.011,1.000,2025.000,0.000,2.000,0.000,0.000:
0000
0000
0000
0000
,
0000
0000
0000
0000
,
0000
0000
0000
0000
,
0000
0000
0000
0000
,
0000
0000
0000
0000
,
0000
0000
0000
0000
,
0000
0000
0000
0000
,
0000
0000
0000
0000
,
0000
0000
0000
0000
,
0000
0000
0000
0000
,
0001
0100
0010
1000
0001
0010
0001
1000
0010
0100
0001
1000
0010
1000
0100
1000
,
0001
0010
0100
1000
0001
0100
0001
1000
0100
0010
0001
1000
0100
1000
0010
1000
,
0001
0100
0010
1000
0001
0010
0001
1000
0010
0100
0001
1000
0010
1000
0100
1000
,
0001
0010
0100
1000
0001
0100
0001
1000
0100
0010
0001
0100
0001
1000
0001
0010
,
0100
1000
0010
0100
0001
1000
0100
1000
0001
0100
0010
1000
0001
0100
0001
0010
,
0001
1000
0100
0010
0001
1000
0010
1000
0001
0010
0100
1000
0001
0010
0001
0100
,
0001
1000
0010
0100
0001
1000
0100
1000
0001
0100
0010
1000
0001
0100
0001
0010
,
0001
1000
0100
1000
0001
0100
0001
0010
0100
1000
0001
1000
0001
0100
0010
1000
,
0100
0010
0001
1000
0010
1000
0001
0010
0100
1000
0001
0010
0001
0100
0001
1000
,
0010
0100
0001
1000
0100
1000
0001
0100
0010
1000
0001
0100
0001
0010
0001
1000
,
0100
0010
0001
1000
0010
1000
0001
0010
0100
1000
0001
0010
0001
0100
0001
1000
,
0010
0100
0001
1000
0100
1000
0001
0100
0010
1000
0100
1000
0001
1000
0010
0100
,
0001
0010
0100
1000
0001
0100
0001
1000
0100
0010
0001
1000
0100
1000
0010
1000
,
0001
0100
0010
1000
0001
0010
0001
1000
0010
0100
0001
1000
0010
1000
0100
1000
,
0001
0010
0100
1000
0001
0100
0001
1000
0100
0010
0001
1000
0001
1000
0010
0100
,
0001
0000
0000
0000
,
1000
0010
0100
0001
1000
0100
1000
0001
0100
0010
1000
0001
0100
0001
0010
0001
,
1000
0100
0010
0001
1000
0010
1000
0001
0010
0100
1000
0001
0010
0001
0100
0001
,
1000
0010
0100
0001
1000
0100
1000
0001
0100
0010
1000
0001
0100
0001
0010
0001
,
1000
0100
0010
0001
1000
0010
1000
0001
0010
0100
1000
0010
1000
0001
1000
0100
,
0010
0001
0100
0010
1000
0001
0010
0001
1000
0010
0100
0001
1000
0010
1000
0100
,
1000
0001
0010
0100
1000
0001
0100
0001
1000
0100
0010
0001
1000
0100
1000
0010
,
1000
0001
0100
0010
1000
0001
0010
0001
1000
0010
0100
0001
1000
0010
1000
0100
,
1000
0001
0010
0001
1000
0010
1000
0100
0010
0001
1000
0001
1000
0010
0100
0001
,
0010
0100
1000
0001
0100
0001
1000
0100
0010
0001
1000
0100
1000
0010
1000
0001
,
0100
0010
1000
0001
0010
0001
1000
0010
0100
0001
1000
0010
1000
0100
1000
0001
,
0010
0100
1000
0001
0100
0001
1000
0100
0010
0001
1000
0100
1000
0010
1000
0001
,
0100
0010
1000
0001
0010
0001
1000
0010
0100
0001
0010
0001
1000
0001
0100
0010
,
1000
0100
0010
0001
1000
0010
1000
0001
0010
0100
1000
0001
0010
0001
0100
0001
,
1000
0010
0100
0001
1000
0100
1000
0001
0100
0010
1000
0001
0100
0001
0010
0001
,
1000
0100
0010
0001
1000
0010
1000
0001
0010
0100
1000
0001
1000
0001
0100
0010
,
2000
3000
0000
0000
0000
0000
0000
0000
,
0001
0100
0001
0010
,
0100
0000
1000
0000
0001
0000
0000
0000
0100
0000
0000
0000
0010
0000
1000
0001
,
1000
0001
0010
0100
,
1000
0000
0001
0100
0001
0000
1000
0000
0010
0000
0000
0000
1000
0100
0010
0100
,
1000
0001
0100
0010
,
1000
0001
1000
0000
0100
0000
0010
0001
,
1000
0001
0100
0010
,
1000
0000
0010
0100
0010
0000
1000
0001
1000
0000
0001
0100
0001
1000
0100
0010
,
0001
0100
0001
1000
,
0010
0000
0100
0000
0010
0000
0000
0000
1000
0000
0000
0000
0001
0000
1000
0100
,
1000
0000
0001
0100
0001
0000
1000
0000
,
0001
0000
0100
0001
0100
0000
0001
0000
0010
0000
0100
1000
0001
0100
0001
1000
,
0010
1000
0100
0010
,
0001
1000
0001
0000
0100
0000
0010
1000
,
0001
0100
0001
0010
0100
1000
0010
0100
,
0001
0100
0001
1000
0100
0010
0001
1000
0100
1000
0001
0100
0001
1000
0010
1000
,
0001
0100
0001
0010
0001
1000
0100
1000
0001
1000
0010
0100
0001
1000
0001
1000
,
0100
0010
0100
1000
0001
0010
0001
0100
0001
1000
0010
0100
0001
1000
0100
1000
,
0001
0010
0100
1000
0010
1000
0001
0100
0001
1000
0001
0010
0100
1000
0001
1000
,
0001
0100
0010
0100
0001
1000
0010
1000
0100
1000
0001
0010
0100
1000
0001
1000
,
0010
0100
0001
0010
0001
1000
0100
1000
0001
1000
0010
0100
0001
1000
0001
1000
,
0100
0010
0100
1000
0001
0010
0001
0100
0001
1000
0010
0100
0001
1000
0100
1000
,
0001
0010
0100
1000
0010
1000
0001
0100
0001
1000
0001
0010
0100
1000
0001
0100
,
0010
0000
0000
0000
,
1000
0010
1000
0100
1000
0001
0010
0001
1000
0001
0100
0010
1000
0001
1000
0001
,
0010
0100
0010
0001
1000
0100
1000
0010
1000
0001
0100
0010
1000
0001
0010
0001
,
1000
0100
0010
0001
0100
0001
1000
0010
1000
0001
1000
0100
0010
0001
1000
0001
,
1000
0010
0100
0010
1000
0001
0100
0001
0010
0001
1000
0100
0010
0001
1000
0001
,
0100
0010
1000
0100
1000
0001
0010
0001
1000
0001
0100
0010
1000
0001
1000
0001
,
0010
0100
0010
0001
1000
0100
1000
0010
1000
0001
0100
0010
1000
0001
0010
0001
,
1000
0100
0010
0001
0100
0001
1000
0010
1000
0001
1000
0100
0010
0001
1000
0010
,
0100
0001
1000
0001
0010
0100
1000
0001
1000
0010
1000
0010
0100
0001
0100
0001
,
1000
0100
1000
0010
1000
0001
0100
0001
1000
0001
0010
0100
1000
0001
1000
0001
,
0100
0010
0100
0001
1000
0010
1000
0100
1000
0001
0010
0100
1000
0001
0100
0001
,
1000
0010
0100
0001
0010
0001
1000
0100
1000
0001
1000
0010
0100
0001
1000
0001
,
1000
0100
0010
0100
1000
0001
0010
0001
0100
0001
1000
0010
0100
0001
1000
0001
,
0010
0100
1000
0010
1000
0001
0100
0001
1000
0001
0010
0100
1000
0001
1000
0001
,
0100
0010
0100
0001
1000
0010
1000
0100
1000
0001
0010
0100
1000
0001
0100
0001
,
1000
0010
0100
0001
0010
0001
1000
0100
1000
0001
1000
0010
0100
0001
1000
0001
,
0100
0000
0000
0000
,
0001
0100
0001
0010
0001
1000
0100
1000
0001
1000
0010
0100
0001
1000
0001
1000
,
0100
0010
0100
1000
0001
0010
0001
0100
0001
1000
0010
0100
0001
1000
0100
1000
,
0001
0010
0100
1000
0010
1000
0001
0100
0001
1000
0001
0010
0100
1000
0001
1000
,
0001
0100
0010
0100
0001
1000
0010
1000
0100
1000
0001
0010
0100
1000
0001
1000
,
0010
0100
0001
0010
0001
1000
0100
1000
0001
1000
0010
0100
0001
1000
0001
1000
,
0100
0010
0100
1000
0001
0010
0001
0100
0001
1000
0010
0100
0001
1000
0100
1000
,
0001
0010
0100
1000
0010
1000
0001
0100
0001
1000
0001
0010
0100
1000
0001
0100
,
0010
1000
0001
1000
0100
0010
0001
1000
0001
0100
0001
0100
0010
1000
0010
0100
,
0001
1000
0010
0100
0010
1000
0001
0010
,
0100
1000
0001
0100
0010
0100
0001
1000
,
0100
0010
0100
1000
0001
0100
0010
0100
,
0001
1000
0100
0010
0001
1000
0001
0100
,
0010
1000
0100
1000
0001
1000
0100
1000
,
0001
0100
0001
1000
0001
0100
0001
0010
,
0100
1000
0001
0100
0001
1000
0010
0100
,
0010
1000
0001
0010
0100
0010
0001
1000
,
0010
0100
0010
1000
0001
1000
0100
0010
,
0001
0100
0001
1000
0010
0100
0010
1000
,
0001
1000
0100
0010
0001
1000
0001
0100
,
0010
0100
0001
1000
0100
0010
0100
1000
,
0001
0100
0001
1000
0001
0100
0001
0010
,
0100
1000
0001
1000
0100
1000
0010
1000
,
0001
0100
0010
0100
0001
1000
0100
0010
,
0001
1000
0100
1000
0010
0100
0010
1000
,
0100
0010
0001
1000
0001
0100
0010
0100
,
0001
0010
0100
1000
0001
0010
0001
1000
,
0100
0010
0100
1000
0010
0100
0010
1000
,
0001
0010
0100
1000
0001
0100
0001
1000
,
0010
0100
0001
1000
0100
0010
0100
1000
,
0001
0100
0001
1000
0100
0010
0001
1000
,
0001
0100
0010
0100
0001
1000
0100
0010
,
0001
1000
0001
0100
0010
0100
0001
1000
,
0100
0010
0100
1000
0001
0100
0001
1000
,
0001
0100
0010
0100
0001
0010
0100
1000
,
0001
0100
0010
0100
0001
1000
0100
0010
,
0001
1000
0001
0100
0010
0100
0001
0010
,
0100
1000
0001
0100
0001
1000
0100
0010
,
0100
1000
0001
0100
0001
1000
0010
0100
,
0010
1000
0100
0010
0001
0100
0001
1000
,
0100
1000
0001
0100
0001
0010
0100
1000
,
0000
0000
0000
0000
,
0000
0000
0000
0000
,
0000
0000
0000
0000
,
0000
0000
0000
0000
,
0001
0010
0001
0100
0001
1000
0010
1000
0001
1000
0100
0010
0001
1000
0001
1000
,
0010
0100
0010
1000
0001
0100
0001
0010
0001
1000
0100
0010
0001
1000
0010
1000
,
0001
0100
0010
1000
0100
1000
0001
0010
0001
1000
0001
0100
0010
1000
0001
1000
,
0001
0010
0100
0010
0001
1000
0100
1000
0010
1000
0001
0100
0010
1000
0001
1000
,
0100
0010
0001
0100
0001
1000
0010
1000
0001
1000
0100
0010
0001
1000
0001
1000
,
0010
0100
0010
1000
0001
0100
0001
0010
0001
1000
0100
0010
0001
1000
0010
1000
,
0001
0100
0010
1000
0100
1000
0001
0010
0001
1000
0001
0100
0010
1000
0001
0010
,
0100
0000
0000
0000
,
1000
0100
1000
0010
1000
0001
0100
0001
1000
0001
0010
0100
1000
0001
1000
0001
,
0100
0010
0100
0001
1000
0010
1000
0100
1000
0001
0010
0100
1000
0001
0100
0001
,
1000
0010
0100
0001
0010
0001
1000
0100
1000
0001
1000
0010
0100
0001
1000
0001
,
1000
0100
0010
0100
1000
0001
0010
0001
0100
0001
1000
0010
0100
0001
1000
0001
,
0010
0100
1000
0010
1000
0001
0100
0001
1000
0001
0010
0100
1000
0001
1000
0001
,
0100
0010
0100
0001
1000
0010
1000
0100
1000
0001
0010
0100
1000
0001
0100
0001
,
1000
0010
0100
0001
0010
0001
1000
0100
1000
0001
1000
0010
0100
0001
1000
0100
,
0010
0001
1000
0001
0100
0010
0100
0001
1000
0100
1000
0010
0100
0001
0010
0001
,
0100
0010
1000
0100
1000
0001
0010
0001
1000
0001
0100
0010
1000
0001
1000
0001
,
0010
0100
0010
0001
1000
0100
1000
0010
1000
0001
0100
0010
1000
0001
0010
0001
,
1000
0100
0010
0001
0100
0001
1000
0010
1000
0001
1000
0100
0010
0001
1000
0001
,
1000
0010
0100
0010
1000
0001
0100
0001
0010
0001
1000
0100
0010
0001
1000
0001
,
0100
0010
1000
0100
1000
0001
0010
0001
1000
0001
0100
0010
1000
0001
1000
0001
,
0010
0100
0010
0001
1000
0100
1000
0010
1000
0001
0100
0010
1000
0001
0010
0001
,
1000
0100
0010
0001
0100
0001
1000
0010
1000
0001
1000
0100
0010
0001
1000
0001
,
0010
0100
1000
0001
0100
0010
1000
0001
1000
0100
1000
0001
0010
0001
1000
0001
,
1000
0100
1000
0010
1000
0001
0100
0001
1000
0001
0010
0100
1000
0001
1000
0001
,
0100
0010
0100
0001
1000
0010
1000
0100
1000
0001
0010
0100
1000
0001
0100
0001
,
1000
0010
0100
0001
0010
0001
1000
0100
1000
0001
1000
0010
0100
0001
1000
0001
,
1000
0100
0010
0100
1000
0001
0010
0001
0100
0001
1000
0010
0100
0001
1000
0001
,
0010
0000
0000
0000
,
0000
0000
0000
0000
,
0000
0000
0000
0000
,
0001
0100
0001
1000
0100
0010
0001
1000
0100
1000
0001
0100
0001
1000
0010
1000
,
0001
0100
0010
1000
0001
0010
0001
1000
0010
0100
0001
1000
0010
1000
0100
1000
,
0001
0010
0100
1000
0001
0100
0001
1000
0100
0010
0001
1000
0100
1000
0010
1000
,
0001
0100
0010
1000
0001
0010
0001
1000
0010
0100
0001
1000
0010
1000
0100
1000
,
0001
0010
0100
1000
0001
0100
0001
1000
0100
0010
0001
0100
0001
1000
0001
0010
,
0100
1000
0010
0100
0001
1000
0100
1000
0001
0100
0010
1000
0001
0100
0001
0010
,
0001
1000
0100
0010
0001
1000
0010
1000
0001
0010
0100
1000
0001
0010
0001
0100
,
0001
1000
0010
0100
0001
1000
0100
1000
0001
0100
0010
1000
0001
0100
0001
0010
,
0001
1000
0100
1000
0001
0100
0001
0010
0100
1000
0001
1000
0001
0100
0010
1000
,
0100
0010
0001
1000
0010
1000
0001
0010
0100
1000
0001
0010
0001
0100
0001
1000
,
0010
0100
0001
1000
0100
1000
0001
0100
0010
1000
0001
0100
0001
0010
0001
1000
,
0100
0010
0001
1000
0010
1000
0001
0010
0100
1000
0001
0010
0001
0100
0001
1000
,
0010
0100
0001
1000
0100
1000
0001
0100
0010
1000
0100
1000
0001
1000
0010
0100
,
0001
0010
0100
1000
0001
0100
0001
1000
0100
0010
0001
1000
0100
1000
0010
1000
,
0001
0100
0010
1000
0001
0010
0001
1000
0010
0100
0001
1000
0010
1000
0100
1000
,
0001
0010
0100
1000
0001
0100
0001
1000
0100
0010
0001
1000
0001
0010
0100
1000
,
0002
0003
0000
0000
0000
0000
0000
0000
;

//---------------dance-single - J. Nero----------------
#NOTES:
     dance-single:
     J. Nero:
     Hard:
     19:
     1.000,1.000,0.000,0.356,1.000,1847.000,0.000,62.000,0.000,0.000:
0000
0000
0000
0000
,
0000
0000
0000
0000
,
0000
0000
0000
0000
,
0000
0000
0000
0000
,
0000
0000
0000
0000
,
0000
0000
0000
0000
,
0000
0000
0000
0000
,
0000
0000
0000
0000
,
0000
0000
0000
0000
,
0000
0000
0000
0000
,
0001
0100
0010
1000
0001
0010
0001
1000
0010
0100
0001
1000
0020
0030
0200
0300
,
0001
0010
0100
1000
0001
0100
0001
1000
0100
0010
0001
1000
0002
0003
2000
3000
,
0001
0100
0010
1000
0001
0010
0001
1000
0010
0100
0001
1000
0020
0030
0200
0300
,
0001
0010
0100
1000
0001
0100
0001
1000
0100
0010
0001
0100
0002
0000
0000
0000
,
1003
0010
0100
0010
1000
0001
0010
0001
1000
0010
0100
0001
2000
3000
0002
0003
,
1000
0001
0010
0100
1000
0001
0100
0001
1000
0100
0010
0001
0200
0300
0020
0030
,
1000
0001
0100
0010
1000
0001
0010
0001
1000
0010
0100
0001
2000
3000
0002
0003
,
0200
0302
0003
0020
0230
2300
3002
0000
,
0013
0100
1000
0001
0100
0001
1000
0100
0010
0001
1000
0001
0200
0300
0020
0030
,
0100
0010
1000
0001
0010
0001
1000
0010
0100
0001
1000
0010
2000
3000
0002
0003
,
0010
0100
1000
0001
0100
0001
1000
0100
0010
0001
1000
0100
2000
3000
0002
0003
,
1000
0010
1000
0001
0010
0001
1000
0010
0100
0001
0010
0001
2000
0000
0000
0000
,
3001
0010
0100
1000
0001
0100
0001
1000
0100
0010
0001
1000
0200
0300
0020
0030
,
0001
0100
0010
1000
0001
0010
0001
1000
0010
0100
0001
1000
0020
0030
0200
0300
,
0001
0010
0100
1000
0001
0100
0001
1000
0100
0010
0001
1000
0001
1000
0010
0100
,
0001
0000
0000
0000
,
1000
0010
0100
0001
1000
0100
1000
0001
0100
0010
1000
0001
0200
0300
0020
0030
,
1000
0100
0010
0001
1000
0010
1000
0001
0010
0100
1000
0001
0020
0030
0200
0300
,
1000
0010
0100
0001
1000
0100
1000
0001
0100
0010
1000
0001
0200
0300
0020
0030
,
1000
0100
0010
0001
1000
0010
1000
0001
0010
0100
1000
0010
2000
0000
0000
0000
,
3001
0100
0010
0100
0001
1000
0100
1000
0001
0100
0010
1000
0002
0003
2000
3000
,
0001
1000
0100
0010
0001
1000
0010
1000
0001
0010
0100
1000
0002
0003
2000
3000
,
0001
1000
0010
0100
0001
1000
0100
1000
0001
0100
0010
1000
0002
0003
0200
0300
,
0002
0023
0030
0200
2300
3020
0230
0000
,
0301
0010
0001
1000
0010
1000
0001
0010
0100
1000
0001
0010
0002
0003
2000
3000
,
0010
0100
0001
1000
0100
1000
0001
0100
0010
1000
0001
0100
0002
0003
2000
3000
,
0100
0010
0001
1000
0010
1000
0001
0010
0100
1000
0001
0010
0002
0003
2000
3000
,
0010
0100
0001
1000
0100
1000
0001
0100
0010
1000
0100
1000
0002
0000
0000
0000
,
1003
0100
0010
0001
1000
0010
1000
0001
0010
0100
1000
0001
0020
0030
0200
0300
,
1000
0010
0100
0001
1000
0100
1000
0001
0100
0010
1000
0001
0200
0300
0020
0030
,
1000
0100
0010
0001
1000
0010
1000
0001
0010
0100
1000
0001
1000
0001
0100
0010
,
2000
3000
0000
0000
0000
0000
0000
0000
,
0001
0100
0001
0010
,
0100
0000
1000
0000
0001
0000
0000
0000
0100
0000
0000
0000
0010
0000
1000
0001
,
1000
0001
0010
0100
,
1000
0000
0001
0100
0001
0000
1000
0000
0010
0000
0000
0000
1000
0100
0010
0100
,
1000
0001
0100
0010
,
1000
0001
1000
0000
0100
0000
0010
0001
,
1000
0001
0100
0010
,
1000
0000
0010
0100
0010
0000
1000
0001
1000
0000
0001
0100
0001
1000
0100
0010
,
0001
0100
0001
1000
,
0010
0000
0100
0000
0010
0000
0000
0000
1000
0000
0000
0000
0001
0000
1000
0100
,
1000
0000
0001
0100
0001
0000
1000
0000
,
0001
0000
0100
0001
0100
0000
0001
0000
0010
0000
0100
1000
0001
0100
0001
1000
,
0010
1000
0100
0010
,
0001
1000
0001
0000
0100
0000
0010
1000
,
0001
0100
0001
0010
0100
1000
0010
0100
,
0001
0100
0001
1000
0100
0010
0001
1000
0100
1000
0001
0100
0001
1000
0010
1000
,
0001
0100
0001
0010
0001
1000
0100
1000
0001
1000
0010
0100
0001
0000
1000
0000
,
0100
0010
0100
1000
0001
0010
0001
0100
0001
1000
0010
0100
0001
0000
1000
0000
,
0001
0010
0100
1000
0010
1000
0001
0100
0001
1000
0001
0010
0100
0000
1000
0000
,
0001
0100
0010
0100
0001
1000
0010
1000
0100
1000
0001
0100
0001
0000
1000
0000
,
0010
0100
0001
0010
0001
1000
0100
1000
0001
1000
0010
0100
0001
0000
1000
0000
,
0100
0010
0100
1000
0001
0010
0001
0100
0001
1000
0010
1000
0001
0000
0100
0000
,
0001
0010
0100
1000
0010
1000
0001
0100
0001
1000
0001
0010
0100
1000
0001
0100
,
0010
0000
0000
0000
,
1000
0010
1000
0100
1000
0001
0010
0001
1000
0001
0100
0010
1000
0000
0001
0000
,
1000
0100
0010
0001
1000
0100
1000
0010
1000
0001
0100
0010
1000
0000
0001
0000
,
1000
0100
0010
0001
0100
0001
1000
0010
1000
0001
1000
0100
0010
0000
0001
0000
,
1000
0010
0100
0010
1000
0001
1000
0100
0010
0001
1000
0001
0100
0000
0001
0000
,
0100
0010
1000
0100
1000
0001
0010
0001
1000
0001
0100
0010
1000
0000
0001
0000
,
1000
0100
0010
0001
1000
0100
1000
0010
1000
0001
0100
0010
1000
0000
0001
0000
,
1000
0100
0010
0001
0100
0001
1000
0010
1000
0001
1000
0100
0010
0000
0001
1000
,
0100
0000
0010
0001
0100
0000
0010
1000
0100
0000
0010
0001
0100
0001
0010
0100
,
1000
0100
1000
0010
1000
0001
0100
0001
1000
0001
0010
0100
1000
0000
0001
0000
,
0100
0010
0100
0001
1000
0010
1000
0100
1000
0001
0010
0100
1000
0000
0010
0000
,
1000
0010
0100
0001
0010
0001
1000
0100
1000
0001
1000
0010
0100
0000
0001
0000
,
1000
0100
0010
0100
1000
0001
0010
0001
0100
0001
1000
0010
1000
0000
0001
0000
,
0010
0100
1000
0010
1000
0001
0100
0001
1000
0001
0010
0100
1000
0000
0001
0000
,
0100
0010
0100
0001
1000
0010
1000
0100
1000
0001
0010
0100
1000
0000
0001
0000
,
1000
0010
0100
0001
0010
0001
1000
0100
1000
0001
1000
0010
0100
0001
1000
0001
,
0100
0000
0000
0000
,
0001
0100
0001
0010
0001
1000
0100
1000
0001
1000
0010
0100
0001
0000
1000
0000
,
0001
1000
0100
1000
0001
0010
0001
0100
0001
1000
0010
0100
0001
0000
1000
0000
,
0001
0010
0100
1000
0010
1000
0001
0100
0001
1000
0001
0010
0100
0000
1000
0000
,
0001
0100
0010
0100
0001
1000
0010
1000
0100
1000
0001
0010
0100
0000
1000
0000
,
0010
0100
0001
0010
0001
1000
0100
1000
0001
1000
0010
0100
0001
0000
1000
0000
,
0001
1000
0100
1000
0001
0010
0001
0100
0001
1000
0010
0100
0001
0000
1000
0000
,
0001
0010
0100
1000
0010
1000
0001
0100
0001
1000
0001
0010
0100
1000
0001
0100
,
0010
0000
1000
0100
0010
0000
0001
0100
0010
1000
0100
0010
0001
1000
0001
0100
,
0001
1000
0010
0100
0010
1000
0001
0010
,
0100
1000
0001
0100
0010
0100
0001
1000
,
0100
0010
0100
1000
0001
0100
0010
0100
,
0001
1000
0100
0010
0001
1000
0001
0100
,
0010
1000
0100
1000
0001
1000
0100
1000
,
0001
0100
0001
1000
0001
0100
0001
0010
,
0100
1000
0001
0100
0001
1000
0010
0100
,
0010
1000
0001
0010
0100
0010
0001
1000
,
0010
0100
0010
1000
0001
1000
0100
0010
,
0001
0100
0001
1000
0010
0100
0010
1000
,
0001
1000
0100
0010
0001
1000
0001
0100
,
0010
0100
0001
1000
0100
0010
0100
1000
,
0001
0100
0001
1000
0001
0100
0001
0010
,
0100
1000
0001
1000
0100
1000
0010
1000
,
0001
0100
0010
0100
0001
1000
0100
0010
,
0001
1000
0100
1000
0010
0100
0010
1000
,
0100
0010
0001
1000
0001
0100
0010
0100
,
0001
0010
0100
1000
0001
0010
0001
1000
,
0100
0010
0100
1000
0010
0100
0010
1000
,
0001
0010
0100
1000
0001
0100
0001
1000
,
0010
0100
0001
1000
0100
0010
0100
1000
,
0001
0100
0001
1000
0100
0010
0001
1000
,
0001
0100
0010
0100
0001
1000
0100
0010
,
0001
1000
0001
0100
0010
0100
0001
1000
,
0100
0010
0100
1000
0001
0100
0001
1000
,
0001
0100
0010
0100
0001
0010
0100
1000
,
0001
0100
0010
0100
0001
1000
0100
0010
,
0001
1000
0001
0100
0010
0100
0001
0010
,
0100
1000
0001
0100
0001
1000
0100
0010
,
0100
1000
0001
0100
0001
1000
0010
0100
,
0010
1000
0100
0010
0001
0100
0001
1000
,
0100
1000
0001
0100
0001
0010
0100
1000
,
0000
0000
0000
0000
,
0000
0000
0000
0000
,
0000
0000
0000
0000
,
0000
0000
0000
0000
,
0001
0010
0001
0100
0001
1000
0010
1000
0001
1000
0100
0010
0001
0000
1000
0000
,
0010
0100
0010
1000
0001
0100
0001
0010
0001
1000
0100
0010
0001
0000
0010
0000
,
0001
0100
0010
1000
0100
1000
0001
0010
0001
1000
0001
0100
0010
0000
1000
0000
,
0001
0010
0100
0010
0001
1000
0100
1000
0010
1000
0001
0100
0001
0000
1000
0000
,
0100
0010
0001
0100
0001
1000
0010
1000
0001
1000
0100
0010
0001
0000
0100
0000
,
0001
0100
0010
1000
0001
0100
0001
0010
0001
1000
0100
0010
0001
0000
1000
0000
,
0001
0100
0010
1000
0100
1000
0001
0010
0001
1000
0001
0100
0010
1000
0001
0010
,
0100
0000
0000
0000
,
1000
0100
1000
0010
1000
0001
0100
0001
1000
0001
0010
0100
1000
0000
0001
0000
,
0100
0010
0100
0001
1000
0010
1000
0100
1000
0001
0010
0100
1000
0000
0010
0000
,
1000
0010
0100
0001
0010
0001
1000
0100
1000
0001
1000
0010
0100
0000
0001
0000
,
1000
0100
0010
0100
1000
0001
0010
0001
0100
0001
1000
0010
1000
0000
0001
0000
,
0010
0100
1000
0010
1000
0001
0100
0001
1000
0001
0010
0100
1000
0000
0001
0000
,
0100
0010
0100
0001
1000
0010
1000
0100
1000
0001
0010
0100
1000
0000
0010
0000
,
1000
0010
0100
0001
0010
0001
1000
0100
1000
0001
1000
0010
0100
0001
1000
0100
,
0010
0000
0001
0100
0010
0000
1000
0100
0010
0001
1000
0010
0100
0010
1000
0001
,
0100
0010
1000
0100
1000
0001
0010
0001
1000
0001
0100
0010
1000
0000
0001
0000
,
0010
0100
0010
0001
1000
0100
1000
0010
1000
0001
0100
0010
1000
0000
0010
0000
,
1000
0100
0010
0001
0100
0001
1000
0010
1000
0001
1000
0100
0010
0000
0001
0000
,
1000
0010
0100
0010
1000
0001
0100
0001
0010
0001
1000
0100
0010
0000
0001
0000
,
0100
0010
1000
0100
1000
0001
0010
0001
1000
0001
0100
0010
1000
0000
0001
0000
,
0010
0100
0010
0001
1000
0100
1000
0010
1000
0001
0100
0010
1000
0000
0001
0000
,
1000
0100
0010
0001
0100
0001
1000
0010
1000
0001
1000
0100
0010
0000
0001
0100
,
0010
0000
1000
0100
0010
0000
0001
0100
0010
0000
1000
0100
0010
0001
1000
0001
,
1000
0100
1000
0010
1000
0001
0100
0001
1000
0001
0010
0100
1000
0000
0001
0000
,
0100
0010
0100
0001
1000
0010
1000
0100
1000
0001
0010
0100
1000
0000
0001
0000
,
1000
0010
0100
0001
0010
0001
1000
0100
1000
0001
1000
0010
0100
0000
0001
0000
,
1000
0100
0010
0100
1000
0001
0010
0001
0100
0001
1000
0010
0100
0001
1000
0001
,
0100
0000
0000
0000
,
0000
0000
0000
0000
,
0000
0000
0000
0000
,
0001
0100
0001
1000
0100
0010
0001
1000
0100
1000
0001
0100
0001
1000
0010
1000
,
0001
0100
0010
1000
0001
0010
0001
1000
0010
0100
0001
1000
0010
1000
0100
1000
,
0001
0010
0100
1000
0001
0100
0001
1000
0100
0010
0001
1000
0100
1000
0010
1000
,
0001
0100
0010
1000
0001
0010
0001
1000
0010
0100
0001
1000
0010
1000
0100
1000
,
0001
0010
0100
1000
0001
0100
0001
1000
0100
0010
0001
0100
0001
1000
0001
0010
,
0100
1000
0010
0100
0001
1000
0100
1000
0001
0100
0010
1000
0001
0100
0001
0010
,
0001
1000
0100
0010
0001
1000
0010
1000
0001
0010
0100
1000
0001
0010
0001
0100
,
0001
1000
0010
0100
0001
1000
0100
1000
0001
0100
0010
1000
0001
0100
0001
0010
,
0001
1000
0100
1000
0001
0100
0001
0010
0100
1000
0001
1000
0001
0100
0010
1000
,
0100
0010
0001
1000
0010
1000
0001
0010
0100
1000
0001
0010
0001
0100
0001
1000
,
0010
0100
0001
1000
0100
1000
0001
0100
0010
1000
0001
0100
0001
0010
0001
1000
,
0100
0010
0001
1000
0010
1000
0001
0010
0100
1000
0001
0010
0001
0100
0001
1000
,
0010
0100
0001
1000
0100
1000
0001
0100
0010
1000
0100
1000
0001
1000
0010
0100
,
0001
0010
0100
1000
0001
0100
0001
1000
0100
0010
0001
1000
0100
1000
0010
1000
,
0001
0100
0010
1000
0001
0010
0001
1000
0010
0100
0001
1000
0010
1000
0100
1000
,
0001
0010
0100
1000
0001
0100
0001
1000
0100
0010
0001
1000
0001
0010
0100
1000
,
0002
0003
0000
0000
0000
0000
0000
0000
;
