#TITLE:Final Crisis;
#SUBTITLE:Xenosaga II (2004);
#ARTIST:Kajiura Yuki;
#TITLETRANSLIT:;
#SUBTITLETRANSLIT:;
#ARTISTTRANSLIT:;
#CREDIT:;
#BANNER:Final Crisis.png;
#BACKGROUND:Final Crisis-bg.png;
#LYRICSPATH:;
#CDTITLE:!yesssss-cdtitle.png;
#MUSIC:Final Crisis.mp3;
#OFFSET:-0.654;
#SAMPLESTART:14.354;
#SAMPLELENGTH:12.000;
#SELECTABLE:YES;
#BPMS:0.000=140.000;
#STOPS:;
#BGCHANGES:;
// cache tags:
#FIRSTBEAT:0.000;
#LASTBEAT:224.000;
#SONGFILENAME:Songs/VGMP 3/Final Crisis (Yesssss)/Final Crisis.sm;
#HASMUSIC:1;
#HASBANNER:1;
#MUSICLENGTH:134.739;
// end cache tags

//---------------dance-single - Copied from----------------
#NOTES:
     dance-single:
     Copied from:
     Challenge:
     15:
     1.000,1.000,1.000,0.965,1.000,702.000,167.000,130.000,247.000,118.000:





1011
0000
0000
0000
0100
0000
0000
0000
0010
0000
0000
0000
1001
0000
0000
0000
0100
0000
0001
0000
1000
0000
0000
0000
0101
0000
0000
0010
0100
0000
1000
0000
0010
0100
0000
0000
1002
0000
0000
0000
0100
0000
0000
0000
1000
0000
0000
0000
,
1113
0000
0000
0001
0100
0000
0010
0000
0001
1100
0000
0000
0011
0000
0000
1000
0100
0000
0011
0000
1000
0000
0000
0000
0111
0000
0000
0000
0M00
0000
1000
0000
0010
0100
0000
0000
20M1
0000
0000
0000
0001
0000
0000
0000
000M
0000
0000
0000
,
3111
0000
0000
1000
0100
0000
0001
0000
0100
0010
0000
0000
0201
0000
0000
0000
0010
0000
0000
0000
1000
0000
0000
0000
0311
0000
0000
0000
1000
0000
0011
0000
0100
1000
0000
0000
0011
0000
0000
0100
0010
0000
0001
0000
1000
0010
0000
0000
,
1101
0000
0000
0000
1000
0000
0010
0000
0100
1000
0000
0000
0101
0000
0000
1000
0010
0000
0100
0000
1000
0000
0000
0000
0111
0000
0000
0000
0M00
0000
0002
0000
0010
0000
0000
0000
11M3
0000
0000
0010
0001
0000
0100
0000
000M
1000
0000
0000
,
0111
0000
0000
0000
1000
0000
0010
0000
0100
1000
0000
0000
0201
0000
0000
0000
0010
0000
0000
0000
1000
0000
0000
0000
0311
0000
0000
0100
1000
0000
0001
0000
0100
0010
0000
0000
2001
0000
0000
0000
0010
0000
3001
0000
0100
1000
0000
0000
,
0111
0000
0000
0010
1000
0000
0001
0000
0100
0010
0000
0000
1001
0000
0000
0100
0010
0000
0001
0000
0100
0000
0000
0000
1011
0000
0000
0000
M000
0000
0001
0000
0100
0010
0000
0000
2M01
0000
0000
0000
0010
0000
0000
0000
00M0
0000
0000
0000
,
3111
0000
0000
0000
0100
0000
1000
0000
0010
0100
0000
0000
0021
0000
0000
0000
0100
0000
0000
0000
1000
0000
0000
0000
1031
0000
0000
0001
0100
0000
1000
0000
0010
0100
0000
0000
0021
0000
0000
0000
0100
0000
0000
0000
1000
0000
0000
0000
,
1131
0000
0000
0010
0100
0000
1000
0000
0010
0101
0000
0000
1001
0000
0000
1000
0100
0000
0011
0000
1000
0000
0000
0000
0111
0000
0000
0000
0M00
0000
0001
0000
0010
0100
0000
0000
20M1
0000
0000
0000
0001
0000
0000
0000
000M
0000
0000
0000
,
3211
0000
0000
0000
0000
0000
0000
0000
0000
0000
0000
0000
0000
0000
0000
0000
000M
0000
0000
0000
0000
0000
0000
0000
0000
0000
0000
0000
0000
0000
0000
0000
0010
0000
0000
0000
0000
0000
0000
0000
0000
0000
0000
0000
0000
0000
0000
0000
00M0
0000
0000
0000
0000
0000
0000
0000
0000
0000
0000
0000
0000
0000
0000
0000
1000
0000
0000
0000
0000
0000
0000
0000
0000
0000
0000
0000
0000
0000
0000
0000
M000
0000
0000
0000
0000
0000
0000
0000
0000
0000
0000
0000
0000
0000
0000
0000
2310
0000
0000
0000
0000
0000
0000
0000
0000
0000
0000
0000
0000
0000
0000
0000
00M0
0000
0000
0000
0000
0000
0000
0000
0000
0000
0000
0000
0000
0000
0000
0000
0001
0000
0000
0000
0000
0000
0000
0000
0000
0000
0000
0000
0000
0000
0000
0000
000M
0000
0000
0000
0000
0000
0000
0000
0000
0000
0000
0000
0000
0000
0000
0000
0010
0000
0000
0000
0000
0000
0000
0000
0200
0000
0000
0000
0000
0000
0000
0000
00M0
0000
0000
0000
0000
0000
0000
0000
0000
0000
0300
0000
0000
0000
0000
0000
,
3112
0000
0000
0000
0000
0000
0000
0000
0000
0000
0000
0000
1000
0000
0000
0000
0M00
0000
0000
0000
0000
0000
0000
0000
0010
0000
0000
0000
0000
0000
0000
0000
1000
0000
0000
0000
0000
0000
0000
0000
0000
0000
0000
0000
0000
0000
0000
0000
M000
0000
0000
0000
0000
0000
0000
0000
0000
0000
0000
0000
0000
0000
0000
0000
0100
0000
0000
0000
0000
0000
0000
0000
0000
0000
0000
0000
0000
0000
0000
0000
0M00
0000
0000
0000
0000
0000
0000
0000
0000
0000
0000
0000
0000
0000
0000
0000
1023
0000
0000
0000
0000
0000
0000
0000
0000
0000
0000
0000
0000
0000
0000
0000
M000
0000
0000
0000
0000
0000
0000
0000
0000
0000
0000
0000
0000
0000
0000
0000
0100
0000
0000
0000
0000
0000
0000
0000
0000
0000
0000
0000
0000
0000
0000
0000
0M00
0000
0000
0000
0000
0000
0000
0000
0000
0000
0000
0000
0000
0000
0000
0000
0001
0000
0000
0000
0000
0000
0000
0000
2000
0000
0000
0000
0000
0000
0000
0000
000M
0000
0000
0000
0000
0000
0000
0000
0000
0000
3000
0000
0000
0000
0000
0000
,
1231
0000
0000
0000
0000
0000
0000
0000
0000
0000
0000
0000
0000
0000
0000
0000
M000
0000
0000
0000
0000
0000
0000
0000
0000
0000
0000
0000
0000
0000
0000
0000
0001
0000
0000
0000
0000
0000
0000
0000
0000
0000
0000
0000
0000
0000
0000
0000
000M
0000
0000
0000
0000
0000
0000
0000
0000
0000
0000
0000
0000
0000
0000
0000
0010
0000
0000
0000
0000
0000
0000
0000
0000
0000
0000
0000
0000
0000
0000
0000
00M0
0000
0000
0000
0000
0000
0000
0000
0000
0000
0000
0000
0000
0000
0000
0000
2301
0000
0000
0000
0000
0000
0000
0000
0000
0000
0000
0000
0000
0000
0000
0000
000M
0000
0000
0000
0000
0000
0000
0000
0000
0000
0000
0000
0000
0000
0000
0000
0010
0000
0000
0000
0000
0000
0000
0000
0000
0000
0000
0000
0000
0000
0000
0000
00M0
0000
0000
0000
0000
0000
0000
0000
0000
0000
0000
0000
0000
0000
0000
0000
0100
0000
0000
0000
0000
0000
0000
0000
0020
0000
0000
0000
0000
0000
0000
0000
0M00
0000
0000
0000
0000
0000
0000
0000
0000
0000
0030
0000
0000
0000
0000
0000
,
3112
0000
0000
1000
00M0
0000
0100
0000
1000
0000
0000
0000
M000
0000
0000
0000
0010
0000
0000
0000
00M0
0000
0000
0000
1203
0000
0000
0000
M000
0000
0000
0000
0010
0000
0000
0000
00M1
0000
0000
0000
1000
0000
0001
0000
M010
0000
0001
0000
,
1320
0000
0000
0000
0000
0000
0000
0000
0001
0000
0000
0000
0000
0000
0000
0000
M000
0000
0000
0000
0000
0000
0000
0000
0000
0000
0000
0000
0000
0000
0000
0000
0100
0000
0000
0000
0000
0000
0000
0000
0000
0000
0000
0000
0000
0000
0000
0000
0M00
0000
0000
0000
0000
0000
0000
0000
0000
0000
0000
0000
0000
0000
0000
0000
1000
0000
0000
0000
0000
0000
0000
0000
0000
0000
0000
0000
0000
0000
0000
0000
M000
0000
0000
0000
0000
0000
0000
0000
0000
0000
0000
0000
0000
0000
0000
0000
0231
0000
0000
0000
0000
0000
0000
0000
0000
0000
0000
0000
0000
0000
0000
0000
000M
0000
0000
0000
0000
0000
0000
0000
0000
0000
0000
0000
0000
0000
0000
0000
0010
0000
0000
0000
0000
0000
0000
0000
0000
0000
0000
0000
0000
0000
0000
0000
00M0
0000
0000
0000
0000
0000
0000
0000
0000
0000
0000
0000
0000
0000
0000
0000
1000
0000
0000
0000
0000
0000
0000
0000
0020
0000
0000
0000
0000
0000
0000
0000
M000
0000
0000
0000
0000
0000
0000
0000
0000
0000
0030
0000
0000
0000
0000
0000
,
1312
0000
0000
0100
00M0
0000
1000
0000
0100
0000
0000
0000
0M00
0000
0000
0000
1000
0000
0000
0000
M000
0000
0000
0000
2103
0000
0000
0000
0M00
0000
0000
0000
0010
0000
0000
0000
00M0
0000
0000
0000
0001
0000
0200
0000
000M
0000
0000
0000
,
3321
0000
0000
0000
0000
0000
0000
0000
0100
0000
0000
0000
0000
0000
0000
0000
000M
0000
0000
0000
0000
0000
0000
0000
0000
0000
0000
0000
0000
0000
0000
0000
1000
0000
0000
0000
0000
0000
0000
0000
0000
0000
0000
0000
0000
0000
0000
0000
M000
0000
0000
0000
0000
0000
0000
0000
0000
0000
0000
0000
0000
0000
0000
0000
0100
0000
0000
0000
0000
0000
0000
0000
0000
0000
0000
0000
0000
0000
0000
0000
0M00
0000
0000
0000
0000
0000
0000
0000
0000
0000
0000
0000
0000
0000
0000
0000
0231
0000
0000
0000
0000
0000
0000
0000
0000
0000
0000
0000
0000
0000
0000
0000
000M
0000
0000
0000
0000
0000
0000
0000
0000
0000
0000
0000
0000
0000
0000
0000
1000
0000
0000
0000
0000
0000
0000
0000
0000
0000
0000
0000
0000
0000
0000
0000
M000
0000
0000
0000
0000
0000
0000
0000
0000
0000
0000
0000
0000
0000
0000
0000
0010
0000
0000
0000
0000
0000
0000
0000
0002
0000
0000
0000
0000
0000
0000
0000
00M0
0000
0000
0000
0000
0000
0000
0000
0000
0000
0003
0000
0000
0000
0000
0000
,
2311
0000
0000
0100
300M
0000
0010
0000
0000
MMMM
0000
0000
0200
0000
0000
0000
0300
0000
0000
0000
0000
MMMM
0000
0000
0020
0000
0000
0000
0030
0000
0000
0000
0000
MMMM
0000
0000
0102
0000
0000
0000
0003
0000
0000
0000
0000
MMMM
0000
0000
,
1011
0000
0000
0000
0100
0000
1000
0000
0010
0100
0000
0000
0011
0000
0000
1000
0100
0000
0001
0000
1000
0010
0000
0000
0112
0000
0000
0000
0100
0000
1003
0000
0010
0000
0000
0000
1001
0000
0000
0010
0100
0000
0001
0000
1000
0100
0000
0000
,
1011
0000
0000
0000
0100
0000
1000
0000
0010
0100
0000
0000
1001
0000
0000
0010
0100
0000
0002
0000
1000
0000
0000
0000
1103
0000
0000
0010
0M00
0000
0001
0000
0010
0100
0000
0000
10M1
0000
0000
0010
0001
0000
0100
0000
000M
1000
0000
0000
,
0111
0000
0000
0001
1000
0000
0010
0000
0100
1001
0000
0000
0101
0000
0000
0010
1000
0000
0101
0000
0010
1000
0000
0000
0111
0000
0000
0110
1000
0000
0001
0000
0100
1000
0000
0000
0201
0000
0000
0000
1000
0000
0300
0000
0010
0100
0000
0000
,
0111
0000
0000
0000
1000
0000
0011
0000
0100
1000
0000
0000
0101
0000
0000
0011
1000
0000
0100
0000
0010
1000
0000
0000
0102
0000
0000
0000
0M00
0000
0000
0000
0010
0000
0000
0000
11M3
0000
0000
0010
0001
0000
0100
0000
000M
0010
0000
0000
,
1101
0000
0000
0000
0100
0000
1000
0000
0010
0100
0000
0000
0021
0000
0000
0000
0100
0000
0000
0000
1000
0000
0000
0000
1031
0000
0000
0010
0100
0000
1000
0000
0010
0100
0000
0000
2001
0000
0000
0000
0100
0000
3001
0000
0010
0100
0000
0000
,
1001
0000
0000
0010
0100
0000
1000
0000
0010
0100
0000
0000
0001
0000
0000
0010
0100
0000
1001
0000
0010
0000
0000
0000
1100
0000
0000
0000
0M00
0000
0001
0000
0010
0100
0000
0000
20M1
0000
0000
0000
0001
0000
0000
0000
000M
0000
0000
0000
,
3111
0000
0000
1000
0100
0000
0001
0000
0010
0100
0000
0000
1001
0000
0000
0000
1000
0000
0011
0000
0100
0000
0000
0000
1011
0000
0000
0011
0100
0000
1000
0000
0010
0000
0000
0000
0201
0000
0000
0000
1000
0000
0000
0000
0010
0000
0000
0000
,
1311
0000
0000
0000
0100
0000
1000
0000
0010
0100
0000
0000
0011
0000
0000
0100
1000
0000
0010
0000
0100
0001
0000
0000
1210
0000
0000
0000
M000
0000
0301
0000
0010
0100
0000
0000
20M1
0000
0000
0000
0001
0000
3100
0000
000M
0010
0000
0000
,
2100
0000
0000
0000
0000
0000
0000
0000
0000
0000
0000
0000
0000
0000
0000
0000
0M00
0000
0000
0000
0000
0000
0000
0000
0000
0000
0000
0000
0000
0000
0000
0000
0001
0000
0000
0000
0000
0000
0000
0000
0000
0000
0000
0000
0000
0000
0000
0000
000M
0000
0000
0000
0000
0000
0000
0000
0000
0000
0000
0000
0000
0000
0000
0000
0010
0000
0000
0000
0000
0000
0000
0000
0000
0000
0000
0000
0000
0000
0000
0000
00M0
0000
0000
0000
0000
0000
0000
0000
0000
0000
0000
0000
0000
0000
0000
0000
3102
0000
0000
0000
0000
0000
0000
0000
0000
0000
0000
0000
0000
0000
0000
0000
0M00
0000
0000
0000
0000
0000
0000
0000
0000
0000
0000
0000
0000
0000
0000
0000
1000
0000
0000
0000
0000
0000
0000
0000
0000
0000
0000
0000
0000
0000
0000
0000
M000
0000
0000
0000
0000
0000
0000
0000
0000
0000
0000
0000
0000
0000
0000
0000
0010
0000
0000
0000
0000
0000
0000
0000
0200
0000
0000
0000
0000
0000
0000
0000
00M0
0000
0000
0000
0000
0000
0000
0000
0000
0000
0300
0000
0000
0000
0000
0000
,
2113
0000
0000
0000
0000
0000
0000
0000
0000
0000
0000
0000
0001
0000
0000
0000
0M00
0000
0000
0000
0000
0000
0000
0000
0010
0000
0000
0000
0000
0000
0000
0000
0001
0000
0000
0000
0000
0000
0000
0000
0000
0000
0000
0000
0000
0000
0000
0000
302M
0000
0000
0000
0000
0000
0000
0000
0000
0000
0000
0000
0000
0000
0000
0000
0100
0000
0000
0000
0000
0000
0000
0000
0000
0000
0000
0000
0000
0000
0000
0000
0M00
0000
0000
0000
0000
0000
0000
0000
0000
0000
0000
0000
0000
0000
0000
0000
1032
0000
0000
0000
0000
0000
0000
0000
0000
0000
0000
0000
0000
0000
0000
0000
M000
0000
0000
0000
0000
0000
0000
0000
0000
0000
0000
0000
0000
0000
0000
0000
0010
0000
0000
0000
0000
0000
0000
0000
0000
0000
0000
0000
0000
0000
0000
0000
12M3
0000
0000
0000
0000
0000
0000
0000
0000
0000
0000
0000
0000
0000
0000
0000
0001
0000
0000
0000
0000
0000
0000
0000
2000
0000
0000
0000
0000
0000
0000
0000
000M
0000
0000
0000
0000
0000
0000
0000
0000
0000
3000
0000
0000
0000
0000
0000
,
1321
0000
0000
0000
0000
0000
0000
0000
0000
0000
0000
0000
0000
0000
0000
0000
M000
0000
0000
0000
0000
0000
0000
0000
0000
0000
0000
0000
0000
0000
0000
0000
0100
0000
0000
0000
0000
0000
0000
0000
0000
0000
0000
0000
0000
0000
0000
0000
0M32
0000
0000
0000
0000
0000
0000
0000
0000
0000
0000
0000
0000
0000
0000
0000
0010
0000
0000
0000
0000
0000
0000
0000
0000
0000
0000
0000
0000
0000
0000
0000
00M0
0000
0000
0000
0000
0000
0000
0000
0000
0000
0000
0000
0000
0000
0000
0000
2103
0000
0000
0000
0000
0000
0000
0000
0000
0000
0000
0000
0000
0000
0000
0000
0M00
0000
0000
0000
0000
0000
0000
0000
0000
0000
0000
0000
0000
0000
0000
0000
0001
0000
0000
0000
0000
0000
0000
0000
0000
0000
0000
0000
0000
0000
0000
0000
000M
0000
0000
0000
0000
0000
0000
0000
0000
0000
0000
0000
0000
0000
0000
0000
0100
0000
0000
0000
0000
0000
0000
0000
0002
0000
0000
0000
0000
0000
0000
0000
0M00
0000
0000
0000
0000
0000
0000
0000
0000
0000
0003
0000
0000
0000
0000
0000
,
3211
0000
0000
0000
0000
0000
0000
0000
0000
0000
0000
0000
1000
0000
0000
0000
00M0
0000
0000
0000
0000
0000
0000
0000
0001
0000
0000
0000
0000
0000
0000
0000
1000
0000
0000
0000
0000
0000
0000
0000
0000
0000
0000
0000
0000
0000
0000
0000
M000
0000
0000
0000
0000
0000
0000
0000
0000
0000
0000
0000
0000
0000
0000
0000
0010
0000
0000
0000
0000
0000
0000
0000
0000
0000
0000
0000
0000
0000
0000
0000
00M0
0000
0000
0000
0000
0000
0000
0000
0000
0000
0000
0000
0000
0000
0000
0000
1302
0000
0000
0000
0000
0000
0000
0000
0000
0000
0000
0000
0000
0000
0000
0000
M000
0000
0000
0000
0000
0000
0000
0000
0000
0000
0000
0000
0000
0000
0000
0000
0100
0000
0000
0000
0000
0000
0000
0000
0000
0000
0000
0000
0000
0000
0000
0000
0M10
0000
0000
0000
0000
0000
0000
0000
0000
0000
0000
0000
0000
0000
0000
0000
1000
0000
0000
0000
0000
0000
0000
0000
0020
0000
0000
0000
0000
0000
0000
0000
M003
0000
0000
0000
0000
0000
0000
0000
0000
0000
0030
0000
0000
0000
0000
0000
,
0112
0000
0000
0000
0000
0000
0000
0000
1000
0000
0000
0000
0000
0000
0000
0000
00M0
0000
0000
0000
0000
0000
0000
0000
0000
0000
0000
0000
0000
0000
0000
0000
1000
0000
0000
0000
0000
0000
0000
0000
0000
0000
0000
0000
0000
0000
0000
0000
M023
0000
0000
0000
0000
0000
0000
0000
0000
0000
0000
0000
0000
0000
0000
0000
0001
0000
0000
0000
0000
0000
0000
0000
0000
0000
0000
0000
0000
0000
0000
0000
000M
0000
0000
0000
0000
0000
0000
0000
0000
0000
0000
0000
0000
0000
0000
0000
1230
0000
0000
0000
0000
0000
0000
0000
0000
0000
0000
0000
0000
0000
0000
0000
M000
0000
0000
0000
0000
0000
0000
0000
0000
0000
0000
0000
0000
0000
0000
0000
0001
0000
0000
0000
0000
0000
0000
0000
0000
0000
0000
0000
0000
0000
0000
0000
230M
0000
0000
0000
0000
0000
0000
0000
0000
0000
0000
0000
0000
0000
0000
0000
0010
0000
0000
0000
0000
0000
0000
0000
0002
0000
0000
0000
0000
0000
0000
0000
00M0
0000
0000
0000
0000
0000
0000
0000
0000
0000
0003
0000
0000
0000
0000
0000
,
3121
0000
0000
1000
0M00
0000
0001
0000
1000
0000
0000
0000
M000
0000
0000
0000
0001
0000
0000
0000
000M
0000
0000
0000
1230
0000
0000
0000
M000
0000
0000
0000
0001
0000
0000
0000
100M
0000
0000
0000
0010
0000
1000
0000
00M1
0000
1000
0000
,
0321
0000
1000
0000
0130
0000
0001
0000
0010
0100
0000
0000
1001
0000
0000
0100
0010
0000
0001
0000
1000
0010
0000
0000
0111
0000
0000
0000
1000
0000
0011
0000
0100
1000
0000
0000
0201
0000
0000
0000
0010
0000
0000
0000
1000
0000
0000
0000
,
1311
0000
0000
0100
1000
0000
0001
0000
0100
1010
0000
0000
0101
0000
0000
1000
0010
0000
0101
0000
1000
0010
0000
0000
1101
0000
0000
0000
0M00
0000
0001
0000
0010
1000
0000
0000
02M1
0000
0000
0000
0001
0000
0000
0000
000M
0000
0000
0000
,
2311
0000
0000
0000
0000
0000
0000
0000
0000
0000
0000
0000
0000
0000
0000
0000
000M
0000
0000
0000
0000
0000
0000
0000
0000
0000
0000
0000
0000
0000
0000
0000
0010
0000
0000
0000
0000
0000
0000
0000
0000
0000
0000
0000
0000
0000
0000
0000
00M2
0000
0000
0000
0000
0000
0000
0000
0000
0000
0000
0000
0000
0000
0000
0000
0100
0000
0000
0000
0000
0000
0000
0000
0000
0000
0000
0000
0000
0000
0000
0000
0M03
0000
0000
0000
0000
0000
0000
0000
0000
0000
0000
0000
0000
0000
0000
0000
3012
0000
0000
0000
0000
0000
0000
0000
0000
0000
0000
0000
0000
0000
0000
0000
00M0
0000
0000
0000
0000
0000
0000
0000
0000
0000
0000
0000
0000
0000
0000
0000
1000
0000
0000
0000
0000
0000
0000
0000
0000
0000
0000
0000
0000
0000
0000
0000
M000
0000
0000
0000
0000
0000
0000
0000
0000
0000
0000
0000
0000
0000
0000
0000
0100
0000
0000
0000
0000
0000
0000
0000
2000
0000
0000
0000
0000
0000
0000
0000
0M00
0000
0000
0000
0000
0000
0000
0000
0000
0000
3000
0000
0000
0000
0000
0000
,
1213
0000
0000
0000
0000
0000
0000
0000
0000
0000
0000
0000
0001
0000
0000
0000
00M0
0000
0000
0000
0000
0000
0000
0000
1000
0000
0000
0000
0000
0000
0000
0000
0001
0000
0000
0000
0000
0000
0000
0000
0000
0000
0000
0000
0000
0000
0000
0000
032M
0000
0000
0000
0000
0000
0000
0000
0000
0000
0000
0000
0000
0000
0000
0000
1000
0000
0000
0000
0000
0000
0000
0000
0000
0000
0000
0000
0000
0000
0000
0000
M000
0000
0000
0000
0000
0000
0000
0000
0000
0000
0000
0000
0000
0000
0000
0000
0132
0000
0000
0000
0000
0000
0000
0000
0000
0000
0000
0000
0000
0000
0000
0000
0M00
0000
0000
0000
0000
0000
0000
0000
0000
0000
0000
0000
0000
0000
0000
0000
1000
0000
0000
0000
0000
0000
0000
0000
0000
0000
0000
0000
0000
0000
0000
0000
M123
0000
0000
0000
0000
0000
0000
0000
0000
0000
0000
0000
0000
0000
0000
0000
0001
0000
0000
0000
0000
0000
0000
0000
0200
0000
0000
0000
0000
0000
0000
0000
000M
0000
0000
0000
0000
0000
0000
0000
0000
0000
0300
0000
0000
0000
0000
0000
,
2131
0000
0000
0000
0000
0000
0000
0000
0000
0000
0000
0000
0000
0000
0000
0000
000M
0000
0000
0000
0000
0000
0000
0000
0000
0000
0000
0000
0000
0000
0000
0000
0100
0000
0000
0000
0000
0000
0000
0000
0000
0000
0000
0000
0000
0000
0000
0000
3M02
0000
0000
0000
0000
0000
0000
0000
0000
0000
0000
0000
0000
0000
0000
0000
0010
0000
0000
0000
0000
0000
0000
0000
0000
0000
0000
0000
0000
0000
0000
0000
00M0
0000
0000
0000
0000
0000
0000
0000
0000
0000
0000
0000
0000
0000
0000
0000
1203
0000
0000
0000
0000
0000
0000
0000
0000
0000
0000
0000
0000
0000
0000
0000
M000
0000
0000
0000
0000
0000
0000
0000
0000
0000
0000
0000
0000
0000
0000
0000
0001
0000
0000
0000
0000
0000
0000
0000
0000
0000
0000
0000
0000
0000
0000
0000
000M
0000
0000
0000
0000
0000
0000
0000
0000
0000
0000
0000
0000
0000
0000
0000
1000
0000
0000
0000
0000
0000
0000
0000
0002
0000
0000
0000
0000
0000
0000
0000
M000
0000
0000
0000
0000
0000
0000
0000
0000
0000
0003
0000
0000
0000
0000
0000
,
1321
0000
0000
0100
000M
0000
1000
0000
0100
0000
0000
0000
0M00
0000
0000
0000
1000
0000
0000
0000
M000
0000
0000
0000
2031
0000
0000
0000
000M
0000
0000
0000
0100
0000
0000
0000
3M12
0000
0000
0000
1000
0000
0000
0000
M013
0000
0100
0000
,
1012
0000
0000
0000
0000
0000
0000
0000
0000
0000
0000
0000
0000
0000
0000
0000
00M0
0000
0000
0000
0000
0000
0000
0000
0000
0000
0000
0000
0000
0000
0000
0000
1000
0000
0000
0000
0000
0000
0000
0000
0000
0000
0000
0000
0000
0000
0000
0000
M023
0000
0000
0000
0000
0000
0000
0000
0000
0000
0000
0000
0000
0000
0000
0000
0100
0000
0000
0000
0000
0000
0000
0000
0000
0000
0000
0000
0000
0000
0000
0000
0M00
0000
0000
0000
0000
0000
0000
0000
0000
0000
0000
0000
0000
0000
0000
0000
0231
0000
0000
0000
0000
0000
0000
0000
0000
0000
0000
0000
0000
0000
0000
0000
000M
0000
0000
0000
0000
0000
0000
0000
0000
0000
0000
0000
0000
0000
0000
0000
0010
0000
0000
0000
0000
0000
0000
0000
0000
0000
0000
0000
0000
0000
0000
0000
23M0
0000
0000
0000
0000
0000
0000
0000
0000
0000
0000
0000
0000
0000
0000
0000
0001
0000
0000
0000
0000
0000
0000
0000
0200
0000
0000
0000
0000
0000
0000
0000
000M
0000
0000
0000
0000
0000
0000
0000
0000
0000
0300
0000
0000
0000
0000
0000
,
3121
0000
0000
1000
0M00
0000
0001
0000
1000
0000
0000
0000
M000
0000
0000
0000
0100
0000
0000
0000
0M00
0000
0000
0000
0231
0000
0000
0000
000M
0000
0000
0000
1000
0000
0000
0000
M000
0000
0000
0000
0001
0000
0010
0000
100M
0000
0010
0000
,
2301
0100
00M0
0000
0001
0000
000M
0000
0010
3200
00M0
0000
1000
0000
M000
0000
0001
0000
032M
0000
1000
0002
M000
0000
,
1103
0000
0000
0001
0M00
0000
1032
0000
0100
0000
0000
0000
M000
0000
0000
0000
0010
0000
0000
0000
00M0
0000
0000
0000
0123
0000
0000
0000
0M00
0000
0000
0000
0001
0000
0000
0000
010M
0000
0000
0000
1000
0000
0000
0000
M000
0000
0000
0000
,
1231
0000
0310
00M0
0010
00M0
0020
0000
0031
000M
0001
000M
,
1201
0000
0310
00M0
0010
00M0
0020
0000
0031
000M
0001
000M
,
1201
0000
0310
00M0
0010
00M0
0020
0000
0031
000M
0001
000M
,
0121
0000
1030
M000
1000
M000
2011
0000
3100
0M00
0100
0M00
,
2211
0000
0301
000M
0001
000M
0002
0000
0013
00M0
0010
00M0
,
0211
0000
0310
00M0
0010
00M0
0020
0000
0031
000M
0001
000M
,
0211
0000
0310
00M0
0010
00M0
0020
0000
0031
000M
0001
000M
,
0112
0000
0103
0M00
0100
0M00
0211
0000
0310
00M0
0010
00M0
,
3111
0000
0000
0000
0100
0000
0001
0000
0010
1000
0000
0000
0101
0000
0000
1000
0010
0000
0001
0000
1000
0010
0000
0000
1102
0000
0000
0000
0M00
0000
1003
0000
0010
0100
0000
0000
00M1
0000
0000
0000
0001
0000
0010
0000
000M
0100
0000
0000
,
1011
0000
0000
0000
0000
0000
0000
0000
0000
0000
0000
0000
0000
0000
0000
0000
0100
0000
0000
0000
0000
0000
0000
0000
0001
0000
0000
0000
0000
0000
0000
0000
0010
0000
0000
0000
1000
0000
0000
0000
0000
0000
0000
0000
0000
0000
0000
0000
0101
0000
0000
0000
0000
0000
0000
0000
0000
0000
0000
0000
0010
0000
0000
0000
0100
0000
0000
0000
0000
0000
0000
0000
0001
0000
0000
0000
0000
0000
0000
0000
1000
0000
0000
0000
0010
0000
0000
0000
0000
0000
0000
0000
0000
0000
0000
0000
1100
0000
0000
0000
0000
0000
0000
0000
0000
0000
0000
0000
0000
0000
0000
0000
0M00
0000
0000
0000
0000
0000
0000
0000
0001
0000
0000
0000
0000
0000
0000
0000
0010
0000
0000
0000
0100
0000
0000
0000
0000
0000
0000
0000
0000
0000
0000
0000
20M1
0000
0000
0000
0000
0000
0000
0000
0000
0000
0000
0000
0000
0000
0000
0000
0001
0000
0000
0000
0000
0000
0000
0000
3000
0000
0000
0000
0000
0000
0000
0000
000M
0000
0000
0000
0100
0000
0000
0000
0000
0000
1000
0000
0000
0000
0000
0000
,
0111
0000
0000
0000
1000
0000
0010
0000
0100
1000
0000
0000
0011
0000
0000
1000
0010
0000
0001
0000
0100
0010
0000
0000
1101
0000
0000
0000
M000
0000
0001
0000
0100
0010
0000
0000
1M00
0000
0000
0001
0010
0000
0100
0000
00M0
1000
0000
0000
,
1011
0000
0000
0000
0100
0000
0001
0000
0010
1000
0000
0000
0101
0000
0000
1000
0010
0000
0001
0000
0100
0010
0000
0000
1002
0000
0000
0000
M000
0000
0013
0000
0100
0001
0000
0000
1M10
0000
0000
0001
0010
0000
0100
0000
00M0
1000
0000
0000
,
1102
0000
0000
0000
0M00
0000
0010
0000
1000
0100
0000
0000
M020
0000
0000
0000
0100
0000
0030
0000
0M00
0010
0000
0000
1123
0000
0000
0000
M000
0000
0100
0000
0001
1000
0000
0000
020M
0000
0000
0000
1000
0000
0300
0000
M000
0001
0000
0000
,
1231
0000
0000
0010
000M
0000
1000
0000
0010
0001
0000
0000
00M2
0000
0000
0000
1000
0000
0000
0000
M000
0013
0000
0000
2311
0000
0000
0010
000M
0000
0100
0000
0010
0001
0000
0000
01M2
0000
0000
0000
0100
0000
0000
0000
0M00
0003
0000
0000
,
3112
0000
1MM0
0000
M1M0
0000
M213
0000
10MM
0000
M0M1
0000
,
1321
0000
0000
0000
MM01
0000
0000
0000
M10M
0000
0000
0000
2M31
0000
0000
0000
01MM
0000
0000
0000
0M1M
3000
0000
0000
,
M1MM
0000
0000
0000
;

//---------------dance-single - ----------------
#NOTES:
     dance-single:
     :
     Hard:
     11:
     0.663,0.727,0.653,0.571,1.000,460.000,88.000,77.000,154.000,24.000:

1001
0000
0000
0000
0001
0000
0001
0000
0010
0100
0010
1000
0002
0000
0000
0000
,
1013
0000
0000
0001
0000
0000
0010
0000
0000
1100
0000
0000
0001
0000
0000
1000
0000
0000
0011
0000
0000
0000
0000
0000
0101
0000
0000
0000
0M00
0000
0000
0000
0010
0000
0000
0000
10M0
0000
0000
0000
0001
0000
0000
0000
000M
0000
0000
0000
,
0101
1000
0001
0010
0200
0000
0000
0000
0310
0000
0011
1000
0001
0100
0001
0010
,
1001
0000
0000
0000
0000
0000
0010
0000
0000
1000
0000
0000
0001
0000
0000
1000
0000
0000
0100
0000
0000
0000
0000
0000
0101
0000
0000
0000
0M00
0000
0000
0000
0010
0000
0000
0000
10M0
0000
0000
0000
0001
0000
0000
0000
000M
0000
0000
0000
,
0101
0000
0010
1000
0200
0000
0000
0000
1300
0010
0100
0001
2000
0000
3001
1000
,
0101
0000
0000
0010
0000
0000
0001
0000
0000
1000
0000
0000
0010
0000
0000
0100
0000
0000
0001
0000
0000
0000
0000
0000
1001
0000
0000
0000
M000
0000
0000
0000
0100
0000
0000
0000
0M01
0000
0000
0000
0010
0000
0000
0000
00M0
0000
0000
0000
,
0101
0000
1000
0100
0020
0000
0000
0000
1030
0001
1000
0100
0020
0000
0000
0000
,
1031
0000
0000
0010
0000
0000
1000
0000
0000
0101
0000
0000
0010
0000
0000
1000
0000
0000
0011
0000
0000
0000
0000
0000
0101
0000
0000
0000
0M00
0000
0000
0000
0010
0000
0000
0000
00M1
0000
0000
0000
1000
0000
0000
0000
000M
0000
0000
0000
,
0011
000M
0010
00M0
1000
M000
0010
00M0
0001
000M
0010
00M0
,
0110
0M00
1000
M000
0100
0M00
1000
M000
0100
0M00
0001
000M
,
1001
M000
0001
000M
0010
00M0
0001
000M
0010
00M0
0100
0M00
,
0110
00M0
1000
M000
0010
00M0
1000
M000
0010
00M1
1000
M000
,
1001
M000
0100
0M00
1000
M000
0001
000M
0010
00M0
1000
M000
,
1010
00M0
0100
0M00
1000
M000
0100
0M00
0010
00M0
0001
000M
,
1001
000M
1000
M000
0100
0M00
0001
000M
1000
M000
0010
00M0
,
1100
MMMM
0000
0100
MMMM
0000
0010
MMMM
0000
1001
MMMM
0000
,
1001
0000
0001
0100
0010
1000
0001
0010
0102
0000
1003
0000
0001
0010
0001
0100
,
1001
0000
0000
0000
0000
0000
0001
0000
0000
0100
0000
0000
0001
0000
0000
0010
0000
0000
0002
0000
0000
0000
0000
0000
1103
0000
0000
0000
0M00
0000
0000
0000
0010
0000
0000
0000
10M0
0000
0000
0000
0001
0000
0000
0000
000M
0000
0000
0000
,
0110
0001
0010
1001
0100
0010
0101
0010
1000
0110
0001
1000
0200
0000
0300
1000
,
0101
0000
0000
0000
0000
0000
0011
0000
0000
1000
0000
0000
0100
0000
0000
0011
0000
0000
0100
0000
0000
1000
0000
0000
0100
0000
0000
0000
0M00
0000
0000
0000
0010
0000
0000
0000
01M0
0000
0000
0000
0001
0000
0000
0000
000M
0000
0000
0000
,
1001
0000
1000
0100
0020
0000
0000
0000
1030
0010
1000
0100
2000
0000
3001
0100
,
0001
0000
0000
0010
0000
0000
0100
0000
0000
1000
0000
0000
0000
0000
0000
0010
0000
0000
1001
0000
0000
0000
0000
0000
0100
0000
0000
0000
0M00
0000
0000
0000
0010
0000
0000
0000
10M0
0000
0000
0000
0001
0000
0000
0000
000M
0000
0000
0000
,
0101
1000
0001
0100
0001
0000
0011
0000
0001
0110
1000
0000
0200
0000
0000
0000
,
1301
0000
0000
0000
0000
0000
1000
0000
0000
0100
0000
0000
0010
0000
0000
0100
0000
0000
0010
0000
0000
0001
0000
0000
1010
0000
0000
0000
M000
0000
0000
0000
0010
0000
0000
0000
01M0
0000
0000
0000
0001
0000
0000
0000
000M
0000
0000
0000
,
2100
0000
0001
0000
0010
0000
3002
0000
1000
0000
0010
0000
,
2013
0000
0001
3020
0100
0000
0032
0000
0010
1203
0001
0000
,
1320
0000
0100
0032
0010
0000
2003
0000
0001
0000
0100
0000
,
3210
0000
1000
0000
0010
0000
0302
0000
0100
0010
1000
0003
,
0012
0000
1000
0023
0001
0000
0230
0000
0001
2300
0010
0000
,
3120
0000
1000
0000
0001
0000
0230
0000
0001
1000
0010
0000
,
1301
0000
0001
0100
0001
1000
0001
0010
0101
0000
0011
1000
0200
0000
0000
0000
,
1301
0000
0000
0100
0000
0000
0001
0000
0000
1010
0000
0000
0100
0000
0000
1000
0000
0000
0101
0000
0000
0010
0000
0000
1100
0000
0000
0000
0M00
0000
0000
0000
0010
0000
0000
0000
10M0
0000
0000
0000
0001
0000
0000
0000
000M
0000
0000
0000
,
2001
0000
0010
0000
0100
0000
3002
0000
1000
0000
0010
0000
,
1203
0000
0001
0320
1000
0000
0132
0000
1000
0123
0001
0000
,
2031
0000
0100
3002
0010
0000
0203
0000
0001
0000
1000
0000
,
0321
0000
0100
0000
1000
0000
2030
0000
0100
3012
1000
0003
,
0012
0000
0100
0023
1000
0000
0230
0000
0010
2300
0001
0000
,
3120
0000
1000
0000
0100
0000
0231
0000
1000
0000
0001
0000
,
2310
0000
0000
0000
0001
0000
0000
0000
0010
3200
0000
0000
1000
0000
0000
0000
0001
0000
0320
0000
1000
0000
0000
0000
,
0100
0000
0000
0032
1000
0000
0000
0000
0010
0000
0000
0000
0023
0000
0000
0000
0001
0000
1000
0000
0000
0000
0000
0000
,
0231
0000
0310
00M0
0010
00M0
0020
0000
0031
000M
0001
000M
,
1200
0000
0310
00M0
0010
00M0
0020
0000
0031
000M
0001
000M
,
1200
0000
0310
00M0
0010
00M0
0020
0000
0031
000M
0001
000M
,
0120
0000
1030
M000
1000
M000
2001
0000
3100
0M00
0100
0M00
,
2100
0000
3100
0M00
0100
0M00
0200
0000
0301
000M
0001
000M
,
2001
0000
3100
0M00
0100
0M00
0200
0000
0301
000M
0001
000M
,
2010
0000
3100
0M00
0100
0M00
0200
0000
0301
000M
0001
000M
,
1020
0000
0130
0M00
0100
0M00
0210
0000
0310
00M0
0010
00M0
,
0101
0000
0000
0000
0000
0000
0001
0000
0000
1000
0000
0000
0100
0000
0000
1000
0000
0000
0001
0000
0000
0010
0000
0000
1100
0000
0000
0000
0M00
0000
0000
0000
0010
0000
0000
0000
10M0
0000
0000
0000
0001
0000
0000
0000
000M
0000
0000
0000
,
1100
0000
0000
0000
0000
0000
0001
0000
0000
1000
0000
0000
0100
0000
0000
0010
0000
0000
0001
0000
0000
0010
0000
0000
0100
0000
0000
0000
0M00
0000
0000
0000
0010
0000
0000
0000
10M0
0000
0000
0000
0001
0000
0000
0000
000M
0000
0000
0000
,
0101
0000
0000
0000
0000
0000
0010
0000
0000
1000
0000
0000
0010
0000
0000
0100
0000
0000
0001
0000
0000
0010
0000
0000
1001
0000
0000
0000
M000
0000
0000
0000
0100
0000
0000
0000
0M00
0000
0000
0000
0010
0000
0000
0000
00M0
0000
0000
0000
,
1001
0000
0000
0000
0000
0000
1000
0000
0000
0100
0000
0000
0010
0000
0000
0001
0000
0000
0100
0000
0000
0010
0000
0000
1000
0000
0000
0000
M000
0000
0000
0000
0100
0000
0000
0000
0M01
0000
0000
0000
0010
0000
0000
0000
00M0
0000
0000
0000
,
0002
0000
1000
0000
0100
0000
0023
0000
0001
0000
1000
0000
,
1230
0000
0010
0000
1000
0000
2300
0000
0010
0001
0100
0000
,
3M12
0000
1MM0
0000
M1M0
0000
M2M3
0000
10MM
0000
M0M1
0000
,
132M
0000
0000
0000
MM01
0000
0000
0000
M10M
0000
0000
0000
2M3M
0000
0000
0000
01MM
0000
0000
0000
0M1M
3000
0000
0000
,
M1MM
0000
0000
0000
;
