#TITLE:Fuck Dj;
#SUBTITLE:;
#ARTIST:Killingscum;
#TITLETRANSLIT:;
#SUBTITLETRANSLIT:;
#ARTISTTRANSLIT:;
#CREDIT:;
#BANNER:fuckdj-bn.png;
#BACKGROUND:Fuck DJ copy.png;
#LYRICSPATH:;
#CDTITLE:Zero-cdtitle-1.png;
#MUSIC:FUCK DJ.ogg;
#OFFSET:-0.103;
#SAMPLESTART:37.640;
#SAMPLELENGTH:12.000;
#SELECTABLE:YES;
#BPMS:0.000=230.000;
#STOPS:;
#BGCHANGES:;
// cache tags:
#FIRSTBEAT:32.000;
#LASTBEAT:342.000;
#SONGFILENAME:Songs/SSSC PACK/[Zero] - Fuck Dj/FUCK DJ.sm;
#HASMUSIC:1;
#HASBANNER:1;
#MUSICLENGTH:90.200;
// end cache tags

//---------------dance-single - ~Zero~----------------
#NOTES:
     dance-single:
     ~Zero~:
     Challenge:
     14:
     1.000,1.000,0.565,0.011,0.915,638.000,51.000,1.000,31.000,0.000:







0000
0000
0000
0000
,
0000
0000
0000
0000
,
0000
0000
0000
0000
,
0000
0000
0000
0000
,
0000
0000
0000
0000
,
0000
0000
0000
0000
,
0000
0000
0000
0000
,
0000
0000
0000
0000
,
1001
0000
0010
0100
0000
0001
0000
0100
,
0000
0010
0000
1000
0001
0100
0010
0100
,
0101
0000
0100
0010
0000
1000
0000
0001
,
0000
0010
0000
0001
1000
0010
1000
0001
,
1001
0000
1000
0010
0000
0100
0000
0001
,
0000
0010
0000
0001
0100
0001
1000
0010
,
0110
0000
0100
0001
0000
1000
0000
0010
,
1001
0000
0000
0000
0000
0000
0000
0000
1000
0000
0010
0100
0010
1000
0001
0010
,
0001
0000
0100
0010
0000
1010
0000
0101
,
0000
1001
0000
0011
0100
0010
1000
0001
,
1001
0000
0010
0001
0000
1001
0000
1010
,
0000
0000
0110
0000
0000
0000
1001
0000
0010
0000
0001
1000
0010
0100
0010
1000
,
0001
0000
1000
0001
0000
0101
0000
1001
,
0000
0000
1010
0000
0000
0000
0110
0000
0001
0000
1000
0010
0100
0000
0001
0000
,
0101
0000
0001
0100
0000
0110
0000
0101
,
0000
0000
1001
0000
0000
0000
0101
0000
0010
0000
1000
0100
1000
0001
0010
0100
,
1000
0000
0010
0100
0000
1010
0000
1001
,
0000
0000
0101
0000
0000
0000
1010
0000
0100
0000
0001
1000
0010
0000
1000
0000
,
1100
0000
0001
0100
0000
0011
0000
1001
,
0000
0000
0110
0000
0000
0000
1010
0000
0100
0000
0001
0010
0001
1000
0100
0010
,
0001
0000
1000
0010
0000
0110
0000
0101
,
0000
0000
1010
0000
0000
0000
1001
0000
0010
0000
0001
0100
0010
0000
1000
0000
,
1010
0000
0001
1000
0000
1010
0000
0101
,
0020
0000
0000
0000
0000
0000
0000
0000
0000
0000
0000
0000
0000
0000
0000
0000
MM3M
0M00
000M
0M00
000M
0M00
000M
0M00
000M
0M00
000M
0M00
000M
0000
0000
0000
,
0110
0000
0010
1000
0100
0010
1000
0010
,
0001
0000
0000
0000
0000
0000
1000
0000
0000
0000
0000
0000
0001
1000
0001
1000
0001
1000
0001
0000
0000
0010
0000
0000
,
0001
0000
0000
0000
0000
0000
0100
0000
0000
0010
0000
0000
1000
0000
0000
0000
0000
0000
0100
0000
0000
0000
0000
0000
1000
0000
0100
0000
1000
0000
0100
0000
1000
0000
0100
0000
1000
0000
0000
0000
0000
0000
0010
0000
0000
0000
0000
0000
,
0100
0000
0000
0000
0000
0000
0001
0000
0000
0100
0000
0000
0010
0000
0000
0000
0000
0000
1000
0000
0000
0000
0000
0000
0001
0000
0100
0000
0001
0000
0100
0000
0001
0000
0100
0000
0001
0000
0000
0000
0000
0000
0000
0000
0000
0000
0000
0000
,
1000
0000
0010
0100
0001
0100
1000
0100
,
0001
0000
0000
0000
0000
0000
0010
0000
0000
0000
0000
0000
0100
1000
0100
1000
0100
1000
0100
0000
0000
0010
0000
0000
,
0001
0000
0000
0000
0000
0000
0100
0000
0000
0010
0000
0000
1000
0000
0000
0000
0000
0000
0001
0000
0000
0000
0000
0000
0010
0000
0001
0000
0010
0000
0001
0000
0010
0000
0001
0000
0010
0000
0000
0000
0000
0000
0001
0000
0000
0000
0000
0000
,
1000
0000
0000
0000
0000
0000
0010
0000
0000
0100
0000
0000
0010
0000
0000
0000
0000
0000
1000
0000
0000
0000
0000
0000
0001
0000
1000
0000
0001
0000
1000
0000
0001
0000
1000
0000
0001
0000
0000
0000
0000
0000
0000
0000
0000
0000
0000
0000
,
0100
0000
0010
0100
1000
0100
0010
1000
,
0001
0000
0000
0000
0000
0000
0100
0000
0000
0000
0000
0000
0010
0100
0010
0100
0010
0100
0010
0000
0000
1000
0000
0000
,
0001
0000
0010
0001
0100
1000
0100
0001
,
0010
0000
0000
0000
0000
0000
0100
0000
0000
1000
0000
0000
0010
0000
0000
0000
0000
0000
0100
0000
0000
0000
0000
0000
0001
0000
1000
0000
0001
0000
1000
0000
0001
0000
1000
0000
0001
0000
0000
0000
0000
0000
0000
0000
0000
0000
0000
0000
,
0100
0000
0001
0010
1000
0010
0100
1000
,
0001
0000
0000
0000
0000
0000
0100
0000
0000
0000
0000
0000
0010
1000
0010
1000
0010
1000
0010
0000
0000
0100
0000
0000
,
0001
0000
0000
0000
0000
0000
1000
0000
0000
0001
0000
0000
0100
0000
0000
0000
0000
0000
0010
0000
0000
0000
0000
0000
1000
0000
0001
0000
1000
0000
0001
0000
1000
0000
0001
0000
1000
0000
0000
0000
0000
0000
0010
0000
0000
0000
0000
0000
,
0100
0000
0001
0100
0010
0000
1000
0000
0100
0000
0000
0000
0010
0000
0000
0000
,
1001
0000
0010
0001
0100
0010
0100
1000
,
0100
0000
0000
0000
0000
0000
0001
0000
0000
0000
0000
0000
1000
0001
1000
0001
1000
0001
1000
0000
0000
0010
0000
0000
,
0100
0000
0000
0000
0000
0000
0001
0000
0000
1000
0000
0000
0100
0000
0000
0000
0000
0000
0010
0000
0000
0000
0000
0000
0100
0000
1000
0000
0100
0000
1000
0000
0100
0000
1000
0000
0100
0000
0000
0000
0000
0000
1000
0000
0000
0000
0000
0000
,
0001
0000
0000
0000
0000
0000
0010
0000
0000
0001
0000
0000
0100
0000
0000
0000
0000
0000
0010
0000
0000
0000
0000
0000
0100
0000
0001
0000
0100
0000
0001
0000
0100
0000
0001
0000
0100
0000
0000
0000
0000
0000
0010
0000
0000
0000
0000
0000
,
1000
0000
0010
0100
0010
0001
0010
1000
,
0001
0000
0000
0000
0000
0000
1000
0000
0000
0000
0000
0000
0010
0100
0010
0100
0010
0100
0010
0000
0000
1000
0000
0000
,
0001
0000
0000
0000
0000
0000
0010
0000
0000
0001
0000
0000
0100
0000
0000
0000
0000
0000
0010
0000
0000
0000
0000
0000
1000
0000
0001
0000
1000
0000
0001
0000
1000
0000
0001
0000
1000
0000
0000
0000
0000
0000
0100
0000
0000
0000
0000
0000
,
1000
0000
0000
0000
0000
0000
0010
0000
0000
0100
0000
0000
0010
0000
0000
0000
0000
0000
1000
0000
0000
0000
0000
0000
0001
0000
0010
0000
0001
0000
0010
0000
0001
0000
0010
0000
0001
0000
0000
0000
0000
0000
0000
0000
0000
0000
0000
0000
,
1000
0000
0001
0010
0100
0001
0100
1000
,
0010
0000
0000
0000
0000
0000
0100
0000
0000
0000
0000
0000
0001
1000
0001
1000
0001
1000
0001
0000
0000
0100
0000
0000
,
0010
0000
1000
0100
0001
0100
0010
0001
,
1000
0000
0000
0000
0000
0000
0010
0000
0000
0100
0000
0000
0001
0000
0000
0000
0000
0000
1000
0000
0000
0000
0000
0000
0100
0000
1000
0000
0100
0000
1000
0000
0100
0000
1000
0000
0100
0000
0000
0000
0000
0000
0000
0000
0000
0000
0000
0000
,
1000
0000
0010
0100
0001
0010
0100
0001
,
0100
0000
0000
0000
0000
0000
1000
0000
0000
0000
0000
0000
0001
1000
0001
1000
0001
1000
0001
0000
0000
0100
0000
0000
,
0010
0000
0000
0000
0000
0000
0100
0000
0000
0001
0000
0000
1000
0000
0000
0000
0000
0000
0100
0000
0000
0000
0000
0000
0010
0000
0001
0000
0010
0000
0001
0000
0010
0000
0001
0000
0010
0000
0000
0000
0000
0000
0001
0000
0000
0000
0000
0000
,
1000
0000
0010
0100
0001
0000
1000
0000
0100
0000
0000
0000
1000
0000
0000
0000
,
1001
0000
1000
0001
0010
0100
0001
0100
,
1000
0000
0000
0000
0000
0000
0001
0000
0000
0000
0000
0000
1000
0001
1000
0001
1000
0001
1000
0000
0000
0100
0000
0000
,
1000
0000
0000
0000
0000
0000
0010
0000
0000
0100
0000
0000
0001
0000
0000
0000
0000
0000
0010
0000
0000
0000
0000
0000
0001
0000
0010
0000
0001
0000
0010
0000
0001
0000
0010
0000
0001
0000
0000
0000
0000
0000
0100
0000
0000
0000
0000
0000
,
0010
0000
0000
0000
0000
0000
1000
0000
0000
0010
0000
0000
0100
0000
0000
0000
0000
0000
0001
0000
0000
0000
0000
0000
1000
0000
0010
0000
1000
0000
0010
0000
1000
0000
0010
0000
1000
0000
0000
0000
0000
0000
0000
0000
0000
0000
0000
0000
,
0001
0000
0100
0010
1000
0010
0001
0010
,
1000
0000
0000
0000
0000
0000
0100
0000
0000
0000
0000
0000
0010
0001
0010
0001
0010
0001
0010
0000
0000
0100
0000
0000
,
1000
0000
0000
0000
0000
0000
0010
0000
0000
0100
0000
0000
0001
0000
0000
0000
0000
0000
1000
0000
0000
0000
0000
0000
0100
0000
1000
0000
0100
0000
1000
0000
0100
0000
1000
0000
0100
0000
0000
0000
0000
0000
1000
0000
0000
0000
0000
0000
,
0001
0000
0000
0000
0000
0000
0100
0000
0000
0010
0000
0000
0100
0000
0000
0000
0000
0000
0001
0000
0000
0000
0000
0000
1000
0000
0001
0000
1000
0000
0001
0000
1000
0000
0001
0000
1000
0000
0000
0000
0000
0000
0000
0000
0000
0000
0000
0000
,
0010
0000
0100
0010
0001
0010
0100
0001
,
1000
0000
0000
0000
0000
0000
0010
0000
0000
0000
0000
0000
0100
0010
0100
0010
0100
0010
0100
0000
0000
0001
0000
0000
,
1000
0000
0100
1000
0010
0001
0010
1000
,
0100
0000
0000
0000
0000
0000
0010
0000
0000
0001
0000
0000
0100
0000
0000
0000
0000
0000
0010
0000
0000
0000
0000
0000
1000
0000
0001
0000
1000
0000
0001
0000
1000
0000
0001
0000
1000
0000
0000
0000
0000
0000
0000
0000
0000
0000
0000
0000
,
0010
0000
1000
0100
0001
0100
1000
0010
,
0100
0000
0000
0000
0000
0000
0001
0000
0000
0000
0000
0000
0100
0010
0100
0010
0100
0010
0100
0000
0000
0001
0000
0000
,
1000
0000
0000
0000
0000
0000
0100
0000
0000
1000
0000
0000
0010
0000
0000
0000
0000
0000
0100
0000
0000
0000
0000
0000
0001
0000
1000
0000
0001
0000
1000
0000
0001
0000
1000
0000
0001
0000
0000
0000
0000
0000
0100
0000
0000
0000
0000
0000
,
0001
0000
0100
0001
1000
0000
0010
0000
1000
0000
0000
0000
0001
0000
0000
0000
,
1001
0M0M
0101
M00M
1001
M0M0
1010
M00M
,
0101
0M0M
1001
M0M0
1001
0M0M
1010
0MM0
,
1001
0000
0010
0001
0000
0100
0000
0010
,
1000
0000
0001
0100
0010
0000
1000
0000
,
1000
1000
1000
1000
,
1000
1000
1000
0000
;

//---------------dance-double - Blank----------------
#NOTES:
     dance-double:
     Blank:
     Challenge:
     1:
     0.093,0.151,0.155,0.011,0.000,44.000,14.000,1.000,6.000,0.000:












00000000
00000000
00000000
00000000
,
00000000
00000000
00000000
00000000
,
00000000
00000000
00000000
00000000
,
00000000
00000000
00000000
00000000
,
00000000
00000000
00000000
00000000
,
00000000
00000000
00000000
00000000
,
00000000
00000000
00000000
00000000
,
00000000
00000000
00000000
00000000
,
00011000
00000000
00100000
00000100
00000000
00011000
00000000
00101000
,
00000000
00011000
00000000
00001000
00010000
00100000
100M0000
01M00000
,
11000000
00000000
10000000
00010000
00000000
01100000
00000000
10010000
,
00000000
01010000
00000000
01000000
00001000
00100000
1000M000
001M0000
,
10100000
00000000
00100000
00010000
00000000
01001000
00000000
00110000
,
00000000
00101000
00000000
00001000
00010000
00001000
000M0100
0000M010
,
00000011
00000000
00000010
00001000
00000000
00001010
00001000
00000000
,
00000200
00000000
00000000
00000000
00001300
00010000
01000000
00001000
,
00000100
00000000
00000000
00000000
;

//---------------dance-double - Blank----------------
#NOTES:
     dance-double:
     Blank:
     Hard:
     1:
     0.000,0.000,0.000,0.000,0.000,0.000,0.000,0.000,0.000,0.000:












00000000
00000000
00000000
00000000
;
