#TITLE:Idol;
#SUBTITLE:(Aniko is Pojingu Version);
#ARTIST:Dan & jea;
#TITLETRANSLIT:;
#SUBTITLETRANSLIT:;
#ARTISTTRANSLIT:;
#CREDIT:;
#BANNER:idol-bn.png;
#BACKGROUND:idol-bg.png;
#LYRICSPATH:;
#CDTITLE:!cdtitle.png;
#MUSIC:05 Idol (Aniko is Pojingu Version).mp3;
#OFFSET:-0.060;
#SAMPLESTART:14.260;
#SAMPLELENGTH:14.000;
#SELECTABLE:YES;
#BPMS:0.000=181.000;
#STOPS:;
#BGCHANGES:;
// cache tags:
#FIRSTBEAT:0.000;
#LASTBEAT:372.000;
#SONGFILENAME:Songs/Fabulously Fresh Flock of Fantastic Files F5/(Gamepro) Idol/Idol.sm;
#HASMUSIC:1;
#HASBANNER:1;
#MUSICLENGTH:124.865;
// end cache tags

//---------------dance-single - ----------------
#NOTES:
     dance-single:
     :
     Hard:
     12:
     1.000,1.000,1.000,0.024,0.372,783.000,359.000,3.000,0.000,0.000:  // measure 1
1001
0000
0000
0000
1001
0000
0000
0000
1001
0000
0000
0000
0110
0000
0000
0011
,  // measure 2
0100
0000
0000
0000
1010
0000
0000
0101
0100
0000
0100
0000
0100
0000
0000
0000
,  // measure 3
0010
0010
0010
0000
1000
1000
1000
0000
,  // measure 4
0110
0000
0001
1000
0100
0000
0010
0100
1000
0000
0010
0100
0001
0000
1000
0100
,  // measure 5
0010
0000
0100
1000
0001
0000
0010
0100
1000
0000
0010
0100
0001
0000
0110
0000
,  // measure 6
1001
0000
0100
0010
0001
0000
1000
0010
0100
0000
0001
0010
0100
0000
1000
0001
,  // measure 7
0100
0000
0010
0100
0001
0000
1000
0100
0010
0000
0100
0010
1001
0000
0010
0100
,  // measure 8
1001
0000
0100
1000
0010
0100
0001
0010
0100
1000
0010
1000
0100
0010
0100
1000
,  // measure 9
0101
1000
0100
0010
0001
0100
0010
1000
0010
0100
0001
1000
0100
0010
0100
1000
,  // measure 10
0011
1000
0010
0100
0001
0010
0100
1000
1001
0100
0010
0100
0001
0010
0100
1000
,  // measure 11
0101
0000
1000
0000
0010
0000
0100
0000
0011
0000
0010
0000
0100
0000
0010
0000
0101
0000
0000
0000
0110
0000
0000
0000
0010
0100
0010
0100
0010
0100
0010
0100
,  // measure 12
0001
1000
1100
0010
0101
0001
0100
1010
,  // measure 13
0100
0011
1100
0110
1001
0101
0110
1001
,  // measure 14
0011
0001
1100
0100
0110
0100
1000
1010
,  // measure 15
0010
0101
1100
0110
1001
0010
0100
1001
,  // measure 16
0100
0011
1100
0110
1001
0010
0010
0101
,  // measure 17
1000
0110
1001
1010
0110
0001
1100
0110
,  // measure 18
1010
0010
0101
0001
1100
0110
1001
0011
,  // measure 19
0000
0000
0000
0000
0001
0000
0000
0000
0000
0000
0000
0000
0001
0000
0000
0000
0001
0000
0000
0000
0000
0000
0000
0000
0001
1000
0001
1000
0001
1000
0001
1000
,  // measure 20
0001
0001
1100
0010
0110
0010
0100
1001
,  // measure 21
0001
0011
1100
0110
0101
1010
0011
0110
,  // measure 22
1001
0001
0011
0010
1100
0010
0100
0101
,  // measure 23
0001
1100
0101
0110
1001
0100
0010
1001
,  // measure 24
0010
0101
1100
0110
1001
0010
0010
0101
,  // measure 25
0100
1100
0110
1001
0011
0001
0101
1010
,  // measure 26
0110
0010
1010
0010
0101
1100
0011
1001
,  // measure 27
0000
0000
0000
0000
0001
0000
0000
0000
0000
0000
0000
0000
0001
0000
0000
0000
0001
0000
0000
0000
0000
0000
0000
0000
0010
0100
0010
0100
0010
0100
0010
0100
,  // measure 28
0001
0001
0101
0001
1100
0100
0011
1100
,  // measure 29
0010
0101
0001
1100
0011
0001
1100
0010
,  // measure 30
1001
0010
0100
0010
1001
0001
0100
0010
,  // measure 31
1001
0100
1001
0010
1001
0100
1001
0010
,  // measure 32
0011
0001
1100
0100
0110
0100
1001
0110
,  // measure 33
0001
1100
0010
0110
1001
0001
0101
1000
,  // measure 34
0110
0001
1000
0001
0110
1000
0001
1000
,  // measure 35
0110
0001
0110
1000
0110
0001
0110
1000
,  // measure 36
0101
0100
1010
0010
0011
0001
0101
1010
,  // measure 37
0100
0001
0010
1100
0110
1001
0011
1100
,  // measure 38
0100
1000
0011
0001
0100
0010
1010
0100
,  // measure 39
0001
0010
0110
0001
1000
0010
0101
0001
,  // measure 40
1100
0010
0101
0001
1100
0010
0101
1010
,  // measure 41
0110
1001
0100
1100
0110
1100
0011
0101
,  // measure 42
0010
1000
1100
0100
0010
0001
0011
0001
,  // measure 43
0100
0010
0110
0010
1000
0100
1100
0100
,  // measure 44
0100
0000
1010
0101
1100
0110
0100
1100
,  // measure 45
0010
0101
1100
0110
0101
1020
0000
0030
,  // measure 46
0000
0000
0101
1100
0110
0011
0001
1010
,  // measure 47
0010
0101
1100
0110
1001
0001
0100
0100
,  // measure 48
0100
0010
1010
0101
1100
0110
0100
1100
,  // measure 49
0010
0101
1010
0110
0011
1200
0000
0300
,  // measure 50
0000
0000
0100
1000
0000
0010
0000
0200
,  // measure 51
0000
0000
0000
0000
,  // measure 52
0301
0100
0000
0010
0000
1000
0000
0100
0000
0010
0000
0001
0100
0000
0000
0000
,  // measure 53
1010
0000
0000
0000
0101
0000
0000
0000
1100
0000
0010
0100
0001
1000
0100
0010
,  // measure 54
1001
0001
0101
0001
1100
0010
0100
1001
,  // measure 55
0100
1100
0110
1100
0101
1010
0110
1001
,  // measure 56
0011
0001
0101
0010
1100
0010
0100
0101
,  // measure 57
0001
1100
0110
1100
0011
0001
0100
1010
,  // measure 58
0010
0101
1100
0011
1010
0010
0010
0101
,  // measure 59
0001
1100
0110
1000
0011
0001
0101
1010
,  // measure 60
1100
0100
1100
0110
0101
1100
0110
1001
,  // measure 61
0000
0001
0000
0001
0001
0000
0001
0000
,  // measure 62
1100
0010
0101
0001
0110
1000
0010
0101
,  // measure 63
0001
1100
0110
1100
0011
0101
0110
1010
,  // measure 64
0101
1000
0110
0010
1001
0001
0100
1010
,  // measure 65
0010
0101
1100
0110
1001
0001
0100
0101
,  // measure 66
0001
1100
0110
1010
0101
0001
0001
0110
,  // measure 67
0100
1100
0110
1100
0011
0001
0101
1010
,  // measure 68
1100
0100
1010
0101
1100
0110
1001
0011
,  // measure 69
0000
0000
0000
0000
0001
0000
0000
0000
0000
0000
0000
0000
0001
0000
0000
0000
0001
0000
0000
0000
0000
0000
0000
0000
0010
0100
0010
0100
0010
0100
0010
0100
,  // measure 70
0001
0001
1100
0100
0110
0100
1000
0110
,  // measure 71
0010
0101
0110
1100
0110
1001
1010
0101
,  // measure 72
1100
0100
0110
0010
0011
0001
0100
1010
,  // measure 73
0010
0101
1100
0110
1001
0010
0100
1001
,  // measure 74
0001
1100
0110
1001
0011
0001
0001
0101
,  // measure 75
0001
1100
0110
1000
0011
0001
0110
1010
,  // measure 76
0101
0001
1100
0110
1001
0101
1010
0110
,  // measure 77
0000
0000
0000
0000
0010
0000
0000
0000
0000
0000
0000
0000
0010
0000
0000
0000
0010
0000
0000
0000
0000
0000
0000
0000
0001
1000
0001
1000
0001
1000
0001
1000
,  // measure 78
0100
0100
1100
0100
1010
0010
0100
1001
,  // measure 79
0001
0101
1010
0110
1001
0011
1100
0110
,  // measure 80
1001
0001
0101
0100
0110
0010
1000
0101
,  // measure 81
0001
1100
0110
1001
0011
0001
0100
1010
,  // measure 82
0100
0101
1100
0110
1001
0010
0010
1100
,  // measure 83
0010
0101
0011
1100
0110
0100
1010
0101
,  // measure 84
1100
0010
0101
1000
1100
0110
1001
0110
,  // measure 85
0000
0000
0000
0000
0100
0000
0000
0000
0000
0000
0000
0000
0100
0000
0000
0000
0100
0000
0000
0000
0000
0000
0000
0000
0010
0100
0010
0100
0010
0100
0010
0100
,  // measure 86
0001
0001
1100
0100
1010
0010
0101
1010
,  // measure 87
0010
1001
1000
1010
0101
0001
1100
0010
,  // measure 88
1001
0010
0100
0010
1001
0100
0010
0100
,  // measure 89
1001
0010
1001
0100
1001
0010
1001
0001
,  // measure 90
1010
0010
0101
1000
1100
0100
0011
1100
,  // measure 91
0010
1001
0001
1100
0011
0001
1100
0010
,  // measure 92
0110
0001
1000
0001
0110
1000
0001
1000
,  // measure 93
0110
0000
0101
0000
1010
0000
0101
0000
0001
1000
0010
0100
0001
1000
0100
0010
,  // measure 94
1001
0000
0000
0000
;
