#TITLE:Seaside Hill;
#SUBTITLE:Sonic Heroes (2003);
#ARTIST:Jun Senoue;
#TITLETRANSLIT:;
#SUBTITLETRANSLIT:;
#ARTISTTRANSLIT:;
#CREDIT:Owem;
#BANNER:../banner.png;
#BACKGROUND:../bg.png;
#LYRICSPATH:;
#CDTITLE:../cdtitleowem.png;
#MUSIC:Jun Senoue - Seaside Hill.ogg;
#OFFSET:0.016;
#SAMPLESTART:37.450;
#SAMPLELENGTH:12.000;
#SELECTABLE:YES;
#BPMS:0.000=160.144;
#STOPS:;
#BGCHANGES:;
// cache tags:
#FIRSTBEAT:3.000;
#LASTBEAT:420.750;
#SONGFILENAME:Songs/Owem Extras -l/Seaside Hill - Sonic Heroes - [Owem]/Seaside Hill.sm;
#HASMUSIC:1;
#HASBANNER:0;
#MUSICLENGTH:162.351;
// end cache tags

//---------------dance-single - 14- (Owem)----------------
#NOTES:
     dance-single:
     14- (Owem):
     Challenge:
     14:
     1.000,1.000,0.012,0.302,1.000,1551.000,2.000,49.000,0.000,0.000:
0000
0000
0000
0000
0000
0000
0000
0000
0000
0000
0000
0000
1000
0100
0010
0001
,
1000
0001
0100
0010
0100
0001
1000
0100
0010
0001
1000
0010
0100
0001
0100
0010
,
1000
0001
0010
0001
0100
0010
0100
0001
1000
0100
0010
0100
1000
0001
1000
0010
,
0100
0001
0100
0010
1000
0001
0010
0001
1000
0100
0010
0001
1000
0010
1000
0001
,
1000
0100
0010
0001
0100
0010
1000
0001
0100
0001
0010
0100
1000
0001
0010
0001
,
1000
0010
0100
0001
0100
0010
0100
0001
1000
0100
1000
0001
0010
0100
1000
0001
,
1000
0010
0100
0001
1000
0100
1000
0001
0100
0001
0010
0100
1000
0001
0010
0001
,
0100
0010
1000
0001
0100
0010
0100
0001
1000
0100
0010
0001
1000
0000
0010
0000
,
0120
0000
0030
0000
0201
0000
0301
1000
0020
0000
0000
0000
1030
0100
0010
0001
,
1000
0001
0100
0010
1000
0001
0010
0001
1000
0010
0100
0001
0100
0010
1000
0001
,
0010
0001
1000
0010
0100
0001
0100
0010
1000
0001
1000
0100
0010
0001
1000
0100
,
1000
0010
0100
0001
1000
0100
1000
0001
0010
0100
1000
0001
0100
0010
0100
0001
,
0100
0010
1000
0001
0100
0010
1000
0001
0100
0001
0010
0100
1000
0001
0010
0001
,
0100
0010
1000
0001
0100
0010
0100
0001
1000
0100
0010
0001
1000
0010
0100
0001
,
0100
0010
1000
0001
0010
0100
1000
0001
0010
0001
0100
0010
1000
0001
0100
0010
,
0100
0001
1000
0100
0010
0001
2000
0000
3020
0000
0230
0000
0000
0000
0301
0000
,
1000
0000
0001
0100
0020
0000
2030
0000
3002
0000
0000
0000
1003
0010
0100
0001
,
0100
0010
1000
0001
0010
0001
0100
0010
1000
0001
0010
0001
1000
0010
0100
0001
,
0100
0010
1000
0100
1000
0001
0100
0001
1000
0010
0100
0001
0100
0010
1000
0001
,
0010
0001
1000
0100
0010
0001
1000
0010
0100
0001
0100
0010
1000
0001
1000
0001
,
0010
0100
1000
0001
0100
0001
0010
0100
1000
0010
1000
0001
0100
0010
1000
0001
,
0010
0001
1000
0100
0010
0100
1000
0001
0010
0001
0100
0010
1000
0001
0100
0001
,
1000
0100
1000
0001
0100
0010
1000
0001
0100
0001
0010
0100
1000
0001
1000
0000
,
0010
0100
0000
0002
2003
3200
0000
0000
,
0310
0000
0001
1000
0001
0100
0010
1000
0010
0000
1000
0001
1000
0100
0010
0001
,
1000
0010
0100
0001
0100
0010
1000
0001
0010
0001
1000
0100
0010
0001
1000
0100
,
1000
0001
0100
0010
0100
0001
1000
0100
0010
0100
1000
0001
0010
0001
0100
0010
,
1000
0001
0100
0001
0010
0100
1000
0001
0010
0001
1000
0010
0100
0001
1000
0100
,
1000
0001
0100
0010
0100
0001
1000
0100
0010
0100
1000
0001
0010
0001
1000
0001
,
0100
0010
0100
0001
1000
0100
0010
0100
1000
0001
0010
0001
0100
0010
1000
0001
,
0100
0010
0100
0001
1000
0100
0010
0001
1000
0010
1000
0001
0100
0001
0010
0100
,
1000
0001
0010
0001
0100
0010
1000
0001
0100
0010
0100
0001
1000
0100
1000
0001
,
0100
0010
0100
0001
1000
0100
0010
0100
1000
0001
0010
0001
1000
0010
0100
0001
,
0100
0010
1000
0001
0100
0001
1000
0100
0010
0001
1000
0010
0100
0000
0002
0000
,
0003
0000
2000
0000
3100
0010
0001
1000
0020
0000
0000
0000
1030
0001
0100
0010
,
0100
0001
1000
0100
0010
0100
1000
0001
0010
0100
0010
0001
1000
0001
0100
0010
,
0100
0001
0100
0010
1000
0100
1000
0001
0100
0010
1000
0001
0010
0001
1000
0100
,
0010
0001
1000
0100
1000
0001
0100
0001
1000
0100
0010
0001
0010
0100
1000
0001
,
0010
0001
1000
0010
0100
0001
0100
0010
1000
0001
0010
0001
1000
0100
0010
0001
,
1000
0001
0100
0010
0100
0001
1000
0010
0100
0001
0100
0010
1000
0001
0010
0001
,
1000
0100
0010
0001
1000
0100
1000
0001
0100
0001
0010
0100
1000
0001
0010
0001
,
0100
0010
0100
0001
1000
0100
0010
0001
1000
0010
0100
0001
0100
0010
1000
0001
,
0100
0001
1000
0100
0010
0001
1000
0010
0200
0000
0000
0000
0301
1000
0010
1000
,
0100
0010
0001
1000
0100
1000
0001
0100
0010
0100
0001
1000
0100
0010
0100
1000
,
0001
0010
0001
0100
0010
1000
0001
0100
0001
0010
0100
1000
0001
0010
0001
0100
,
0010
1000
0001
0100
0001
1000
0100
0010
0001
1000
0010
0100
0001
0100
0010
1000
,
0100
1000
0001
0100
0001
1000
0100
0010
0001
1000
0001
0010
0100
1000
0001
0010
,
0001
0100
0010
0100
0001
1000
0010
0100
0001
1000
0100
1000
0001
0100
0001
0010
,
0100
1000
0001
0010
0001
0100
0010
0100
0001
1000
0100
0010
0100
1000
0001
0010
,
0001
1000
0010
0100
0001
0100
0010
1000
0001
0100
0001
1000
0100
0010
0001
1000
,
0100
1000
0010
1000
0001
0100
0010
0100
0001
1000
0100
0010
0002
0000
1003
0010
,
0100
0000
0002
0000
1003
0100
0010
0000
0002
0000
1003
0010
0100
0000
0020
0000
,
0130
0001
1000
0000
0200
0000
0320
0000
0032
0000
0000
0003
1000
0100
0010
0001
,
0100
0001
1000
0010
0100
0001
0100
0010
1000
0001
0010
0001
1000
0100
0010
0001
,
1000
0100
1000
0001
0100
0010
0100
0001
1000
0010
0100
0001
0100
0010
1000
0001
,
0010
0001
1000
0100
0010
0001
1000
0001
0100
0010
1000
0001
0100
0001
0010
0100
,
1000
0001
0010
0001
1000
0010
0100
0001
1000
0100
1000
0001
0100
0001
0010
0100
,
1000
0001
0010
0001
0100
0010
0100
0001
1000
0100
0010
0100
1000
0001
0010
0001
,
0100
0010
1000
0001
0100
0010
0100
0001
1000
0100
0010
0100
1000
0001
0010
0001
,
0100
0010
0100
0001
1000
0100
0010
0001
1000
0001
0200
0000
0000
0000
0310
0000
,
1000
0000
0001
0000
2000
0000
3200
0000
0320
0000
0000
0000
0031
1000
0001
0100
,
0010
1000
0001
0100
0010
0100
0001
1000
0100
0010
0100
1000
0001
0010
0001
0100
,
0010
0100
0001
1000
0010
1000
0100
0010
0001
1000
0100
1000
0100
0010
0001
1000
,
0001
1000
0010
0100
0001
0100
0010
1000
0001
0010
0001
1000
0100
0010
0001
1000
,
0100
1000
0001
0100
0010
1000
0001
0100
0001
0010
0100
1000
0001
0010
0001
1000
,
0100
0010
0100
1000
0001
0010
0001
1000
0010
0100
0001
0100
0010
1000
0100
1000
,
0001
0100
0010
0100
0001
1000
0100
0010
0001
1000
0010
0100
0002
0000
2003
0000
,
3010
0200
0300
0002
2003
3020
0000
1030
,
0100
0000
0010
0001
2000
0000
3010
0100
0010
1000
0001
0100
0001
1000
0010
0100
,
0001
1000
0100
1000
0010
0100
0001
1000
0100
0010
0001
1000
0001
0100
0010
0100
,
0001
1000
0010
0100
0010
1000
0001
0100
0001
0100
0010
1000
0001
0010
0001
1000
,
0100
0010
0100
1000
0001
0010
0001
1000
0001
0100
0010
0100
0001
1000
0010
0100
,
0001
1000
0100
0010
0001
1000
0001
0100
0010
1000
0001
0100
0001
1000
0010
1000
,
0001
1000
0100
0010
0100
1000
0001
0100
0001
0010
0100
1000
0001
0010
0001
0100
,
0010
1000
0001
0100
0001
1000
0010
0100
0001
0100
0010
1000
0001
1000
0100
0010
,
0100
1000
0001
0010
0001
1000
0001
0100
0010
0100
0001
0100
0010
1000
0001
0100
,
0001
1000
0100
0010
0001
1000
0001
0100
0010
1000
0001
0100
0001
0010
0100
1000
,
0001
0010
0001
1000
0001
0100
0010
1000
0001
1000
0100
0010
0002
0000
2003
0000
,
3000
0000
0200
0000
0310
0001
1000
0010
2000
0000
0000
0000
3001
0010
0100
1000
,
0001
1000
0010
0100
0001
1000
0010
1000
0001
0100
0001
1000
0100
0010
0100
1000
,
0001
0010
0001
1000
0100
0010
0001
1000
0001
0100
0010
0100
0001
1000
0100
0010
,
0100
1000
0001
0010
0001
1000
0010
0100
0001
0100
0010
1000
0001
0100
0001
0010
,
0100
1000
0001
0010
0001
1000
0100
0010
0001
1000
0001
0100
0010
0100
0001
1000
,
0010
1000
0100
0010
0001
1000
0100
1000
0001
0010
0001
1000
0100
0010
0001
1000
,
0100
1000
0001
0010
0100
1000
0001
0010
0001
0100
0010
1000
0001
0100
0010
0100
,
0001
1000
0100
0010
0001
1000
0100
1000
0010
0100
0001
0100
0010
1000
0001
0100
,
0001
1000
0100
0010
0001
1000
0100
1000
0001
0010
0001
0100
0010
1000
0001
0100
,
0001
1000
0100
0010
0001
1000
0100
1000
0010
1000
0001
0100
0010
0100
0001
1000
,
0100
0010
0001
1000
0100
1000
0010
0100
0001
0100
0010
1000
0001
0010
0001
1000
,
0001
0100
0010
0100
0001
1000
0100
0010
0100
1000
0001
0010
0100
1000
0001
1000
,
0010
0100
0001
0100
0010
1000
0001
0010
0100
0010
0001
1000
0010
1000
0001
0100
,
0010
0100
0001
1000
0100
1000
0001
0010
0001
0100
0010
1000
0001
0100
0001
1000
,
0100
0010
0100
1000
0001
1000
0100
0010
0001
0010
0100
1000
0001
0100
0001
0100
,
0010
1000
0001
0100
0010
0100
0001
0100
0010
1000
0100
1000
0001
0100
0010
1000
,
0001
0100
0001
1000
0100
1000
0001
0010
0100
1000
0001
1000
0020
0000
0130
0001
,
1000
0000
0200
0000
0310
0001
1000
0000
0002
0000
0103
0010
1000
0000
0020
0000
,
1030
0001
0100
0000
0020
0000
2030
0000
3002
0000
0000
0000
1003
0100
0010
0001
,
1000
0001
0100
0001
1000
0010
0100
0001
0100
0010
1000
0001
0010
0001
1000
0100
,
0010
0100
1000
0001
1000
0010
0100
0001
0100
0010
1000
0001
0100
0001
1000
0010
,
1000
0001
0100
0001
0010
0100
1000
0001
0010
0001
1000
0010
0100
0001
0100
0010
,
1000
0100
1000
0001
0100
0010
1000
0001
0010
0001
1000
0100
0010
0001
1000
0100
,
1000
0001
0010
0001
0100
0010
1000
0001
0100
0010
0100
0001
1000
0100
0010
0001
,
1000
0010
1000
0001
0100
0001
1000
0100
0010
0001
1000
0001
0100
0010
1000
0001
,
0010
0001
1000
0100
0010
0001
2000
0000
3020
0000
0230
0000
0000
0000
0301
0000
,
1000
0000
0010
0000
0100
0001
0100
0010
1000
0000
0001
1000
0002
0000
0000
0000
,
0000
0000
0000
0003
0000
0000
0000
0000
0000
0000
0000
0000
0000
0000
0000
0000
;
