#TITLE:Slob On My Knob;
#SUBTITLE:;
#ARTIST:3-6-Mafia;
#TITLETRANSLIT:;
#SUBTITLETRANSLIT:;
#ARTISTTRANSLIT:;
#CREDIT:;
#BANNER:banner.JPG;
#BACKGROUND:;
#LYRICSPATH:;
#CDTITLE:!tizaTitle.png;
#MUSIC:36 Mafia - Three six mafia - Slob On My Knob 1.ogg;
#OFFSET:-0.960;
#SAMPLESTART:51.901;
#SAMPLELENGTH:17.000;
#SELECTABLE:YES;
#BPMS:0.000=84.800,8.000=169.600,36.000=84.800,38.000=169.600,166.000=84.800,174.000=169.600,310.000=42.400,312.000=85.500,320.000=171.000,432.000=170.000;
#STOPS:311.625=0.160
;
#BGCHANGES:;
// cache tags:
#FIRSTBEAT:0.000;
#LASTBEAT:462.000;
#SONGFILENAME:Songs/Reggaeton and more/Slob On My Knob/Slobonmyknob.sm;
#HASMUSIC:1;
#HASBANNER:1;
#MUSICLENGTH:242.330;
// end cache tags

//---------------dance-single - ----------------
#NOTES:
     dance-single:
     :
     Challenge:
     9:
     0.469,0.596,0.611,0.000,0.043,648.000,148.000,0.000,0.000,0.000:

1001
0000
1000
0100
0110
0000
0000
0010
0011
0000
0001
0100
1010
0000
0000
0000
,
1001
0000
1000
0010
0001
0000
0000
0000
1001
0000
1000
0100
0001
0000
0000
0000
,
1001
0000
1000
0100
0001
0000
0000
0000
,
1001
0000
0001
0100
1000
0000
0000
0000
,
1001
0000
1000
1000
1000
0000
0000
0000
,
0110
0000
0001
0001
0001
0000
0000
0000
,
1100
0100
0010
0001
0011
0000
0000
0000
,
1010
0000
0100
0001
0010
0000
0000
0000
,
1010
0000
0101
0001
1001
0000
0000
0000
,
1000
0000
0100
0010
0001
0000
0000
0000
1001
0000
0000
0000
1100
0000
0110
0000
,
0011
0000
0000
0000
1001
0000
0110
0110
,
1001
0000
0000
1000
0010
0100
0001
0100
,
0010
0000
1010
0101
,
1001
0000
0000
0000
1000
0100
0010
0100
,
1100
0000
0000
0000
0001
0100
0010
0100
,
0101
0000
0000
0000
1100
0000
0110
0010
,
0001
0000
0000
1010
0100
0001
0010
0000
,
1100
0000
1000
0010
,
0101
0001
0000
0100
0101
0000
1001
0000
,
1000
1100
0000
1100
1000
0100
0010
0001
,
0011
0000
0000
0000
1001
0000
1100
0010
,
0101
1000
0000
0000
1000
0000
0010
0000
,
0101
0000
0000
0000
1000
1000
0100
0100
,
0011
0000
0000
0000
1000
0100
0001
0000
,
1001
0000
0000
0000
1001
0000
1000
0010
,
0001
0000
0000
0000
1100
0100
0110
0000
,
1001
0000
0000
1000
1010
0010
0110
0100
,
0101
0000
0000
0000
1000
0001
1000
0000
,
0011
0000
0000
0001
0010
0100
1000
0000
,
1001
0000
0000
0000
,
0000
0000
0000
0000
1000
0100
0010
0001
,
0010
0100
1000
0000
1001
0000
0000
0110
,
0000
0000
1000
1001
0000
0101
0001
0000
,
1001
0000
0000
0000
,
0000
0000
0000
0000
1000
0100
0001
1000
,
0010
0001
1001
0000
0011
0000
0000
1100
,
0000
0000
1010
1010
0000
0101
0101
0000
,
1001
0000
0000
1000
0100
0010
0100
0000
,
1100
0010
0000
0000
1000
0100
0010
0001
,
0100
0010
0000
1000
1000
0000
0010
0100
,
0001
1001
0000
0000
1000
0000
0100
0000
,
0010
0000
0010
0000
0000
0000
0000
0000
1000
0100
0010
0100
1100
0000
0000
0000
,
0110
0000
0011
0001
0100
0000
0000
0000
1010
0000
0110
0000
0101
0000
0000
0000
,
1100
0010
0101
0000
1001
0000
0000
0000
1001
0000
0000
0000
1000
0000
0010
0000
,
0001
0100
0000
0000
1001
0000
1000
0100
,
0001
0010
0000
0000
1100
0000
0101
0010
,
1010
0000
0000
0000
1000
0100
0010
1000
,
0100
0010
0000
0000
1001
0000
1000
0001
,
1001
0000
1100
0010
,
0011
0000
0000
0000
1000
0010
0001
0010
,
1000
0000
0000
0000
0101
0000
1100
0010
,
1010
0000
0000
0000
0110
0000
0010
0010
,
0100
0100
0000
0000
0001
0010
0100
0001
,
0010
0100
0000
0000
1100
0110
0011
0000
,
1001
0000
0000
0000
1000
0010
0100
1000
,
0010
0100
0000
1000
0100
0010
0001
0000
,
1001
0000
0000
0001
0010
0000
1000
0010
,
0110
0000
0000
1100
0110
0000
0001
0100
,
1010
0000
0000
0000
1000
0100
0010
0001
,
1001
0000
0000
0000
0011
0000
1000
0010
,
0100
0000
0000
0000
1100
0000
0010
0001
,
1000
0000
0000
0000
1100
1000
1001
0000
,
0101
0000
0000
0000
1000
0010
0100
0000
,
0011
0000
0000
1100
1001
0000
0001
0100
,
1010
0000
0000
0000
1000
0100
0001
0100
,
1000
0000
0000
1000
0010
0000
0100
0001
,
0010
0000
0000
1000
0100
0010
0100
0000
,
1100
0000
0000
0000
1001
0000
1000
0010
,
0101
0000
0000
0000
0001
0100
0010
0001
,
0100
0010
0000
0010
0100
1000
0100
0010
,
0001
0000
0000
1000
0010
0001
1000
0100
,
0001
1001
0000
0000
1000
1000
1000
0100
,
0110
0000
0010
0011
,
1001
1100
0000
0000
1100
0000
0110
0000
,
0011
0000
0000
0000
0010
0010
0010
0001
,
0001
0001
0000
0000
0100
0100
0100
0010
,
1000
1000
0000
1000
0010
0100
0001
0100
,
0010
0000
0000
0000
1000
0000
0000
0000
0000
0000
0000
0000
0000
0000
0000
0000
1000
0100
0010
0100
1000
0000
0000
0001
0100
0010
0100
0001
0101
0000
0000
0000
,
1001
0000
1000
0010
0100
0000
0000
0000
0001
0100
0010
1000
1001
0000
0000
0000
,
1100
0000
0100
0010
0011
0000
0000
0000
0011
0000
0110
0000
1100
0000
0000
0000
,
1000
0010
0100
0001
1001
0000
0000
1000
,
0100
0010
0100
1000
1010
0000
0000
1000
,
0100
0010
0001
0010
1100
0000
0000
1000
,
0010
0100
0010
1000
0011
0000
0000
1000
,
0100
0010
0100
1000
0001
0100
0010
0100
,
0001
1000
0100
0010
0001
0010
0100
1000
,
0001
0010
0100
1000
0100
0010
0001
1000
,
0010
0100
0001
0100
0010
1000
0100
0010
,
0100
1000
0100
0010
0001
0100
0010
1000
,
0010
0100
0001
0100
0010
1000
0100
0010
,
0100
1000
0010
0100
0001
0100
0010
1000
,
0100
0010
0100
1000
0001
0010
0100
0010
,
0001
1000
0100
0010
0100
1000
0001
0100
,
0010
0100
0001
1000
0100
0010
0001
0010
,
0100
1000
0001
0010
0100
1000
0100
0010
,
0001
1000
0010
0100
0001
0100
0010
1000
,
0100
0010
0100
1000
0100
0010
0001
0100
,
0010
1000
0010
0100
0001
0100
0010
1000
,
0100
0010
0100
1000
0010
0100
0001
0100
,
0010
1000
0100
0010
0100
1000
0001
0010
,
0100
0010
0001
1000
0001
0010
0100
0010
,
0001
1000
0010
0100
0010
1000
0001
0010
,
0100
1000
0100
0010
0001
1000
0100
0010
,
0001
0010
0100
1000
0001
0100
0010
1000
,
0010
0100
0001
0010
0100
0010
0001
0010
,
0100
1000
0010
0100
0001
0100
0010
1000
,
0010
0100
0001
0010
0100
0010
0001
0100
,
0010
1000
0010
0100
0001
0010
0100
0010
,
0011
0110
1100
0000
,
1000
0010
0100
0000
0101
0000
1001
0000
,
1100
0010
0101
0000
,
1000
0010
0001
0000
1001
0000
0010
0000
,
1000
0100
0001
0000
,
1000
0010
0001
0000
1001
0000
0110
0000
,
1001
1000
1100
0000
,
0011
1000
1010
0000
1001
0000
0000
0000
;
