#TITLE:日本文学会;
#SUBTITLE:-OukaRanman-;
#ARTIST:ETIA.;
#TITLETRANSLIT:Nihonshiki Koukaku;
#SUBTITLETRANSLIT:;
#ARTISTTRANSLIT:;
#CREDIT:;
#BANNER:../Banner.png;
#BACKGROUND:../BG.png;
#LYRICSPATH:;
#CDTITLE:../CDTitleKIRBY.png;
#MUSIC:OukaRanman.ogg;
#OFFSET:-0.134;
#SAMPLESTART:94.763;
#SAMPLELENGTH:24.000;
#SELECTABLE:YES;
#BPMS:0.000=175.000;
#STOPS:;
#BGCHANGES:;
// cache tags:
#FIRSTBEAT:4.000;
#LASTBEAT:368.000;
#SONGFILENAME:Songs/Index Tesseract/Nihonshiki Koukaku -OukaRanman- - [Kirby5464]/Nihonshiki Koukaku-OukaRanman-.sm;
#HASMUSIC:1;
#HASBANNER:1;
#MUSICLENGTH:127.738;
// end cache tags

//---------------dance-single - ----------------
#NOTES:
     dance-single:
     :
     Challenge:
     15:
     1.000,1.000,0.282,0.587,1.000,919.000,36.000,75.000,13.000,0.000:
0000
0000
0000
0000
,
1002
0000
0000
0000
0000
0000
0000
0000
0000
0000
0000
0000
00M0
0M00
M000
0000
,
00M0
0M00
M000
0000
00M0
0M00
M000
0000
00M0
0M00
M000
0000
0203
0300
0000
0000
,
0010
1000
0100
0010
0001
1000
0010
0100
,
0000
0000
0000
0000
,
0001
0010
0100
1000
0001
0010
0001
1000
,
0000
0010
0000
0000
0000
0000
0000
0000
,
1000
0100
0010
0001
1000
0010
0100
0001
,
0000
0000
0000
0000
,
1000
0001
0010
0100
1000
0001
0010
0001
,
0000
1000
0000
0000
0000
0000
0000
0000
,
0001
0100
0010
1000
0100
0010
0001
1000
,
0000
0000
0000
0000
0000
0000
0000
0000
0000
0000
0000
0000
0000
0000
0000
0000
0000
0000
0000
0000
0000
0001
0010
0001
,
1000
0100
1000
0001
0010
0100
1000
0001
,
0000
0100
0000
0000
0000
0000
0000
0000
,
1000
0010
1000
0001
0010
0001
1000
0010
,
0000
0000
0000
0000
0000
0000
0000
0000
0000
0000
0000
0000
0000
0000
0000
0000
0000
0000
0000
0000
0000
1000
0010
0100
,
0001
0000
0000
0000
0000
0000
0000
0000
0001
0000
0000
0000
0000
0000
0000
1000
,
0001
0000
0000
0000
0000
0000
0000
0000
0000
0010
0100
0010
1000
0000
0000
0000
0000
0000
0000
0000
0000
0000
0000
0000
,
0001
0000
0010
0000
0001
0000
1000
0000
0010
0000
0100
0000
0002
0003
0000
0000
,
1000
0100
0010
0001
1000
0100
1000
0001
0010
0100
0010
0001
1000
0010
1000
0001
,
0010
0100
1000
0001
0010
0001
1000
0100
1000
0010
0100
0010
1000
0100
0010
0100
,
1000
0001
0100
0001
0010
0100
1000
0001
0010
0001
1000
0100
0010
0100
1000
0001
,
0100
0001
1000
0100
0010
0001
1000
0100
1000
0001
0010
0001
0100
0010
0100
0001
,
0010
0100
0010
0001
1000
0010
1000
0100
0010
0001
1000
0100
1000
0001
0010
0100
,
0010
0001
1000
0010
1000
0001
0010
0100
1000
0001
0010
0001
1000
0100
1000
0010
,
0100
0010
1000
0100
0010
0100
1000
0001
0100
0001
0010
0100
1000
0001
0010
0001
,
1000
0100
0010
0100
1000
0001
0100
0001
1000
0100
0010
0001
1000
0100
1000
0001
,
0010
0001
0100
0010
0100
0001
0010
0100
0010
0001
1000
0010
1000
0100
0010
0001
,
1000
0010
0100
0001
0010
0001
1000
0010
0100
0000
0001
0000
1000
0000
0000
0000
,
0001
0010
0100
1000
0001
0010
0001
1000
0100
0010
0100
1000
0001
0100
0001
1000
,
0200
0320
0032
2003
3200
2300
3002
0023
0032
0203
0320
0230
0302
0023
0230
0320
,
0031
1000
0010
1000
0100
0010
0001
1000
0100
1000
0001
0010
0100
0010
0001
1000
,
0010
1000
0001
0010
0100
1000
0001
0010
0001
1000
0100
1000
0010
0100
0010
1000
,
0100
0010
0100
1000
0001
0100
0001
0010
0100
1000
0001
0010
0001
1000
0100
0010
,
0001
0000
1100
0000
0110
0000
0011
0000
1010
0000
1001
0000
2000
3000
0000
0000
,
0010
0100
0001
0010
0100
0010
0001
1000
0010
1000
0100
0010
0001
1000
0100
1000
,
0001
0010
0100
0010
0001
1000
0010
1000
0002
0000
0203
0000
0320
0000
2030
0000
,
3100
1000
0001
0100
0010
1000
0100
0010
0100
1000
0001
0100
0001
0010
0100
1000
,
0001
0100
0010
1000
0100
1000
0001
0100
0001
0000
0000
0000
1000
0000
0000
0000
,
0001
0010
0100
1000
0001
0010
0001
1000
0100
0010
0100
1000
0001
0100
0001
1000
,
0100
0010
0001
1000
0100
1000
0001
0010
0001
0100
0010
0100
0001
0010
0100
0010
,
0001
1000
0010
1000
0100
0010
0001
1000
0100
1000
0001
0010
0100
0010
0001
1000
,
0010
0000
0000
0000
0000
0000
0100
0000
0000
0000
0000
0000
0001
0000
0010
0000
0100
0000
1000
0000
0000
0000
0000
0000
0001
0000
0000
0000
0000
0000
0100
0000
0000
0000
0000
0000
0020
0000
0000
0030
0000
0000
0000
0000
0000
0000
0000
0000
,
1001
0001
0010
0110
1000
1010
0010
0110
,
0101
0001
1000
1100
0001
0011
0001
0010
,
1010
1000
0001
1001
1000
1100
1000
0010
,
0110
0010
1000
0001
1000
0000
1001
0000
,
1000
0100
0010
0001
1000
0010
1000
0100
0010
0001
1000
0100
1000
0001
0010
0100
,
0010
0001
1000
0010
1000
0001
0010
0100
1000
0001
0010
0001
1000
0100
1000
0010
,
0100
0010
1000
0100
0010
0100
1000
0001
0100
0001
0010
0100
1000
0001
0010
0001
,
2000
3000
0020
0030
0200
0300
0002
0003
0020
0030
0200
0300
2000
3000
0002
0003
,
0100
0000
0010
0000
1000
0000
0100
0000
0010
0000
0001
0100
0010
0000
1000
0000
,
0001
0000
0010
0000
0100
0000
1000
0000
0010
0000
0100
0010
1000
0000
0001
0000
,
0100
0000
0010
1000
0001
0000
0100
0010
1000
0000
0001
0100
0001
0000
1000
0000
,
0000
0000
0000
0000
0000
0000
0001
0000
0100
0000
0010
0000
1000
0000
0000
0000
0000
0000
0001
0000
0000
0000
0000
0000
0100
0000
0000
0010
0000
0000
1000
0000
0000
0000
0000
0000
0001
0000
0000
0000
0000
0000
1000
0000
0000
0000
0000
0000
,
0010
0000
0100
0000
0001
0000
0010
0000
0100
0000
1000
0001
1000
0000
0010
0000
,
0100
0000
0001
0000
1000
0000
0100
0000
0010
0000
0001
1000
0001
0000
0100
0000
,
0010
0000
1000
0001
1000
0000
0001
0100
0001
0000
1000
0100
1000
0000
0001
0000
,
0100
0000
0000
0001
0010
0100
1000
0000
0000
0001
0000
0000
0100
0000
0000
0010
0000
0000
1000
0000
0000
0001
0000
0000
,
0200
0320
2030
3200
0320
0032
2003
3020
,
0230
0302
2003
3002
0023
0230
2300
3002
,
0023
0032
2003
3200
2300
3002
0203
0320
,
2030
0000
0000
0000
3002
0000
0000
0000
2003
0000
0000
0000
3200
0000
0000
0000
0320
0000
0000
0000
0032
0000
0000
0000
2003
0000
0000
0000
3020
0000
0000
0030
,
1010
1000
0001
0010
0100
1000
0001
0100
,
0110
0010
1000
0100
0010
0001
1000
0010
,
1000
0100
0010
0001
1000
0010
0100
0001
0010
0001
1000
0100
0010
0100
1000
0001
,
1000
0011
0110
1010
0101
1100
1001
0011
,
2000
3000
0200
0300
0020
0030
0002
0003
2000
3000
0020
0030
0200
0300
0002
0003
,
1000
0100
0010
0001
1000
0100
1000
0001
0010
0100
0010
0001
1000
0010
1000
0001
,
0010
0100
1000
0001
0010
0001
1000
0100
1000
0010
0100
0010
1000
0100
0010
0100
,
1000
0001
0100
0001
0010
0100
1000
0001
0010
0001
1000
0100
0010
0100
1000
0001
,
0100
0001
1000
0100
0010
0001
1000
0100
1000
0001
0010
0001
0100
0010
0100
0001
,
0010
0100
0010
0001
1000
0010
1000
0100
0010
0001
1000
0100
1000
0001
0010
0100
,
0010
0001
1000
0010
1000
0001
0010
0100
1000
0001
0010
0001
1000
0100
1000
0010
,
0100
0010
1000
0100
0010
0100
1000
0001
0100
0001
0010
0100
1000
0001
0010
0001
,
1000
0010
0100
0001
1001
1000
1010
0010
,
1000
0001
0100
0010
0100
0001
0010
0100
0010
0001
1000
0010
1000
0100
0010
0001
,
1000
0010
0100
0001
0010
0001
1000
0010
1000
0100
0010
0001
1000
0100
1000
0001
,
0010
0100
0010
0001
1000
0010
1000
0001
0010
0100
1000
0001
0010
0001
1000
0100
,
1000
0010
0100
0010
1000
0100
0010
0100
1000
0001
0100
0001
0010
0100
1000
0001
,
0010
0001
1000
0100
0010
0100
1000
0001
0100
0001
1000
0100
0010
0001
1000
0100
,
1000
0001
0010
0001
0100
0010
0100
0001
0010
0100
0010
0001
1000
0010
1000
0100
,
0010
0001
1000
0100
1000
0001
0010
0100
0010
0001
1000
0010
1000
0001
0010
0100
,
1000
0011
0101
0110
1010
1100
0110
2002
,
3003
0000
0000
0000
,
0000
0000
0000
0000
,
0000
0000
0000
0000
,
0000
0000
0000
0000
,
0000
0000
0000
0000
,
0000
0000
0000
0000
,
0000
0000
0000
0000
,
00M0
0000
0000
0000
,
0000
0000
0000
0000
;
