#TITLE:HeartBeat;
#SUBTITLE:;
#ARTIST:Xenia;
#TITLETRANSLIT:;
#SUBTITLETRANSLIT:;
#ARTISTTRANSLIT:;
#CREDIT:;
#BANNER:heartbeat.banner.jpg;
#BACKGROUND:heartbeat.bg.jpg;
#LYRICSPATH:;
#CDTITLE:CDTITLE.jpg;
#MUSIC:20-heartbeat.mp3;
#OFFSET:-0.140;
#SAMPLESTART:65.860;
#SAMPLELENGTH:16.060;
#SELECTABLE:YES;
#BPMS:0.000=174.980;
#STOPS:;
#BGCHANGES:;
// cache tags:
#FIRSTBEAT:16.000;
#LASTBEAT:559.000;
#SONGFILENAME:Songs/Definitive Keyboard Megapack/HeartBeat - Xenia(Leone510)/20-heartbeat.sm;
#HASMUSIC:1;
#HASBANNER:1;
#MUSICLENGTH:194.541;
// end cache tags

//---------------dance-single - ----------------
#NOTES:
     dance-single:
     :
     Hard:
     13:
     1.000,1.000,1.000,0.077,1.000,1868.000,219.000,15.000,0.000,0.000:

0000
0000
0000
0000
,
0000
0000
0000
0000
,
0000
0000
0000
0000
,
0000
0000
0000
0000
,
1001
0000
0200
0010
0301
0000
1010
0000
0000
0000
1100
0000
0000
0000
0000
0000
,
1010
0000
0200
0010
0301
0000
0110
0000
0000
0000
1001
0000
0000
0000
0000
0000
,
1010
0000
0002
1000
0013
0000
0101
0000
0000
0000
1010
0000
0000
0000
0000
0000
,
0101
0000
0200
1000
0310
0000
1000
0000
0101
1000
0000
0001
1010
0000
0100
0000
,
0101
0010
0001
0100
0001
0010
1000
0010
0100
1000
0100
0010
1000
0010
0100
0010
,
0001
1000
0001
0010
0100
0010
0001
1000
0001
0010
1000
0010
1000
0001
1000
0010
,
1000
0001
0010
0001
0010
0100
1000
0010
0100
0010
0001
0010
1000
0010
0100
0010
,
0001
1000
0001
0100
0010
0001
0010
1000
0001
1000
0001
0100
0001
0000
0000
0001
,
1100
0001
1000
0001
0100
0010
0100
1000
0001
1000
0010
0001
0010
0100
1000
0010
,
0100
0010
1000
0001
1000
0010
1000
0100
0010
0100
0001
0010
1000
0010
0100
0010
,
1000
0001
1000
0010
0001
0010
0100
1000
0100
0010
1000
0001
1000
0010
0001
0100
,
0010
1000
0010
0001
0010
1000
0010
1000
0100
0010
0001
0100
0010
0100
0001
0100
,
0001
0000
1100
0010
0101
0000
1100
0101
,
0000
0110
0000
1001
0000
0101
0000
1100
,
0000
0011
0000
1001
0000
0101
0000
0011
,
1100
0000
0101
1010
0000
0110
0101
0000
,
1010
0001
0100
0000
1000
0000
0010
0000
1001
0000
0010
0000
0100
0000
0001
0000
,
0110
1000
0010
0100
0011
1000
0010
0100
,
1001
0000
0000
0000
0110
0000
0000
0001
1010
0000
0100
0000
0101
0000
0000
0000
,
1100
0000
0001
0000
1100
0000
0010
0001
1100
0001
0010
0001
1100
0010
0100
0000
,
0101
1000
0001
1000
0001
0100
0001
0100
0001
1000
0010
1000
0010
1000
0001
0100
,
0001
0100
0001
0010
0100
1000
0010
1000
0010
1000
0010
0100
0010
0001
0010
0100
,
0001
0100
0001
0100
0001
0010
1000
0010
0001
1000
0001
1000
0001
0100
0010
0100
,
0010
0100
0010
0001
0010
1000
0010
1000
0010
1000
0010
1000
0010
0001
0010
1000
,
0001
1000
0001
1000
0001
0100
0010
0001
1000
0001
0010
0001
0010
0001
0010
0100
,
0010
1000
0010
1000
0010
0100
0010
0100
0001
0100
0001
0010
0100
1000
0001
1000
,
0001
1000
0001
0100
0010
0001
0010
0001
1000
0001
1000
0001
0100
0010
1000
0010
,
0001
0010
1000
0010
0100
0010
1000
0010
0001
0010
1000
0010
1100
0000
0010
0000
,
0101
0010
0001
0100
1010
0100
0010
0001
0110
1000
0010
0100
1001
0010
0001
0100
,
1010
0100
0010
0001
1100
0010
0001
0010
0101
1000
0010
0100
1001
0100
0010
0001
,
1010
0100
0001
1000
0011
0100
1000
0100
0011
1000
0100
0010
1001
0100
0010
0001
,
1010
0001
0100
0010
1100
0010
0001
0100
1010
0100
0010
0001
0110
1000
0001
0100
,
1001
0010
0100
1000
0100
0010
0001
1000
0001
1000
0001
0100
0010
0001
0010
0100
,
0001
0010
0100
1000
0010
0100
0010
1000
0010
1000
0001
0100
0001
0100
1000
0100
,
0010
1000
0010
1000
0010
1000
0100
0010
0001
0100
0001
0100
0001
1000
0001
0010
,
0100
1000
0010
0001
0010
1000
0100
0010
0001
0010
0100
1000
0101
0000
0010
0000
,
0101
0010
0001
0100
1010
0100
0010
0001
0110
1000
0010
0100
1001
0010
0001
0100
,
1010
0100
0010
0001
1100
0010
0001
0010
0101
1000
0010
0100
1001
0100
0010
0001
,
1010
0100
0001
1000
0011
0100
1000
0100
0011
1000
0100
0010
1001
0100
0010
0001
,
1010
0001
0100
0010
1100
0010
0001
0100
1010
0100
0010
0001
0110
1000
0001
0100
,
1001
0010
0100
1000
0100
0010
0001
1000
0001
1000
0001
0100
0010
0001
0010
0100
,
0001
0010
0100
1000
0010
0100
0010
1000
0010
1000
0001
0100
0001
0100
1000
0100
,
0010
1000
0010
1000
0010
1000
0100
0010
0001
0100
0001
0100
0001
1000
0001
0010
,
0100
1000
0010
0001
0010
1000
0100
0010
0001
0010
0100
1000
0101
0000
0010
0000
,
0101
0010
0001
0100
0001
0010
1000
0010
0100
1000
0100
0010
1000
0010
0100
0010
,
0001
1000
0001
0010
0100
0010
0001
1000
0001
0010
1000
0010
1000
0001
1000
0010
,
1000
0001
0010
0001
0010
0100
1000
0010
0100
0010
0001
0010
1000
0010
0100
0010
,
0001
1000
0001
0100
0010
0001
0010
1000
0001
1000
0001
0100
0001
0000
0000
0001
,
1100
0001
1000
0001
0100
0010
0100
1000
0001
1000
0010
0001
0010
0100
1000
0010
,
0100
0010
1000
0001
1000
0010
1000
0100
0010
0100
0001
0010
1000
0010
0100
0010
,
1000
0001
1000
0010
0001
0010
0100
1000
0100
0010
1000
0001
1000
0010
0001
0100
,
0010
1000
0010
0001
0010
1000
0010
1000
0100
0010
0000
0100
0010
0000
0100
0000
,
0101
0010
0001
0100
0001
0010
1000
0010
0100
1000
0100
0010
1000
0010
0100
0010
,
0001
1000
0001
0010
0100
0010
0001
1000
0001
0010
1000
0010
1000
0001
1000
0010
,
1000
0001
0010
0001
0010
0100
1000
0010
0100
0010
0001
0010
1000
0010
0100
0010
,
0001
1000
0001
0100
0010
0001
0010
1000
0001
1000
0001
0100
0001
0000
0000
0001
,
1100
0001
1000
0001
0100
0010
0100
1000
0001
1000
0010
0001
0010
0100
1000
0010
,
0100
0010
1000
0001
1000
0010
1000
0100
0010
0100
0001
0010
1000
0010
0100
0010
,
1000
0001
1000
0010
0001
0010
0100
1000
0100
0010
1000
0001
1000
0010
0001
0100
,
0010
1000
0010
0001
0010
1000
0010
1000
0100
0010
0001
0100
0010
0100
0001
0100
,
0001
0000
0000
0000
0100
1000
0100
0000
0001
1000
0001
0000
0010
0001
0010
0000
,
0010
1000
0010
0000
0100
0001
0100
0000
1000
0001
1000
0000
0100
0001
0100
0000
,
0010
0100
0010
0000
0010
1000
0010
0000
0001
1000
0001
0000
0100
0001
0100
0000
,
0010
1000
0010
0000
0100
0010
0100
0000
0001
0100
0001
0000
0001
0010
0001
0000
,
0100
1000
0100
0000
0001
1000
0001
0000
0010
0001
0010
0000
0010
1000
0010
0000
,
0100
0001
0100
0000
1000
0001
1000
0000
0100
0001
0100
0000
0010
0100
0010
0000
,
0010
1000
0010
0000
0001
1000
0001
0000
0100
0001
0100
0000
0010
1000
0010
0000
,
0100
0010
0100
0000
0001
0100
0001
0000
0001
0010
0001
0000
0001
0010
0001
0000
,
0100
1000
0100
0000
0001
1000
0001
0000
0010
0001
0010
0000
0010
1000
0010
0000
,
0100
0001
0100
0000
1000
0001
1000
0000
0100
0001
0100
0000
0010
0100
0010
0000
,
0010
1000
0010
0000
0001
1000
0001
0000
0100
0001
0100
0000
0010
1000
0010
0000
,
0100
0010
0100
0000
0001
0100
0001
0000
0001
0010
0001
0000
0001
0010
0001
0000
,
0100
1000
0100
0000
0001
1000
0001
0000
0010
0001
0010
0000
0010
1000
0010
0000
,
0100
0001
0100
0000
1000
0001
1000
0000
0100
0001
0100
0000
0010
0100
0010
0000
,
0010
1000
0010
0000
0001
1000
0001
0000
0100
0001
0100
0000
0010
1000
0010
0000
,
0100
0010
0100
0000
0001
0100
0001
0000
1001
0010
0001
0100
1010
0000
0000
0010
,
0101
0010
0001
0100
1010
0100
0010
0001
0110
1000
0010
0100
1001
0010
0001
0100
,
1010
0100
0010
0001
1100
0010
0001
0010
0101
1000
0010
0100
1001
0100
0010
0001
,
1010
0100
0001
1000
0011
0100
1000
0100
0011
1000
0100
0010
1001
0100
0010
0001
,
1010
0001
0100
0010
1100
0010
0001
0100
1010
0100
0010
0001
0110
1000
0001
0100
,
1001
0010
0100
1000
0100
0010
0001
1000
0001
1000
0001
0100
0010
0001
0010
0100
,
0001
0010
0100
1000
0010
0100
0010
1000
0010
1000
0001
0100
0001
0100
1000
0100
,
0010
1000
0010
1000
0010
1000
0100
0010
0001
0100
0001
0100
0001
1000
0001
0010
,
0100
1000
0010
0001
0010
1000
0100
0010
0001
0010
0100
1000
0101
0000
0010
0000
,
0101
0010
0001
0100
1010
0100
0010
0001
0110
1000
0010
0100
1001
0010
0001
0100
,
1010
0100
0010
0001
1100
0010
0001
0010
0101
1000
0010
0100
1001
0100
0010
0001
,
1010
0100
0001
1000
0011
0100
1000
0100
0011
1000
0100
0010
1001
0100
0010
0001
,
1010
0001
0100
0010
1100
0010
0001
0100
1010
0100
0010
0001
0110
1000
0001
0100
,
1001
0010
0100
1000
0100
0010
0001
1000
0001
1000
0001
0100
0010
0001
0010
0100
,
0001
0010
0100
1000
0010
0100
0010
1000
0010
1000
0001
0100
0001
0100
1000
0100
,
0010
1000
0010
1000
0010
1000
0100
0010
0001
0100
0001
0100
0001
1000
0001
0010
,
0100
1000
0010
0001
0010
1000
0100
0010
0001
0010
0100
1000
0101
0000
0010
0000
,
1001
0000
0200
0010
0301
0000
1010
0000
0000
0000
1100
0000
0000
0000
0000
0000
,
1010
0000
0200
0010
0301
0000
0110
0000
0000
0000
1001
0000
0000
0000
0000
0000
,
1010
0000
0002
1000
0013
0000
0101
0000
0000
0000
1010
0000
0000
0000
0000
0000
,
1100
0000
0020
0001
0130
0000
1001
0000
0000
0000
0101
0000
0000
0000
0000
0000
,
1001
0000
0200
0010
0301
0000
1010
0000
0000
0000
1100
0000
0000
0000
0000
0000
,
1010
0000
0200
0010
0301
0000
0110
0000
0000
0000
1001
0000
0000
0000
0000
0000
,
1010
0000
0002
1000
0013
0000
0101
0000
0000
0000
1010
0000
0000
0000
0000
0000
,
1100
0000
0020
0001
0130
0000
1001
0000
0000
0000
0101
0000
0000
0000
0000
0000
,
0101
0010
0001
0100
0001
0010
1000
0010
0100
1000
0100
0010
1000
0010
0100
0010
,
0001
1000
0001
0010
0100
0010
0001
1000
0001
0010
1000
0010
1000
0001
1000
0010
,
1000
0001
0010
0001
0010
0100
1000
0010
0100
0010
0001
0010
1000
0010
0100
0010
,
0001
1000
0001
0100
0010
0001
0010
1000
0001
1000
0001
0100
0001
0000
0000
0001
,
1100
0001
1000
0001
0100
0010
0100
1000
0001
1000
0010
0001
0010
0100
1000
0010
,
0100
0010
1000
0001
1000
0010
1000
0100
0010
0100
0001
0010
1000
0010
0100
0010
,
1000
0001
1000
0010
0001
0010
0100
1000
0100
0010
1000
0001
1000
0010
0001
0100
,
0010
1000
0010
0000
0001
1000
0001
0000
1100
0000
0001
0000
1010
0000
0100
0000
,
0101
0010
0001
0100
1010
0100
0010
0001
0110
1000
0010
0100
1001
0010
0001
0100
,
1010
0100
0010
0001
1100
0010
0001
0010
0101
1000
0010
0100
1001
0100
0010
0001
,
1010
0100
0001
1000
0011
0100
1000
0100
0011
1000
0100
0010
1001
0100
0010
0001
,
1010
0001
0100
0010
1100
0010
0001
0100
1010
0100
0010
0001
0110
1000
0001
0100
,
1001
0010
0100
1000
0100
0010
0001
1000
0001
1000
0001
0100
0010
0001
0010
0100
,
0001
0010
0100
1000
0010
0100
0010
1000
0010
1000
0001
0100
0001
0100
1000
0100
,
0010
1000
0010
1000
0010
1000
0100
0010
0001
0100
0001
0100
0001
1000
0001
0010
,
0100
1000
0010
0001
0010
1000
0100
0010
0001
0010
0100
1000
0101
0000
0010
0000
,
0101
0010
0001
0100
1010
0100
0010
0001
0110
1000
0010
0100
1001
0010
0001
0100
,
1010
0100
0010
0001
1100
0010
0001
0010
0101
1000
0010
0100
1001
0100
0010
0001
,
1010
0100
0001
1000
0011
0100
1000
0100
0011
1000
0100
0010
1001
0100
0010
0001
,
1010
0001
0100
0010
1100
0010
0001
0100
1010
0100
0010
0001
0110
1000
0001
0100
,
1001
0010
0100
1000
0100
0010
0001
1000
0001
1000
0001
0100
0010
0001
0010
0100
,
0001
0010
0100
1000
0010
0100
0010
1000
0010
1000
0001
0100
0001
0100
1000
0100
,
0010
1000
0010
1000
0010
1000
0100
0010
0001
0100
0001
0100
0001
1000
0001
0010
,
0100
1000
0010
0001
0010
1000
0100
0010
0001
0010
0100
1000
0101
0000
0010
0000
,
0101
0010
0001
0100
1010
0100
0010
0001
0110
1000
0010
0100
1001
0010
0001
0100
,
1010
0100
0010
0001
1100
0010
0001
0010
0101
1000
0010
0100
1001
0100
0010
0001
,
1010
0100
0001
1000
0011
0100
1000
0100
0011
1000
0100
0010
1001
0100
0010
0001
,
1010
0001
0100
0010
1100
0010
0001
0100
1010
0100
0010
0001
0110
1000
0001
0100
,
1001
0010
0100
1000
0101
0010
0001
1000
0011
1000
0001
0100
1010
0001
0010
0100
,
1001
0010
0100
1000
0011
0100
0010
1000
0011
1000
0001
0100
1001
0100
1000
0100
,
0011
1000
0010
1000
0110
1000
0100
0010
1001
0100
0001
0100
0011
1000
0001
0010
,
0101
1000
0010
0001
0110
1000
0100
0010
1001
0010
0100
1000
0101
0000
0010
0000
,
2000
3000
1000
1000
1000
0000
0010
0010
0010
0000
0100
0100
0100
0000
0001
0001
,
0001
0000
1000
1000
1000
0000
0010
0010
0010
0000
0100
0100
0100
0000
0200
0300
,
2000
3000
1000
1000
1000
0000
0010
0010
0010
0000
0100
0100
0100
0000
0001
0001
,
0001
0000
1000
1000
1000
0000
0010
0010
0010
0000
0100
0100
0100
0000
0000
0000
;
