#TITLE:Super Mario Bors. 3 1-2;
#SUBTITLE:;
#ARTIST:Nintendo;
#TITLETRANSLIT:;
#SUBTITLETRANSLIT:;
#ARTISTTRANSLIT:;
#CREDIT:;
#BANNER:BANNER.PNG;
#BACKGROUND:BACKGROUND.PNG;
#LYRICSPATH:;
#CDTITLE:;
#MUSIC:Nintendo - Mario - Super Mario Bros. 3.mp3;
#OFFSET:0.000;
#SAMPLESTART:3.500;
#SAMPLELENGTH:5.000;
#SELECTABLE:YES;
#BPMS:0.000=136.000;
#STOPS:;
#BGCHANGES:;
// cache tags:
#FIRSTBEAT:0.500;
#LASTBEAT:601.750;
#SONGFILENAME:Songs/mike songs/Super Mario 3 - 1-2/mario.sm;
#HASMUSIC:1;
#HASBANNER:1;
#MUSICLENGTH:268.440;
// end cache tags

//---------------dance-single - Blank----------------
#NOTES:
     dance-single:
     Blank:
     Hard:
     11:
     0.567,0.841,0.734,0.563,0.672,717.000,197.000,151.000,0.000,51.000:

0000
0110
1001
1010
0110
0101
0011
0110
,
1010
0110
1001
1001
0110
0220
0000
2332
,
0000
3013
0100
1000
0010
0001
0100
0001
,
0010
1000
1000
0100
0022
0000
1033
0100
,
0010
0100
0001
0010
1000
0100
0001
0010
,
0001
0100
1000
0010
2002
0000
3113
1100
,
0000
0000
0000
0100
0000
0010
0000
0001
0000
0010
0000
0100
0000
0010
0000
1000
,
0000
0100
0000
0010
0000
0001
0000
0010
0000
0202
0000
0000
0000
1303
0000
0100
,
0000
0010
0000
0001
0000
0010
0000
0001
0000
0220
0000
0000
0000
1330
0000
0100
,
0000
0010
0000
0001
0000
0010
0000
0001
0000
2002
0000
0000
0000
3103
0000
0010
,
0000
0001
0000
0010
0000
1000
0000
0100
0000
0011
0000
0000
0000
0110
0000
1010
,
0000
0000
0000
0101
0000
0000
0000
0000
0000
0011
0000
0000
0000
0000
0000
0000
0000
0000
0000
0000
0000
0000
0000
0000
0000
0000
2000
0000
0000
0000
0000
0000
0000
0000
0000
0000
0000
0000
3010
0000
0000
0000
0000
0000
0001
0000
0000
0000
,
0000
1000
0100
0010
0001
0010
0100
2000
,
0000
3100
0011
1000
0010
0001
0100
2000
,
0000
3010
1001
0100
0010
1000
0001
0200
,
0000
1300
0110
0001
1000
0100
0010
1001
,
0220
0000
2332
0000
3013
0100
0001
2000
,
0000
3001
0110
1000
0001
0100
0010
0002
,
0000
1003
0101
0010
1000
0100
0010
0001
,
0000
0000
0000
1100
0000
0110
0000
0011
0000
0011
0000
0101
0000
1010
0000
0110
,
0000
1001
0000
1100
0000
0011
0000
1100
0000
0110
0000
0101
0000
1010
0000
0110
,
0000
1001
0000
1100
0000
0011
0000
0110
0000
1000
0000
0100
0000
0010
0000
0100
,
0000
0001
0000
1000
0000
0010
0000
1000
0000
0001
0000
0100
0000
0010
0000
2000
,
0000
0000
0000
3010
0000
0100
0000
0001
0000
1000
0000
0010
0000
0001
0000
1000
,
0000
0010
0000
1000
0000
0001
0000
0100
0000
0010
0000
0100
0000
1000
0000
0002
,
0000
0000
0000
1003
0000
0110
0000
0000
0000
0001
0000
0100
0000
1000
0000
0001
,
0000
1000
0000
0100
0000
0010
0000
0001
0000
0010
0000
0001
0000
0100
0000
0020
,
0000
0000
0000
1030
0000
0100
0000
0010
0000
0001
0000
0010
0000
0001
0000
0200
,
0000
0000
0000
0300
1000
0000
0100
0000
0010
0000
0100
0000
0001
0000
1000
0000
,
0200
0000
0310
0100
0001
1000
0100
0010
,
0002
0000
1103
0110
1100
0011
0000
0000
,
2000
0000
3001
0010
1000
0100
0010
0001
,
0010
0100
2000
0000
3001
0110
1000
0001
,
0100
0010
2000
0000
3100
0101
1000
0001
,
1000
0100
0020
0000
0130
0110
0010
1000
,
0001
0000
0100
0000
0010
0000
2000
0000
0000
0000
3020
0000
0000
0030
0000
1000
,
0000
0010
0000
0001
0000
0020
0000
0000
0000
1030
0000
0101
0000
1000
0000
0100
,
0000
0010
0000
0100
0000
2000
0000
0000
0000
3100
0000
0011
0000
1000
0000
0100
,
0000
0010
0000
1000
0000
0200
0000
0000
0000
0311
0000
0110
0000
1100
0000
1010
,
0000
0101
0000
1001
0000
0110
0000
1100
0000
0011
0000
0110
0000
0011
0000
1100
,
0000
0110
0000
1001
0000
0101
0000
1010
0000
0110
0000
1001
0000
0110
0000
0000
,
1000
0010
0100
0001
1000
0010
0001
0100
,
0010
0001
0010
0002
0000
0103
0010
1000
,
0001
0100
0010
1000
0001
0010
1000
0100
,
0001
0100
0010
0200
0000
1310
0011
0000
,
0100
1000
0010
0100
1000
0001
0010
0100
,
1000
0010
0001
0200
0000
0310
1000
0001
,
0100
0010
1000
0002
0000
1003
0100
0010
,
0100
1000
0100
0020
0000
1030
0100
0010
,
0100
0001
0010
0002
0000
1103
0110
0011
,
2002
0000
0000
0000
0000
0000
0000
0000
0000
0000
0000
0000
3113
0000
0000
0000
0000
0000
0000
0000
0000
1000
0100
0010
,
0001
0110
0000
0000
0000
1100
0000
0000
0000
0000
0000
0000
,
0000
1100
0000
0000
0000
0011
0000
0000
0000
0000
0000
0000
,
1000
0100
0010
0001
1100
0000
0000
0000
0000
0000
0000
0110
0000
0000
0000
0000
0000
0000
0000
0000
0000
0000
0000
0000
,
0000
0000
1100
0000
0000
0000
0000
0000
0000
0000
0000
0110
0000
0000
0000
0000
0000
0000
0000
0000
0000
0000
0000
0000
,
1000
0100
0010
0001
0110
0000
0000
0000
0000
0000
0000
1100
0000
0000
0000
0000
0000
0000
0000
0000
0000
0000
0000
0000
,
0000
0000
0000
1100
0000
0000
0000
0000
0000
0000
0000
0110
0000
0000
0000
0000
0000
0000
0000
0000
0000
0000
0000
0000
,
1000
0100
0010
0001
0000
0000
0000
0000
0000
0000
0000
0000
1000
0000
0000
0000
0000
0000
0001
0000
0000
0000
0000
0000
,
1000
0000
0200
0000
0000
0000
0000
0000
0000
0311
0000
0000
0000
0101
0000
0000
,
0000
2020
0000
0000
0000
0000
0000
0000
0000
0000
0000
0000
0000
0000
0000
0000
,
0000
0000
0000
0000
0000
3030
0100
0000
0000
0000
0010
0000
0000
0000
1000
0000
,
0000
2020
0000
0000
0000
0000
0000
0000
,
0000
0000
0000
0000
0000
3130
0000
1000
,
0000
0022
0000
0000
0000
0000
0000
0000
,
0000
0000
0000
0000
0000
0000
0000
1033
0000
0000
0000
0100
0000
0000
0000
0001
,
0000
0000
0000
2200
0000
0000
0000
0000
0000
0000
0000
0000
0000
0000
0000
0000
,
0000
0000
0000
0000
0000
0000
0000
0000
0000
0000
0000
3310
0000
0000
0000
0100
,
0000
0000
0000
2002
0000
0000
0000
0000
0000
0000
0000
0000
0000
0000
0000
0000
,
0000
0000
0000
0000
0000
0000
0000
3013
0000
0000
0000
0100
0000
0000
0000
0001
,
0000
0000
0000
2200
0000
0000
0000
0000
0000
0000
0000
0000
0000
0000
0000
0000
,
0000
0000
0000
0000
0000
0000
0000
0000
0000
0000
0000
3301
0000
0000
0000
0010
,
0000
0000
0000
2200
0000
0000
0000
0000
0000
0000
0000
0000
0000
0000
0000
0000
,
0000
0000
3301
0100
,
0001
2200
0000
0000
,
0000
0000
0000
3310
,
1000
0002
0000
0000
,
0000
0000
0000
0000
0000
0000
0000
0000
0000
0000
0000
1003
0000
0010
0000
0000
,
0000
2200
0000
0000
,
0000
0000
0000
3301
,
0010
0220
0000
0000
,
0000
0000
0000
0000
0000
0000
0000
0000
0000
0000
0000
0000
0000
1330
0000
0000
,
0000
0010
0000
0000
0000
0001
0000
0000
0000
0100
0000
0002
0000
0000
0000
0000
,
0000
1003
0000
0000
0000
0100
0000
0000
0000
0010
0000
0002
0000
0000
0000
0000
,
0000
0103
0000
0000
0000
2000
0000
0000
0000
0000
0000
0000
0000
0000
0000
0000
,
0000
0000
0000
0000
,
0000
0000
0000
0000
0000
3002
0000
0000
0000
0000
0000
0000
0000
0000
0000
0000
,
0000
0000
0000
0000
0000
0000
0000
1003
,
0000
0100
0000
0020
0000
0000
0000
0000
,
0000
0000
0000
0000
0000
1030
0000
0100
,
0000
0010
0000
0200
0000
0000
0000
0000
,
0000
0000
0000
0000
0000
0000
0000
0302
,
0000
0000
0000
0000
0000
0000
0000
0203
0000
0000
0000
0000
0000
0000
0000
0000
,
0000
0000
0000
0000
0000
0000
0000
0302
0000
0000
0000
0000
0000
0000
0000
2003
,
0000
0000
0000
0000
0000
0000
0000
3020
0000
0000
0000
0000
0000
0000
0000
0000
,
0000
0000
0000
0000
0000
0000
0000
0230
0000
0000
0000
0000
0000
0000
0000
0000
,
0000
0000
0000
0000
0000
0000
0000
2300
0000
0000
0000
0000
0000
0000
0000
0000
,
0000
0000
0000
0000
0000
0000
0000
0000
0000
0000
0000
0000
0000
0000
0000
3010
,
0000
0000
0000
0001
0000
0000
0000
0200
0000
0000
0000
0000
0000
0000
0000
0000
,
0000
0000
0000
0000
0000
0000
0000
0000
0000
0000
0000
0000
0000
0000
0000
2300
,
0000
0000
3020
0000
,
0000
0000
2030
0000
,
0000
0000
0000
0000
3010
0001
0100
0010
,
0001
0100
1000
0100
0010
0100
0001
2000
,
0000
3100
0010
0001
0010
0100
1000
0100
,
0010
0001
0010
0001
0010
0001
0100
2000
,
0000
0000
3011
0000
0101
0000
0000
0000
0000
1000
0000
0100
0000
0010
0000
0100
,
0000
0010
0000
1000
0000
0001
0000
0010
0000
0100
0000
0001
0000
0010
0000
0200
,
0000
0000
0000
1300
0000
0010
0000
0100
0000
0001
0000
0010
0000
0001
0000
0200
,
0000
0000
0000
0310
0000
0001
0000
0010
0000
0100
0000
1000
0000
0010
0000
0200
,
0000
0000
0000
0301
0000
0100
0000
0010
0000
1000
0000
0001
0000
0010
0000
2000
,
0000
0000
0000
3011
0000
0110
0000
1100
0000
1001
0000
0000
0000
0000
0000
0200
,
0000
0000
0000
1300
0000
0001
0000
1000
0000
0010
0000
0001
0000
0100
0000
0010
,
0000
1000
0000
0002
0000
0000
0000
1003
0000
0110
0000
0001
0000
1000
0000
0010
,
0000
0001
0000
0200
0000
0000
0000
1300
0000
0011
0000
0100
0000
0010
0000
0001
,
0000
0100
0000
2000
0000
0000
0000
3001
0000
1010
0000
0001
0000
1000
0000
0010
,
0000
0100
0000
0011
0000
1100
0000
0000
0000
0011
0000
0000
0000
0000
1000
0000
,
0010
0010
0200
0000
0301
0110
1000
0001
,
0100
0001
0020
0000
0130
1001
0100
0001
,
1000
0100
0020
0000
0131
1100
0110
0011
,
0110
1100
0110
1001
0101
1010
0101
1010
,
0110
0000
1001
0000
1010
0000
0101
0000
1100
0000
0011
0000
0110
0000
0000
1000
,
0000
0100
0000
0001
0000
0010
0000
0100
0000
0001
0000
1000
0000
0100
0000
0010
,
0000
1000
0000
0001
0000
2000
0000
0000
0000
3001
0000
0010
0000
0100
0000
0001
,
0000
0100
0000
0010
0000
1000
0000
0001
0000
0100
0000
0010
0000
0001
0000
0010
,
0000
0100
0000
1000
0000
0020
0000
0000
0000
0131
0000
1100
0000
0000
0000
0010
,
0000
0100
0000
1000
0000
0010
0000
0100
0000
1000
0000
0001
0000
0010
0000
0100
,
0000
0001
0000
0010
0000
0200
0000
0000
0000
1300
0000
0010
0000
0100
0000
1000
,
0000
0010
0000
0100
0000
0002
0000
0000
0000
0103
0000
0010
0000
0001
0000
0100
,
0000
1000
0000
0001
0000
0020
0000
0000
0000
0130
0000
1000
0000
0010
0000
0100
,
0000
0001
0000
0010
0000
0200
0000
0000
0000
1301
0000
0110
0000
0011
0000
0202
,
0000
0000
0000
0000
0000
2323
0000
0000
0000
0000
0000
0000
0000
0000
0000
0000
,
3130
0010
0001
0200
0000
1300
0010
0001
,
0100
0010
1000
0020
0000
0031
0100
1000
,
1100
0110
0011
0110
2200
0000
3311
0220
,
0000
0000
0000
1331
0220
0000
1331
0000
,
0110
1100
0011
0110
2200
0000
3311
0220
,
0000
0000
0000
1331
0110
0000
1001
0000
,
0000
0110
0000
0011
0000
1100
0000
0110
0000
2200
0000
0000
0000
3311
0000
0220
,
0000
0000
0000
0000
0000
1331
0000
0000
0000
0011
0000
0000
0000
0110
0000
0000
,
0000
2200
0000
0000
0000
0000
0000
0000
0000
3322
0000
0000
0000
0000
0000
0000
,
0000
2233
0000
0000
0000
0000
0000
3322
0000
0000
0000
0000
0000
0000
0000
0000
,
0000
0233
0000
0000
0000
0000
0000
0000
0000
2320
0000
0000
0000
0000
0000
0000
,
0000
3232
0000
0000
0000
0000
0000
2323
0000
0000
0000
0000
0000
0000
0000
0000
,
0000
3032
0000
0000
0000
0223
0000
0000
,
0000
2332
0000
0000
3223
0000
0000
0000
,
0000
2332
0000
0000
0000
0000
0000
0000
,
0000
0000
0000
0000
0000
0000
0000
0000
0000
0000
0000
3113
0000
0000
0000
0000
,
1001
0000
0000
0000
0000
0220
0000
0000
0000
0000
0000
0000
0000
0000
0000
0000
,
0000
0000
0000
0000
,
0000
0000
0000
0000
,
0000
0000
0000
0000
0000
0000
0000
0330
0000
0000
0000
0000
0000
0000
0000
0000
;
