#TITLE:Full Stop;
#SUBTITLE:Command & Conquer;
#ARTIST:Frank Klepacki;
#TITLETRANSLIT:;
#SUBTITLETRANSLIT:;
#ARTISTTRANSLIT:;
#CREDIT:;
#BANNER:Full Stop.jpg;
#BACKGROUND:Full Stop-bg.jpg;
#LYRICSPATH:;
#CDTITLE:!maliceTitle.png;
#MUSIC:Full Stop.mp3;
#OFFSET:-0.020;
#SAMPLESTART:37.044;
#SAMPLELENGTH:12.000;
#SELECTABLE:YES;
#BPMS:0.000=161.980,289.000=162.290,353.000=161.980,473.000=181.090,473.500=201.090,475.000=281.090,475.333=261.090,476.000=181.090,476.500=201.090,477.167=191.090,478.000=281.090,478.167=211.090,478.333=301.090,478.667=361.090,479.000=181.090;
#STOPS:;
#BGCHANGES:;
// cache tags:
#FIRSTBEAT:1.000;
#LASTBEAT:479.000;
#SONGFILENAME:Songs/VGMP 2/Full Stop (Malice)/Full Stop.sm;
#HASMUSIC:1;
#HASBANNER:1;
#MUSICLENGTH:181.451;
// end cache tags

//---------------dance-single - ----------------
#NOTES:
     dance-single:
     :
     Hard:
     12:
     1.000,1.000,1.000,0.154,0.959,1155.000,303.000,28.000,0.000,0.000:

0000
0000
1001
0000
1000
0010
1000
0010
,
1000
0010
1000
0010
1000
0010
1000
0010
,
1000
0000
0010
0000
1001
1001
1001
0100
0001
1000
0010
0100
0001
0010
0001
1000
,
0100
0010
0100
1000
0001
0100
0010
1000
0001
0010
0001
1000
0100
1000
0010
0100
,
0010
1000
0010
0100
0001
0010
0100
1000
0010
0100
0001
0100
0010
1000
0100
0010
,
0001
0100
0010
1000
0100
0010
0001
0100
0001
1000
0010
0100
0010
1000
0100
0010
,
0001
0100
0010
1000
0101
0101
0101
1000
0100
0010
0001
0100
0010
1000
0100
0010
,
0100
1000
0001
0010
0100
1000
0001
0100
0001
1000
0100
0010
0001
0100
0010
1000
,
0101
0010
0100
1000
0011
0000
0000
1000
0110
0000
0011
0000
0000
0000
0010
0010
,
0011
0000
0100
0000
1000
0000
0011
1000
0110
0000
0001
0000
1010
0000
0001
0100
,
1010
0000
0001
0000
0110
0000
0001
1000
0101
0000
0110
0000
0000
0000
0100
0100
,
0110
0000
0000
0000
1100
0000
0010
0001
1100
0000
0011
0000
1000
0000
0011
0100
,
1000
0000
0011
0000
0101
0000
0000
1000
0110
0000
0101
0000
0000
0000
0001
0001
,
1001
0000
0010
0000
1000
0000
0101
1000
0110
0000
0001
0000
0110
0000
1000
0001
,
0110
0000
0001
0000
1010
0000
0000
0001
0110
0000
1010
0000
0000
0000
1000
1000
,
1010
0000
0001
0000
1100
0000
0000
0001
1010
0000
1100
0000
0010
0000
0001
0010
,
1100
0000
0000
0000
1100
0000
1000
0100
1010
0000
0001
0000
0100
0000
1010
0000
,
0101
0000
1000
0000
0010
0000
0000
0100
1010
0000
0001
0000
1100
0000
0010
0100
,
1001
0000
0000
0000
0011
0000
0000
1000
0110
0000
0001
0000
1010
0000
0100
0000
,
1001
0000
0010
0000
0100
0000
1010
0000
0110
0000
0001
0100
0010
1000
0100
0010
,
1001
0000
0000
0000
1100
0010
0001
0100
0010
1000
0101
0010
0001
0100
1010
1010
,
1010
0001
0010
0100
1000
0010
1001
0100
0010
1000
0001
0100
1001
0100
0001
0010
,
1001
0100
0001
0010
1100
0001
1000
0001
1000
0010
0101
1000
0010
0100
1001
1001
,
1001
0010
0100
1000
0010
0000
0001
0000
0010
0000
0001
0000
0010
0000
0001
0000
,
0010
0000
0001
0000
1010
0100
0001
0010
0100
1000
0011
0100
0001
1000
0110
0110
,
0110
0001
1000
0010
0100
0001
1010
0100
0001
1000
0001
0010
1001
0010
0001
1000
,
0101
0010
0001
1000
0101
0010
0100
0001
0010
0100
0011
1000
0100
0010
0101
0101
,
0101
0000
0000
0000
1000
0001
1000
0001
1000
0100
0010
0001
0100
0010
1000
0001
,
0010
0000
0000
0000
0100
0000
0000
0000
1000
0000
0000
0000
0010
0000
0000
0000
0200
0000
0000
0000
0000
0000
0000
0000
0000
0000
0000
0000
0000
0000
0000
0000
0000
0000
0000
0000
0000
0000
0000
0000
0001
0000
0000
0000
0000
0000
0000
0000
0000
0000
0000
0000
0000
0000
0000
0000
0000
0000
0000
0000
0000
0000
0000
0300
,
2001
0001
0001
0000
0000
0000
0001
0001
0001
0000
0000
0000
0000
0000
0000
0000
,
0000
0000
0000
0000
0000
0000
0000
0000
0000
0000
0000
0000
0000
0000
0000
0000
3020
0000
0000
0000
0000
0000
0000
0000
0000
0000
0000
0000
0000
0000
0000
0000
0000
0000
0000
0000
0000
0000
0000
0000
0100
0000
0000
0000
0000
0000
0000
0000
0000
0000
0000
0000
0000
0000
0000
0000
0000
0000
0000
0000
0000
0000
0000
0030
,
1002
1000
1000
0000
0000
0000
1000
1000
1000
0000
0000
0000
0000
0000
0000
0000
,
0000
0000
0000
0000
0000
0000
0000
0000
0000
0000
0000
0000
0000
0000
0000
0000
2003
0000
0000
0000
0000
0000
0000
0000
0000
0000
0000
0000
0000
0000
0000
0000
0000
0000
0000
0000
0000
0000
0000
0000
0001
0000
0000
0000
0000
0000
0000
0000
0000
0000
0000
0000
0000
0000
0000
0000
0000
0000
0000
0000
0000
0000
0000
3000
,
0201
0001
0001
0000
0000
0000
0001
0001
0001
0000
0000
0000
0000
0000
0000
0000
,
0000
0000
0000
0000
0000
0000
0000
0000
0000
0000
0000
0000
0000
0000
0000
0000
0320
0000
0000
0000
0000
0000
0000
0000
0000
0000
0000
0000
0000
0000
0000
0000
0000
0000
0000
0000
0000
0000
0000
0000
1000
0000
0000
0000
0000
0000
0000
0000
0000
0000
0000
0000
0000
0000
0000
0000
0000
0000
0000
0000
0000
0000
0000
0030
,
2100
0100
0100
0000
0000
0000
0100
0100
0100
0000
0000
0000
0000
0000
0000
0000
,
0000
0000
0000
0000
0000
0000
0000
0000
0000
0000
0000
0000
0000
0000
0000
0000
3002
0000
0000
0000
0000
0000
0000
0000
0100
0000
0000
0000
0000
0000
0000
0000
0010
0000
0000
0000
0000
0000
0000
0000
1000
0000
0000
0000
0000
0000
0000
0000
0100
0000
0000
0000
0000
0000
0000
0000
0010
0000
0000
0000
0000
0000
0000
0003
,
0210
0010
0001
0000
1000
0000
0010
0010
1000
0000
0001
0000
0010
0000
1000
0000
,
0001
0000
0000
0000
0000
0000
0000
0000
1000
0000
0000
0000
0000
0000
0000
0000
0320
0000
0000
0000
0000
0000
0000
0000
0100
0000
0000
0000
0000
0000
0000
0000
0001
0000
0000
0000
0000
0000
0000
0000
1000
0000
0000
0000
0000
0000
0000
0000
0100
0000
0000
0000
0000
0000
0000
0000
0001
0000
0000
0000
0000
0000
0000
0030
,
0201
0001
1000
0000
0010
0000
0001
0001
1000
0000
0010
0000
0001
0000
1000
0000
,
0010
0000
0000
0000
0000
0000
0000
0000
1000
0000
0000
0000
0000
0000
0000
0000
0302
0000
0000
0000
0000
0000
0000
0000
0010
0000
0000
0000
0000
0000
0000
0000
0100
0000
0000
0000
0000
0000
0000
0000
0010
0000
0000
0000
0000
0000
0000
0000
1000
0000
0000
0000
0000
0000
0000
0000
0100
0000
0000
0000
0000
0000
0000
0003
,
2010
0010
0001
0000
0100
0000
0010
0010
0100
0000
0001
0000
0100
0000
0010
0000
,
0001
0000
0000
0000
0000
0000
0000
0000
0100
0000
0000
0000
0000
0000
0000
3000
0011
0000
0000
0000
0000
0000
0000
0000
0110
0000
0000
0000
0000
0000
0000
0000
1100
0000
0000
0000
0000
0000
0000
0000
0101
0000
0000
0000
0000
0000
0000
0000
0011
0000
0000
0000
0000
0000
0000
0000
1100
0000
0000
0000
0000
0000
0000
0000
,
0101
0001
0000
0000
0100
1000
0101
1001
0100
0010
0100
0010
0001
1000
0010
0100
,
1001
0000
0000
0000
0110
0000
0000
0010
1100
0000
0100
0000
1000
0000
0110
0000
,
1001
0000
0100
0000
1100
0000
0100
0001
1010
0000
0100
0000
1000
0000
0110
0001
,
1100
0000
0100
0000
0011
0000
0000
1000
0110
0000
0100
0000
0010
0000
1100
0000
,
0011
0000
0100
0000
0110
0000
0100
0001
1010
0000
0100
0000
0010
0000
0101
1000
,
0011
0000
0100
0000
1001
0000
0000
0100
1001
0000
0010
0000
0001
0000
1010
0000
,
0101
0000
0010
0000
1001
0000
0010
1000
0011
0000
0010
0000
0001
0000
1010
0100
,
1001
0000
0010
0000
0011
0011
0011
1000
0010
0100
0001
0010
0100
0010
0001
1000
,
0010
0100
0001
0100
0010
1000
0100
0010
0001
0100
0010
1000
0100
0010
0001
1000
,
0110
0001
1000
0100
1001
0000
0000
1000
0110
0000
0101
0000
0000
0000
0001
0001
,
0101
0000
1000
0000
0001
0000
0010
0100
1001
0000
0100
0000
0010
0000
0011
1000
,
0110
0000
1000
0000
0011
0000
0000
0010
1100
0000
0101
0000
0000
0000
0010
0010
,
1010
0000
0000
0000
1000
0000
0100
0010
1001
0000
0100
0000
1000
0000
1100
0001
,
0110
0000
0100
0000
0011
0000
0000
1000
0110
0000
1100
0000
0000
0000
1000
1000
,
1010
0000
0001
0000
1000
0000
0100
0010
1001
0000
0010
0000
0100
0000
1010
0001
,
0110
0000
0001
0000
1100
0000
0000
0100
0011
0000
1000
0000
0000
0000
0100
0100
,
0101
0000
0010
0000
1100
0000
0011
0100
1010
0000
0001
0000
0110
0000
1000
0010
,
0101
0000
0010
0000
1100
0000
0000
0010
0101
0000
1000
0000
0010
0000
0101
0000
,
1010
0000
0001
0000
0100
0000
0000
0010
0101
0000
1000
0000
0011
0000
0100
0010
,
1001
0000
0000
0000
1100
0000
0000
0001
0110
0000
1000
0000
0101
0000
0010
0000
,
1001
0000
0100
0000
0010
0000
0101
0000
0110
0000
1000
0010
0100
0001
0010
0100
,
1001
0000
0000
0000
0011
0100
1000
0010
0100
0001
1010
0100
1000
0010
0101
0101
,
0101
1000
0100
0010
0001
0100
1001
0010
0100
0001
0010
0100
1001
0010
1000
0100
,
1001
0010
1000
0100
0011
1000
0001
1000
0001
0100
1010
0001
0100
0010
1001
1001
,
1001
0100
0010
0001
0100
0000
1000
0000
0100
0000
1000
0000
0100
0000
1000
0000
,
0100
0000
1000
0000
0101
0010
1000
0100
0010
0001
1100
0010
1000
0001
0110
0110
,
0110
1000
0001
0100
0010
1000
0101
0010
1000
0001
0100
0010
1001
0100
1000
0010
,
1001
0100
1000
0010
1100
0001
0010
1000
0100
0010
1100
0001
0010
0100
1010
1010
,
1010
0000
0001
0100
0001
0100
0001
0100
,
0001
0000
0100
0000
1001
0000
0100
0001
1010
0000
1001
0000
0010
0000
0101
0000
,
1001
0000
0001
0000
1000
0000
0110
0001
1100
0000
0001
0000
0110
0000
0101
0010
,
1100
0010
0101
0000
1000
1000
1000
0001
,
0000
0100
0000
0010
0100
0001
0010
0100
,
0100
0000
1000
0000
0011
0000
1000
0001
0110
0000
0011
0000
0100
0000
1010
0000
,
0011
0000
0001
0000
0010
0000
1100
0001
0110
0000
0001
0000
1100
0000
1001
0100
,
1010
1100
0110
0000
0001
0001
0001
1000
,
0000
0010
0000
1000
0001
0010
0100
1000
,
1000
0000
0100
0000
1010
0000
0100
0010
0101
0000
1010
0000
0001
0000
0100
0000
,
1010
0000
1000
0000
0010
0000
0101
1000
0011
0000
1000
0000
0101
0000
1010
0100
,
0011
0101
0110
0000
0100
0100
0100
0010
,
0000
1000
0000
0100
0010
0001
1000
0100
,
0100
0001
1001
1000
1000
1010
1000
1000
,
1100
0000
1000
0000
1000
0000
1001
0000
1010
0000
1010
0001
1100
0010
1000
0100
,
1000
0001
1100
0010
1001
0000
0001
0000
0001
0000
0101
0000
0001
0000
0001
0000
,
0011
0000
0000
0000
0100
0000
0000
0000
0100
0000
0000
0000
1100
0001
0000
0000
0100
0001
0000
0000
1000
0000
0000
0000
0010
0000
0000
0000
0100
0000
0000
0000
,
0001
0000
0000
0000
1100
0010
0100
1000
0001
1000
0011
0100
1000
0010
1100
1100
,
1100
0010
0001
0100
0010
1000
0110
0001
1000
0010
0001
1000
0110
1000
0001
1000
,
0110
1000
0100
0010
0101
1000
0100
0010
1000
0001
1100
0010
1000
0001
0110
0110
,
0110
0000
1000
0001
1000
0001
1000
0001
,
1000
0000
0001
0000
0110
0001
1000
0010
0100
0001
1100
0010
0001
1000
0011
0011
,
0011
1000
0100
1000
0001
0100
1001
0010
0001
0100
0010
0001
1010
0100
1000
0001
,
1010
0100
1000
0001
0110
1000
0100
0010
1000
0010
1100
0001
1000
0010
0101
0101
,
0101
0000
0000
0000
0001
1000
0001
1000
0100
1000
0001
0010
0001
1000
0010
0100
,
0001
0000
0000
0000
1000
0000
0000
0000
0100
0000
0000
0000
0010
0000
0000
0000
0002
0000
0000
0000
0000
0000
0000
0000
0000
0000
0000
0000
0000
0000
0000
0000
0000
0000
0000
0000
0000
0000
0000
0000
0010
0000
0000
0000
0000
0000
0000
0000
0000
0000
0000
0000
0000
0000
0000
0000
0000
0000
0000
0000
0000
0000
0000
0003
,
2100
0100
0100
0000
0000
0000
0100
0100
0100
0000
0000
0000
0000
0000
0000
0000
,
0000
0000
0000
0000
0000
0000
0000
0000
0000
0000
0000
0000
0000
0000
0000
0000
3020
0000
0000
0000
0000
0000
0000
0000
0000
0000
0000
0000
0000
0000
0000
0000
0000
0000
0000
0000
0000
0000
0000
0000
1000
0000
0000
0000
0000
0000
0000
0000
0000
0000
0000
0000
0000
0000
0000
0000
0000
0000
0000
0000
0000
0000
0000
0030
,
1002
1000
1000
0000
0000
0000
1000
1000
1000
0000
0000
0000
0000
0000
0000
0000
,
0000
0000
0000
0000
0000
0000
0000
0000
0000
0000
0000
0000
0000
0000
0000
0003
1200
0000
0000
0000
0000
0000
0000
0000
0000
0000
0000
0000
0000
0000
0000
0000
0000
0000
0000
0000
0000
0000
0000
0000
0001
0000
0000
0000
0000
0000
0000
0000
0000
0000
0000
0000
0000
0000
0000
0000
0000
0000
0000
0000
0300
0000
0000
0000
,
2001
0001
0001
0000
0000
0000
0001
0001
0001
0000
0000
0000
0000
0000
0000
0000
,
0000
0000
0000
0000
0000
0000
0000
0000
0000
0000
0000
0000
0000
0000
0000
0000
3002
0000
0000
0000
0000
0000
0000
0000
0000
0000
0000
0000
0000
0000
0000
0000
0000
0000
0000
0000
0000
0000
0000
0000
1000
0000
0000
0000
0000
0000
0000
0000
0000
0000
0000
0000
0000
0000
0000
0000
0000
0000
0000
0000
0000
0000
0000
0003
,
0210
0010
0010
0000
0000
0000
0010
0010
0010
0000
0000
0000
0000
0000
0000
0000
,
0000
0000
0000
0000
0000
0000
0000
0000
0000
0000
0000
0000
0000
0000
0000
0000
0302
0000
0000
0000
0000
0000
0000
0000
1000
0000
0000
0000
0000
0000
0000
0000
0010
0000
0000
0000
0000
0000
0000
0000
0100
0000
0000
0000
0000
0000
0000
0000
0010
0000
0000
0000
0000
0000
0000
0000
1000
0000
0000
0000
0000
0000
0000
0003
,
0210
0010
1000
0000
0001
0000
0010
0010
1000
0000
0001
0000
1000
0000
0010
0000
,
0001
0000
0000
0000
0000
0000
0000
0000
0010
0000
0000
0000
0000
0000
0000
0000
2300
0000
0000
0000
0000
0000
0000
0000
0100
0000
0000
0000
0000
0000
0000
0000
0001
0000
0000
0000
0000
0000
0000
0000
0010
0000
0000
0000
0000
0000
0000
0000
0100
0000
0000
0000
0000
0000
0000
0000
0001
0000
0000
0000
0000
0000
0000
3000
,
0120
0100
1000
0000
0001
0000
0100
0100
0001
0000
1000
0000
0001
0000
0100
0000
,
1000
0000
0000
0000
0000
0000
0000
0000
0001
0000
0000
0000
0000
0000
0000
0000
0230
0000
0000
0000
0000
0000
0000
0000
0001
0000
0000
0000
0000
0000
0000
0000
1000
0000
0000
0000
0000
0000
0000
0000
0010
0000
0000
0000
0000
0000
0000
0000
0001
0000
0000
0000
0000
0000
0000
0000
1000
0000
0000
0000
0000
0000
0000
0300
,
0012
0010
0100
0000
1000
0000
0010
0010
1000
0000
0100
0000
0010
0000
1000
0000
,
0100
0000
0010
0000
1003
1000
1000
0000
0000
0000
0000
0000
0000
0000
0000
0000
,
0010
0010
0010
0000
1100
0010
0001
1000
0110
0001
1100
0010
0001
0100
0011
1000
,
0101
0000
0000
0000
1100
0000
0000
0010
0101
0000
1000
0000
0000
0000
0010
0010
,
1010
0000
0100
0000
0011
0000
0001
0010
1001
0000
0100
0000
0011
0000
1000
0001
,
1100
0000
0010
0000
1001
0000
0000
0010
0101
0000
1000
0000
0000
0000
1000
1000
,
1010
0100
1001
0010
1000
0010
1000
0010
,
1000
0000
0010
0000
1100
0000
0000
0010
1001
0000
0100
0000
0000
0000
0010
0010
,
1010
0000
0100
0000
1100
0000
0001
0100
1010
0000
0100
0000
1001
0000
0100
1000
,
0011
0000
0000
0000
0000
0000
0000
0000
0000
0000
0000
0000
0000
0000
0000
0000
1100
0000
0000
0000
0000
0000
0000
0000
0000
0000
0000
0000
0000
0000
1100
0000
0000
0000
0000
0000
0000
0001
0000
0000
0000
0000
0000
0000
0010
0000
0000
0000
0000
0000
0000
0000
0000
0100
0000
0000
0000
0000
0000
0000
0000
0000
0000
0000
,
0101
0000
0000
0000
0000
0000
0000
0000
0000
0000
0000
0000
0000
0000
0000
0000
0000
0000
0000
0000
0000
0000
0000
0000
0000
0000
0000
0000
0000
0000
0000
0000
0000
0000
0000
0000
0000
0000
0000
0000
0000
0000
0101
0000
0000
0000
0000
0000
0000
0000
0000
0000
0000
0000
0000
0000
0000
0000
0000
0000
0000
0000
0000
0010
0000
0000
0000
0000
0000
0000
0000
0000
0000
0000
0000
0000
0000
0000
0000
0000
0000
0000
0000
0100
0000
0000
0000
0000
0000
0000
0000
0000
0000
0000
0000
0000
0000
0000
0000
0000
0000
0000
0000
0000
0000
0000
0000
0000
1000
0000
0000
0000
0000
0000
0000
0000
0000
0000
0000
0000
0000
0000
0000
0000
0000
0000
0000
0000
0000
0000
0000
0000
0000
0000
0000
0000
0000
0000
0000
0000
0000
0000
0000
0000
1001
0000
0000
0000
0000
0000
0000
0000
0000
0000
0000
0000
0000
0000
0000
0000
0000
0000
0000
0000
0000
0000
0000
0000
0000
0000
0000
0000
0000
0000
0000
0000
0000
0000
0000
0000
0000
0000
0000
0000
0000
0000
0000
0000
0000
0000
0000
0000
;
