#TITLE:Marisa stole the precious thing;
#SUBTITLE:;
#ARTIST:IOSYS;
#TITLETRANSLIT:;
#SUBTITLETRANSLIT:;
#ARTISTTRANSLIT:;
#CREDIT:Owem;
#BANNER:../banner.png;
#BACKGROUND:../bg.png;
#LYRICSPATH:;
#CDTITLE:../cdtitleowem.png;
#MUSIC:IOSYS - Marisa stole the precious thing.ogg;
#OFFSET:-0.921;
#SAMPLESTART:68.687;
#SAMPLELENGTH:29.999;
#SELECTABLE:YES;
#BPMS:0.000=170.000;
#STOPS:;
#BGCHANGES:;
// cache tags:
#FIRSTBEAT:0.000;
#LASTBEAT:328.000;
#SONGFILENAME:Songs/Owem's Simfiles 08 (not release)/Marisa stole the precious thing - [Owem]/Marisa stole the precious thing.sm;
#HASMUSIC:1;
#HASBANNER:1;
#MUSICLENGTH:122.932;
// end cache tags

//---------------dance-single - 1-2-2-2/8/10/3-2/7/2----------------
#NOTES:
     dance-single:
     1-2-2-2/8/10/3-2/7/2:
     Challenge:
     19:
     1.000,1.000,0.252,0.407,1.000,1313.000,31.000,50.000,0.000,0.000:

1010
0000
0000
0110
0000
0000
0101
0000
2002
0000
0000
3003
2020
0000
0000
3030
,
0110
0000
0000
0101
0000
0000
1010
0000
1001
0000
1001
0000
2002
0000
0000
3003
,
0101
0000
0000
0110
0000
0000
1010
0000
2200
0000
0000
3300
2002
0000
0000
3003
,
0101
0000
0000
0000
0000
0000
0110
0000
0000
0000
0000
0000
1010
0000
0000
0000
1000
0010
0100
0001
1000
0000
0000
0000
0100
0000
0010
0000
0001
0000
0000
0000
,
1000
0000
0000
0000
0010
0000
0100
0000
0001
0000
0000
0000
1000
0000
0000
0000
0200
0300
0020
0030
0002
0003
0000
0000
2000
3010
1000
0000
0002
0103
0001
0000
,
0010
0000
0000
0000
0100
0000
1000
0000
0001
0000
0000
0000
0100
0000
0000
0000
0020
0030
2000
3000
0020
0030
0000
0000
2000
3001
1000
0000
0002
0103
0001
0000
,
0010
0000
0000
0000
0100
0000
1000
0000
0001
0000
0000
0000
0100
0000
0000
0000
0020
0030
2000
3000
0020
0030
0000
0000
2000
3001
1000
0000
0020
0130
0010
0000
,
1000
0000
0001
0000
1000
0000
0001
0000
0000
0100
0000
0000
0010
0000
0000
1000
0000
0000
0001
0000
0100
0000
0001
0000
0100
0000
0000
0010
0000
0000
1000
0000
0000
0001
0000
0000
2000
0000
0000
0000
0000
0000
3100
0000
0000
0010
0000
0000
,
0001
1000
0001
0100
0010
1000
0010
0100
0001
1000
0100
1000
0001
1000
0010
0100
0001
0100
0010
1000
0001
1000
0100
0010
,
0100
0000
1000
0000
0001
0000
0100
0000
0001
0000
1000
0000
0100
0000
0010
0000
0001
0000
1000
0000
0001
0000
0100
0000
0010
0000
1000
0000
0001
0000
0100
0000
0010
0000
0100
0000
0002
0000
0000
0000
0000
0000
0000
0000
0000
0003
0000
0000
,
1000
0100
0010
0001
1000
0001
0100
0010
1000
0001
0100
0001
0010
0100
1000
0001
0010
0001
0100
0010
1000
0001
0100
0010
,
0100
0000
0001
0000
1000
0000
0010
0000
1000
0000
0001
0000
0100
0000
0010
0000
0100
0000
0001
0000
1000
0000
0010
0000
1000
0000
0100
0000
0010
0000
0001
0000
1000
0000
0001
0000
0200
0000
0000
0000
0000
0000
0000
0000
0000
0300
0000
0000
,
0010
1000
0001
0100
0001
1000
0100
0010
0100
1000
0001
0100
0001
0010
0100
1000
0001
0010
0001
0100
0010
1000
0001
0100
,
0001
0000
1000
0000
0010
0000
0100
0000
0001
0000
1000
0000
0100
0000
1000
0000
0001
0000
0100
0000
0010
0000
0100
0000
0001
0000
1000
0000
0100
0000
0010
0000
0100
0000
1000
0000
0002
0000
0000
0000
0000
0000
0000
0000
0000
0003
0000
0000
,
0200
0000
0310
0000
2000
0000
3001
0000
0200
0000
0320
0000
0130
0001
1000
0001
,
0020
0000
0130
1000
0002
0000
0103
0000
0020
0030
2000
3000
0010
0100
0001
1000
,
0100
0010
0001
1000
0001
0100
0010
1000
0001
0100
0001
0010
0100
1000
0001
0010
0001
1000
0100
0010
0100
1000
0001
0010
,
0001
0000
0100
0000
0010
0000
1000
0000
0010
0000
0100
0000
0001
0000
1000
0000
0100
0000
1000
0000
0001
0000
0100
0000
0010
0000
1000
0000
0001
0000
0100
0000
0001
0000
1000
0000
0100
0000
0000
0010
0000
0000
0001
0000
0000
1000
0000
0000
,
0001
0100
0010
1000
0010
0100
0001
1000
0100
1000
0001
0010
0001
1000
0100
0010
0100
1000
0001
0010
0001
0100
0010
1000
,
0001
0000
0100
0000
0001
0000
1000
0000
0010
0000
0100
0000
0001
0000
1000
0000
0100
0000
1000
0000
0001
0000
0010
0000
0100
0000
0010
0000
0001
0000
1000
0000
0010
0000
0100
0000
0001
0000
0000
1000
0000
0000
0010
0000
0000
0100
0000
0000
,
0010
1000
0001
0100
0001
0010
0100
1000
0001
0010
0001
1000
0100
0010
0100
1000
0001
0010
0001
0100
0010
1000
0001
0100
,
0001
0000
1000
0000
0010
0000
0100
0000
0001
0000
1000
0000
0100
0000
1000
0000
0001
0000
0010
0000
0100
0000
0010
0000
0001
0000
1000
0000
0100
0000
1000
0000
0010
0000
0100
0000
0010
0000
0000
1000
0000
0000
0001
0000
0000
0100
0000
0000
,
0010
1000
0001
0100
0001
0010
0100
1000
0001
0010
0001
1000
0100
0010
0100
1000
0001
0010
0001
0100
0010
1000
0001
0100
,
0001
0000
0010
0000
0100
0000
1000
0000
0001
0000
0010
0000
0001
0000
0100
0000
0010
0000
1000
0000
0010
0000
0100
0000
0001
0000
0000
0010
0000
0000
0200
0000
0000
0000
0000
0000
1300
0000
0000
0001
0000
0000
2000
0000
0000
0000
0000
0000
,
3010
0100
0001
1000
0001
0100
0010
1000
0000
0001
0100
0010
1000
0010
0100
0001
,
0000
1000
0100
1000
0010
0100
0001
1000
0000
0100
0010
0001
1000
0010
0100
0010
,
1000
0001
0100
0010
0100
0001
1000
0100
1000
0001
0010
0100
0010
0001
1000
0100
,
1000
0000
0010
0000
0100
0000
0001
0000
0010
0000
0100
0000
1000
0000
0001
0000
0100
0010
1000
0001
0100
0000
0010
0000
0100
0000
0001
0000
1000
0000
0001
0000
,
0010
0100
1000
0001
1000
0010
1000
0001
0100
0010
0100
0001
1000
0010
1000
0100
,
0010
0001
1000
0100
1000
0001
0100
0010
1000
0001
0100
0001
0010
0100
0010
0001
,
1000
0100
1000
0010
1000
0001
0100
0010
0100
0001
1000
0100
0010
0001
1000
0010
,
0100
0001
0100
0000
0010
0000
1000
0000
0001
0000
0100
0000
0010
1000
0010
0000
0100
0000
0001
0000
1000
0000
0100
0000
0010
0000
0001
0000
1000
0000
0001
0000
,
0100
0010
0100
0001
1000
0010
1000
0100
0010
0001
1000
0100
1000
0001
0010
0001
,
0100
0010
1000
0001
0010
0001
0100
0010
1000
0001
0100
0001
1000
0100
0010
0100
,
1000
0001
0010
0001
0100
0010
1000
0001
0100
0001
1000
0100
0010
0100
1000
0001
,
0100
0001
1000
0010
0100
0001
0100
0010
1000
0000
0001
0000
0200
0000
0000
0300
,
0010
1000
0001
0100
0001
1000
0100
0010
0100
1000
0001
0010
0001
1000
0100
0010
,
0100
1000
0001
0010
0001
0100
0010
1000
0001
0100
0001
1000
0010
0100
0010
1000
,
0001
0010
0100
0010
0001
1000
0100
1000
0001
0100
0010
1000
0100
1000
0001
0100
,
0010
1000
0001
0100
0001
0010
0100
1000
0001
1000
0010
0100
0020
0030
0200
0300
,
0001
1000
0010
1000
0100
0010
0001
1000
0100
1000
0001
0010
0100
0010
0001
1000
,
0100
1000
0001
0100
0010
1000
0001
0100
0010
0100
0001
1000
0100
0010
0001
1000
,
0010
0100
0001
0000
1000
0100
1000
0000
0010
0100
0001
0000
1000
0100
0010
0000
,
0001
0010
0100
0000
1000
0001
1000
0000
0010
0100
0001
0000
1000
0100
0010
0000
,
0011
0001
1001
1000
1010
0010
0110
0100
,
0101
0101
1001
1001
1010
1010
0110
0110
,
0200
0000
0301
0000
1000
0000
0010
0000
0100
0001
0100
0000
0010
1000
0010
0100
,
0001
0010
0100
1000
0001
1000
0010
0100
0010
1000
0100
1000
0001
0010
0100
1000
,
0010
1000
0001
0100
0010
1000
0001
0100
0001
1000
0100
0010
0100
1000
0001
0010
,
0001
1000
0001
0100
0010
1000
0100
1000
0001
0100
0010
1000
0001
0100
0001
1000
,
0100
0010
0100
1000
0001
0010
0001
1000
0100
0010
0100
1000
0001
0010
0001
0100
,
0010
1000
0010
0100
0001
1000
0100
1000
0001
0100
0010
1000
0010
0100
0001
1000
,
0100
1000
0001
0010
0001
1000
0100
0010
0001
1000
0100
1000
0001
0100
0010
1000
,
0100
1000
0010
0100
0001
1000
0100
1000
0001
0010
0100
0010
0001
1000
0010
0100
,
0020
0000
1030
0000
0001
0100
0002
0000
0013
0000
0100
0000
2000
0000
3010
0000
,
0200
0000
0301
0000
1000
0000
0100
0000
0020
0000
0031
1000
0001
0000
0100
0000
,
0010
1000
0001
0100
0001
1000
0100
0010
0100
1000
0001
0010
0001
0100
0010
1000
,
0001
0100
0001
1000
0100
0010
0100
1000
0001
0010
0001
0100
0010
1000
0001
0100
,
0001
1000
0100
0010
0100
1000
0001
0010
0001
0100
0010
1000
0001
0100
0001
1000
,
0100
0010
0100
1000
0001
0010
0001
1000
0100
0010
0100
1000
0001
0100
0001
1000
,
0100
1000
0010
1000
0001
0100
0010
0100
0001
1000
0100
0010
0100
1000
0001
0010
,
0001
0100
0010
1000
0001
0100
0001
0010
0100
1000
0001
0010
0001
1000
0100
0010
,
0100
1000
0001
1000
0010
0100
0001
1000
0100
1000
0010
0100
0001
1000
0100
1000
,
0010
0100
0010
1000
0001
0100
0001
0010
0100
1000
0001
1000
0010
0100
0001
1000
,
0100
1000
0001
0010
0100
0010
0001
1000
0100
1000
0010
0100
0001
1000
0100
0010
,
0001
1000
0001
0100
0010
1000
0010
0100
0001
1000
0100
0010
0100
1000
0001
1000
0010
0100
0001
1000
0100
0010
0001
1000
,
0010
0100
0001
1000
0100
1000
0010
0100
0010
1000
0001
0100
0001
0010
0100
1000
,
0010
0000
0000
0000
0000
0000
0000
0000
0000
0000
0100
0000
0000
0000
0000
0000
0000
0000
0000
0001
0000
0000
0000
0000
0000
0000
0000
0000
0000
1000
0000
0000
0000
0000
0000
0000
0000
0000
0010
0000
0000
0000
0000
0000
0000
0000
0000
0000
1000
0000
0000
0000
0000
0000
0000
0000
0000
0000
0100
0000
0000
0000
0000
0000
0000
0000
0000
0010
0000
0000
0000
0000
0000
0000
0000
0000
0000
0001
0000
0000
0000
0000
0000
0000
0000
0000
1000
0000
0000
0000
0000
0000
0000
0000
0000
0000
0100
0000
0000
0000
0000
0000
0000
0000
0000
0000
1000
0000
0000
0000
0000
0000
0000
0000
0000
0001
0000
0000
0000
0000
0000
0000
0000
0000
0000
0100
0000
0000
0000
0000
0000
0000
0000
0000
0010
0000
0000
0000
0000
0000
0000
0000
0000
0000
1000
0000
0000
0000
0000
0000
0000
0000
0000
0000
0001
0000
0000
0000
0000
0000
0000
0000
0000
1000
0000
0000
0000
0000
0000
0000
0000
0000
0000
0100
0000
0000
0000
0000
0000
0000
0000
0000
0010
0000
0000
0000
0000
0000
0000
0000
0000
0000
,
0001
1000
0010
0100
0001
1000
0100
1000
0010
0100
0001
1000
0100
1000
0001
0010
,
0100
1000
0001
0010
0001
0100
0010
1000
0001
0100
0001
1000
0100
0010
0100
1000
,
0001
0010
0001
1000
0100
0010
0100
1000
0001
0010
0001
0100
0010
1000
0001
0100
,
0010
0100
0001
1000
0010
1000
0001
1000
0100
0010
0100
1000
0001
0010
0001
1000
,
0100
0010
0100
1000
0001
0010
0001
1000
0010
0100
0001
0100
0010
1000
0001
1000
,
0100
0010
0001
1000
0001
0100
0010
1000
0001
0100
0001
1000
0100
0010
0001
1000
0100
1000
0010
0100
0001
1000
0010
0100
,
0010
1000
0001
0100
0001
0010
0100
1000
0001
0010
0001
1000
0100
0010
0001
1000
,
0010
0000
0000
0000
0000
0000
0000
0000
0000
0000
0100
0000
0000
0000
0000
0000
0000
0000
0000
0001
0000
0000
0000
0000
0000
0000
0000
0000
0000
1000
0000
0000
0000
0000
0000
0000
0000
0000
0100
0000
0000
0000
0000
0000
0000
0000
0000
0000
1000
0000
0000
0000
0000
0000
0000
0000
0000
0000
0001
0000
0000
0000
0000
0000
0000
0000
0000
0100
0000
0000
0000
0000
0000
0000
0000
0000
0000
0010
0000
0000
0000
0000
0000
0000
0000
0000
1000
0000
0000
0000
0000
0000
0000
0000
0000
0000
0001
0000
0000
0000
0000
0000
0000
0000
0000
0000
0010
0000
0000
0000
0000
0000
0000
0000
0000
0100
0000
0000
0000
0000
0000
0000
0000
0000
0000
1000
0000
0000
0000
0000
0000
0000
0000
0000
0001
0000
0000
0000
0000
0000
0000
0000
0000
0000
0010
0000
0000
0000
0000
0000
0000
0000
0000
0000
0001
0000
0000
0000
0000
0000
0000
0000
0000
0100
0000
0000
0000
0000
0000
0000
0000
0000
0000
0010
0000
0000
0000
0000
0000
0000
0000
0000
1000
0000
0000
0000
0000
0000
0000
0000
0000
0000
,
0010
0100
0001
1000
0010
1000
0100
0010
0001
1000
0100
1000
0001
0100
0010
1000
,
0001
0100
0001
0010
0100
1000
0001
0010
0001
1000
0100
0010
0100
1000
0001
0100
,
0010
0100
0001
1000
0100
0010
0100
1000
0001
0010
0001
1000
0010
1000
0001
0100
,
0010
0100
0001
1000
0010
1000
0100
0010
0001
1000
0010
0100
0010
0000
0200
0000
,
0302
0000
1003
0100
0010
0001
1000
0001
0100
0001
1000
0010
0100
0010
1000
0010
,
0100
0000
0001
0100
0010
0000
1000
0010
0100
0000
0001
0010
0100
0000
1000
0100
,
0010
0000
0000
0000
;
