#TITLE:Voodoo Curse;
#SUBTITLE:EXoduz Violation;
#ARTIST:Mortician;
#TITLETRANSLIT:;
#SUBTITLETRANSLIT:;
#ARTISTTRANSLIT:;
#CREDIT:;
#BANNER:../Banner.png;
#BACKGROUND:../Background.png;
#LYRICSPATH:;
#CDTITLE:;
#MUSIC:mortician - voodoo curse.ogg;
#OFFSET:-1.000;
#SAMPLESTART:24.191;
#SAMPLELENGTH:12.000;
#SELECTABLE:YES;
#DISPLAYBPM:250.000;
#BPMS:0.000=250.000,132.000=126.500,175.000=250.000,303.000=126.500,354.000=250.000;
#STOPS:;
#BGCHANGES:0.000=morticianddoh.png=1.000=0=0=1,
540.000=morticianddoh_BG.png=1.000=0=0=1,
99999=-nosongbg-=1.000=0=0=0 // don't automatically add -songbackground-
;
// cache tags:
#FIRSTBEAT:4.000;
#LASTBEAT:486.000;
#SONGFILENAME:Songs/EXoduz Violation/Mortician - Voodoo Curse/voocurse.sm;
#HASMUSIC:1;
#HASBANNER:1;
#MUSICLENGTH:142.314;
// end cache tags

//---------------dance-single - ----------------
#NOTES:
     dance-single:
     :
     Challenge:
     17:
     1.000,1.000,0.091,0.035,1.000,1533.000,13.000,5.000,0.000,12.000:

0000
0000
0000
0000
,
1000
0100
1000
0100
0010
0001
0010
0001
1000
0010
1000
0010
,
0100
0001
1000
0001
1000
0100
0010
0001
1000
0001
1000
0010
,
1000
0010
0100
0001
0100
0001
1000
0001
1000
0010
1000
0010
,
0100
0010
0100
0001
1000
0001
1000
0100
0010
0001
1000
0010
,
1000
0010
0100
0001
0100
0001
1000
0001
1000
0100
0010
0001
,
1000
0010
1000
0010
0100
0001
0010
0100
1000
0100
1000
0010
,
0100
0001
0100
0001
1000
0100
0010
0001
1000
0001
1000
0010
,
1000
0010
0100
0001
0010
0100
1000
0100
1000
0010
0100
0001
,
0100
0001
1000
0010
1000
0010
0100
0001
0010
0001
0010
0100
,
1000
0010
0100
0010
0100
0001
0100
0001
1000
0001
1000
0010
,
0100
0001
0010
0100
1000
0010
0100
0001
1000
0100
0010
0001
,
0010
0100
1000
0010
0100
0001
1000
0100
0010
0001
1000
0010
,
0100
0001
1000
0100
0010
0001
0100
0001
1000
0010
0100
0001
,
0010
0100
1000
0001
0100
0001
1000
0001
1000
0010
0100
0001
,
0010
0100
1000
0100
0010
0001
1000
0010
0100
0001
1000
0001
,
0100
0001
1000
0010
0100
0001
0010
0100
1000
0001
0010
0100
,
1000
0001
0100
0001
1000
0010
1000
0010
0100
0001
0010
0100
,
1000
0010
0100
0001
0010
0100
1000
0010
1000
0010
0100
0001
,
1000
0001
1000
0100
0010
0001
1000
0010
0100
0001
0010
0001
,
0010
0100
1000
0100
1000
0010
0100
0001
1000
0001
1000
0100
,
0010
0001
1000
0010
1000
0010
0100
0001
0010
0100
1000
0100
,
1000
0010
0100
0001
1000
0100
0010
0001
0100
0010
1000
0010
,
0100
0001
0010
0100
1000
0010
0100
0001
1000
0001
1000
0100
,
0010
0000
0000
0000
0001
0000
0000
0000
1000
0000
0000
0000
0010
0000
0000
0000
0100
0000
0000
0000
0001
0000
0000
0000
0010
0000
0000
0000
0100
0000
0000
0000
1000
0000
0000
0000
0004
0000
0000
1003
0000
0000
0001
0000
0000
1000
0000
0000
,
0001
1000
0010
1000
0010
0100
0001
0010
0100
1000
0100
1000
0010
0100
0001
1000
,
0001
1000
0001
1000
0100
0010
0001
0010
0001
1000
0010
1000
0010
0100
0001
1000
,
0001
1000
0100
0010
0001
0010
0001
0010
0001
1000
0010
0100
0001
0010
0100
1000
,
0100
1000
0100
1000
0010
1000
0010
1000
0010
0100
0001
0100
0001
1000
0100
0010
,
0100
1000
0001
0010
0001
0010
0001
1000
0010
0100
0001
1000
0001
1000
0100
0010
,
0001
0010
0001
1000
0100
0010
0001
0010
0001
1000
0010
0100
0001
0100
0001
1000
,
0010
0100
0001
0100
0001
1000
0100
0010
0001
0100
0001
0100
0001
0100
0010
1000
,
0010
1000
0100
1000
0100
0010
0001
1000
0001
1000
0001
1000
0010
1000
0010
0100
,
0001
0100
0010
1000
0100
0010
0001
0010
0001
1000
0010
1000
0010
0100
0001
0010
,
0100
1000
0001
0010
0100
1000
0010
0100
0001
1000
0001
1000
0010
0100
0001
0010
,
0100
1000
0001
0010
0100
1000
0010
1000
0010
0100
0001
0100
0001
1000
0001
1000
,
0100
0010
0001
1000
0010
1000
0010
0100
0001
0010
0100
1000
0001
0100
0010
1000
,
0010
0100
0001
0010
0100
1000
0100
1000
0010
0100
0001
0100
0001
1000
0010
1000
,
0010
0100
0001
0010
0100
1000
0001
0100
0001
1000
0010
1000
0010
0100
0001
0010
,
0100
1000
0001
0100
0010
1000
0100
0010
0001
0010
0001
1000
0010
0100
0001
0010
,
0100
1000
0100
1000
0001
0100
0001
1000
0010
0100
0001
0010
0100
1000
0100
1000
,
0010
0100
0001
1000
0001
1000
0100
0010
0001
0010
0001
1000
0010
0100
0001
0010
,
0100
1000
0100
1000
0001
0100
0001
1000
0100
1000
0010
0100
0001
0010
0001
1000
,
0010
1000
0010
0100
0001
0010
0100
1000
0010
0100
0001
1000
1110
0000
0010
0000
,
0100
0001
0010
0100
1000
0010
1101
0010
,
0100
0001
0010
0100
1000
0001
0111
0001
,
1000
0010
0100
0001
0010
0100
1000
0010
,
0100
0001
1000
0001
1000
0010
0111
0001
,
0010
0100
1000
0010
0100
0001
1101
0010
,
0100
0001
0010
0001
0010
0100
1101
0010
,
0100
0001
1000
0001
1000
0010
0100
0001
,
0010
0100
1000
0001
0100
0001
1110
0100
,
0010
0100
1000
0001
0010
0100
0111
0001
,
1000
0010
0100
0001
0010
0100
1110
0001
,
1000
0010
0100
0001
0010
0100
1000
0010
,
0100
0001
1000
0001
0100
0001
1011
0010
,
0100
0001
0010
0100
1000
0001
1101
0001
,
1000
0010
1000
0010
0100
0001
1110
0100
,
1000
0100
0010
0001
1000
0010
0100
0001
,
0010
0000
0100
0000
1000
0000
0010
0000
0100
0000
0001
0000
0100
0001
0100
0001
,
1000
0010
1000
0010
0100
0010
0100
0001
0100
0001
1000
0001
1000
0001
1000
0010
,
1000
0000
0000
0010
0000
0000
0100
0000
0000
0010
0000
0000
0100
0000
0000
0001
0000
0000
0100
0000
0000
0001
0000
0000
1000
0000
0000
0010
0000
0000
1000
0000
0000
0010
0000
0000
1000
0000
0000
0000
0001
0000
0000
0000
1000
0000
0000
0000
,
0010
1000
0010
0100
0001
0010
0100
1000
0100
1000
0010
0100
,
0001
0000
0000
0000
1000
0000
0000
0000
0001
0000
0000
0000
1000
0000
0000
0000
0010
0000
0000
0000
0100
0000
0000
0000
0001
0000
0000
0000
0010
0000
0000
0000
0100
0000
0000
0000
1000
0000
0000
0001
0000
0000
1000
0000
0000
0001
0000
0000
,
1000
0001
1000
0010
1000
0010
1000
0010
0100
0001
0100
0001
1000
0001
1000
0010
,
1000
0000
0000
0010
0000
0000
0100
0000
0000
0010
0000
0000
0100
0000
0000
0010
0000
0000
0100
0000
0000
0001
0000
0000
1000
0000
0000
0001
0000
0000
1000
0000
0000
0001
0000
0000
1000
0000
0000
0000
0100
0000
0000
0000
0010
0000
0000
0000
,
0001
1000
0001
1000
0010
0100
0001
0010
0100
1000
0001
0100
,
0001
0000
0000
0000
1000
0000
0000
0000
0010
0000
0000
0000
1000
0000
0000
0000
0010
0000
0000
0000
0100
0000
0000
0000
0001
0000
0000
0000
0010
0000
0000
0000
0100
0000
0000
0000
1000
0000
0000
0001
0000
0000
1000
0000
0000
0001
0000
0000
,
1000
0010
1000
0010
0100
0001
0100
0001
1000
0001
1000
0001
1000
0001
1000
0001
,
1000
0000
0000
0100
0000
0000
1000
0000
0000
0100
0000
0000
0010
0000
0000
0001
0000
0000
0010
0000
0000
0001
0000
0000
1000
0000
0000
0100
0000
0000
1000
0000
0000
0100
0000
0000
1000
0000
0000
0000
0100
0000
0000
0000
0010
0000
0000
0000
,
0001
1000
0010
0100
0001
0100
0001
1000
0010
0100
0001
0010
,
0100
0000
0000
0000
1000
0000
0000
0000
0001
0000
0000
0000
0100
0000
0000
0000
0001
0000
0000
0000
1000
0000
0000
0000
0010
0000
0000
0000
0100
0000
0000
0000
0010
0000
0000
0000
0100
0000
0000
0010
0000
0000
0100
0000
0000
0010
0000
0000
,
0100
0010
1000
0010
1000
0010
1000
0100
1000
0100
0010
0001
0010
0001
0010
0001
,
1000
0000
0000
0001
0000
0000
1000
0000
0000
0001
0000
0000
1000
0000
0000
0001
0000
0000
1000
0000
0000
0010
0000
0000
1000
0000
0000
0010
0000
0000
1000
0000
0000
0010
0000
0000
1000
0000
0000
0000
0100
0000
0000
0000
0010
0000
0000
0000
,
0001
1000
0001
1000
0010
0100
0001
0010
0100
1000
0001
0100
,
0001
0000
0000
0000
1000
0000
0000
0000
0010
0000
0000
0000
1000
0000
0000
0000
0010
0000
0000
0000
0100
0000
0000
0000
0001
0000
0000
0000
0010
0000
0000
0000
0100
0000
0000
0000
1000
0000
0000
0100
0000
0000
0010
0000
0000
0001
0000
0000
,
1000
0001
1000
0010
1000
0010
0100
0001
0010
0100
1000
0001
0100
0001
1000
0001
,
1000
0010
1000
0010
0100
0001
0010
0100
1000
0001
0100
0001
1000
0001
1000
0010
,
0100
0001
0010
0100
1000
0001
0100
0001
1000
0100
0010
0001
1000
0001
1000
0010
,
1000
0010
0100
0001
0010
0100
1000
0001
0100
0001
1000
0010
1000
0010
0100
0001
,
0010
0100
1000
0001
0100
0010
1000
0010
1000
0010
0100
0001
0010
0100
1000
0001
,
0100
0001
1000
0010
0100
0001
0010
0100
1000
0100
1000
0010
0100
0001
0100
0001
,
1000
0001
1000
0010
0100
0001
0010
0100
1000
0001
0100
0001
1000
0010
1000
0010
,
0100
0001
0010
0100
1000
0001
0100
0001
0100
0010
1000
0100
0010
0001
0010
0001
,
1000
0010
1000
0010
0100
0001
0010
0100
1000
0001
0100
0010
1000
0100
0010
0100
,
1000
0001
0010
0100
0010
0001
1000
0100
0010
0001
1000
0010
0100
0001
0010
0100
,
1000
0001
0100
0001
0100
0010
1000
0100
0020
0000
0000
0000
0000
0000
0000
0000
,
0032
0000
2003
0000
,
3020
0000
0000
0000
0000
0000
1030
0001
1000
0010
0100
0001
,
0010
0100
1000
0010
1000
0010
0100
0001
1000
0001
1000
0100
,
0010
0001
1000
0010
0100
0001
0010
0100
1000
0001
0100
0001
,
1000
0010
1000
0010
0100
0001
0010
0100
1000
0001
0100
0001
,
1000
0010
0100
0001
0010
0100
1000
0010
0100
0001
1000
0001
,
1000
0010
0100
0001
0010
0100
1000
0100
0010
0001
1000
0010
,
0100
0001
1000
0100
0010
0001
1000
0010
0100
0001
0010
0100
,
1000
0001
0100
0001
1000
0010
0100
0001
0010
0100
1000
0001
,
0100
0010
1000
0010
1000
0100
0010
0001
1000
0100
0010
0001
,
1000
0010
1000
0010
0100
0001
0010
0100
1000
0001
0100
0001
,
1000
0010
1000
0010
0100
0001
0010
0100
1000
0001
0100
0001
,
1000
0001
1000
0010
0100
0001
0010
0100
1000
0001
0100
0001
,
1000
0010
1000
0010
0100
0001
0010
0100
1000
0001
0100
0001
,
1000
0001
1000
0010
0100
0001
0010
0100
1000
0001
0100
0001
,
1000
0010
1000
0010
0100
0001
0010
0100
1000
0100
0010
0001
,
1000
0001
0100
0010
1000
0100
0010
0001
1000
0010
0100
0001
,
0010
0100
1000
0001
0010
0100
1000
0100
0010
0001
1000
0010
,
0100
0001
1000
0010
1000
0010
0100
0001
0010
0100
1000
0001
,
0100
0001
1000
0010
0100
0001
0010
0100
1000
0001
0100
0001
,
1000
0010
1000
0010
0100
0001
0010
0100
1000
0001
0100
0001
,
1000
0010
1000
0010
0100
0001
0010
0100
1000
0001
0100
0001
,
1000
0010
1000
0010
0100
0001
0010
0100
1000
0001
0100
0001
,
1000
0010
1000
0010
0100
0001
0010
0100
1000
0001
0100
0001
,
1000
0010
0100
0001
0010
0100
1000
0001
0100
0001
1000
0010
,
1000
0000
0000
0000
0010
0000
0000
0000
0100
0000
0000
0000
0001
0000
0000
0000
0010
0000
0000
0000
0100
0000
0000
0000
1000
0000
0000
0100
0000
0000
0010
0000
0000
0001
0000
0000
0010
0000
0000
0001
0000
0000
1000
0000
0000
0010
0000
0000
,
1000
0010
0100
0001
0010
0100
1000
0100
1000
0100
1000
0100
1000
0010
0100
0001
,
1000
0001
1000
0010
0100
0001
0010
0001
0010
0100
1000
0001
1000
0001
0100
0010
,
1000
0010
1000
0010
1000
0010
0100
0001
0010
0100
1000
0100
1000
0001
0100
0001
,
0100
0001
1000
0001
1000
0010
1000
0010
0100
0001
0010
0100
1000
0100
1000
0010
,
0100
0010
0100
0001
0100
0001
1000
0010
1000
0010
0100
0001
0100
0001
1000
0100
,
0010
0001
1000
0010
1000
0010
0100
0001
0010
0001
0010
0100
1000
0001
0100
0001
,
1000
0100
1000
0001
0100
0001
1000
0010
1000
0010
0100
0001
0100
0001
1000
0010
,
0100
0001
0010
0100
1000
0001
0100
0010
2000
0000
0000
0000
0000
0000
0000
0000
,
0000
0000
3000
0000
;
