#TITLE:Roll The Track;
#SUBTITLE:(Gammer Remix);
#ARTIST:Scott Brown;
#TITLETRANSLIT:;
#SUBTITLETRANSLIT:;
#ARTISTTRANSLIT:;
#CREDIT:;
#BANNER:hhy77.banner.png.jpg;
#BACKGROUND:hhy77.bg.png.jpg;
#LYRICSPATH:;
#CDTITLE:CDTITLE.png;
#MUSIC:(15) [] Scott Brown - Roll The Track (Gammer remix).mp3;
#OFFSET:0.063;
#SAMPLESTART:100.000;
#SAMPLELENGTH:12.000;
#SELECTABLE:YES;
#BPMS:0.000=180.020;
#STOPS:;
#BGCHANGES:;
// cache tags:
#FIRSTBEAT:33.000;
#LASTBEAT:392.250;
#SONGFILENAME:Songs/Definitive Keyboard Megapack/Roll The Track (Gammer remix)(Leone510 VS KOMBO)/(15) [] Scott Brown - Roll The Track (Gammer remix).sm;
#HASMUSIC:1;
#HASBANNER:1;
#MUSICLENGTH:130.808;
// end cache tags

//---------------dance-single - ----------------
#NOTES:
     dance-single:
     :
     Hard:
     11:
     1.000,1.000,1.000,0.619,0.554,691.000,204.000,81.000,0.000,65.000:
0000
0000
0000
0000
,
0000
0000
0000
0000
,
0000
0000
0000
0000
,
0000
0000
0000
0000
,
0000
0000
0000
0000
,
0000
0000
0000
0000
,
0000
0000
0000
0000
,
0000
0000
0000
0000
,
0000
0000
1000
0000
0010
0001
0000
0100
,
1000
0000
0010
0100
0000
0100
0001
0000
,
0001
1000
0001
0000
1000
0001
0000
0001
,
1000
0000
0100
0010
0000
0010
0100
0000
,
0010
0100
0010
0000
0010
1000
0000
0100
,
0001
0000
0001
0010
0000
0010
0001
0000
,
0001
1000
0001
0000
0100
1000
0000
0010
,
0000
0010
1000
0000
0100
0001
0000
0001
,
1000
0001
0200
0000
0001
0000
0020
0000
,
1000
0302
0100
2030
,
0010
0000
0200
0000
0010
0010
0003
0001
,
3010
0000
0010
1000
0000
1000
1000
0000
,
0010
0001
0010
0000
0010
0000
0002
0000
,
0310
2000
0010
0203
,
3001
0020
1000
0301
,
1000
0230
0001
1000
,
0300
0101
0000
0200
,
0010
2000
0001
0302
,
0010
0000
0203
0000
3010
0001
0000
0001
,
0001
0000
1000
0010
0000
0010
1000
0000
,
0010
0001
1300
0000
0000
0000
0020
0000
,
0100
2000
0031
0200
,
3010
0002
1000
0310
,
1000
0020
0003
0000
,
0000
0030
0000
0000
,
0000
0000
0000
0000
,
0000
0000
0000
0000
1000
0000
0010
0000
0010
0000
0001
0000
1100
0000
0000
0100
,
0000
0000
0020
0000
0000
0000
0031
0000
0001
0000
1000
0000
0101
0000
0000
1000
,
0000
0100
1000
0000
0001
0000
0100
0000
0001
0000
0100
0000
0001
0000
0000
1000
,
0000
0000
0010
0000
0110
0000
0100
0000
0100
0000
1000
0000
0001
0000
0000
1000
,
0000
0001
0100
0000
0010
0000
0100
0000
0100
0000
1000
0000
0011
0000
0000
0100
,
0000
0000
2000
0000
0000
0000
3010
0000
0001
0000
0010
0000
0101
0000
0000
0001
,
0000
0100
1000
0000
0010
0000
1000
0000
0010
0000
0100
0000
0010
0000
0000
0100
,
0000
0000
0001
0000
0110
0000
0100
0000
1000
0000
1000
0000
0101
0000
0000
1000
,
0000
0010
1000
0000
0001
0010
0001
0010
0001
0010
0001
0100
0001
0100
0010
0100
,
1000
0100
1000
0010
1000
0010
0100
0001
0100
0010
0001
0010
0100
0010
0100
1000
,
0100
0010
0001
0100
0001
0100
0001
0100
1000
0100
1000
0100
1000
0010
1000
0010
,
0100
0001
1000
0010
1000
0010
0100
1000
0001
0010
0001
0010
0100
0001
0100
0010
,
0001
0010
0001
0010
0001
0010
0001
0100
0001
0010
0001
0010
0001
0100
1000
0010
,
1000
0010
1000
0100
1000
0100
1000
0010
1000
0001
1000
0100
1000
0100
1000
0001
,
1000
0010
1000
0100
1000
0100
1000
0100
0010
0001
0100
0010
0001
0100
0001
0100
,
0001
0010
0001
0000
0000
0000
0000
0000
0000
0000
0000
0000
0000
0000
0000
0000
,
0000
0000
0000
0000
1100
0000
0011
0000
1100
0000
0110
0000
0011
0000
0000
0110
,
0000
0000
2200
0000
3300
0000
0101
0000
1001
0000
0101
0000
1010
0000
0000
0011
,
0000
0110
1020
0000
0131
0000
0110
0000
1010
0000
0110
0000
0101
0000
0000
1001
,
0000
0000
1010
0000
0101
0000
1010
0000
0110
0000
0110
0000
1001
0000
0000
0011
,
0000
0101
1200
0000
1301
0000
0110
0000
0011
0000
1100
0000
1100
0000
0202
0000
,
0303
0000
0101
0000
0110
0000
1100
0000
0110
0000
0011
0000
0110
0000
0000
1100
,
0000
0101
2100
0000
3101
0000
0011
0000
0011
0000
1010
0000
0220
0000
0330
1001
,
0000
0000
0011
0000
1010
0000
1001
0000
0110
0000
1001
0000
1100
0000
0000
0101
,
0000
0011
1020
0000
1130
0000
0011
0000
1100
0000
0110
0000
0011
0000
0000
0110
,
0000
0000
2200
0000
3300
0000
0101
0000
1001
0000
0101
0000
1010
0000
0000
0011
,
0000
0110
1020
0000
0131
0000
0110
0000
1010
0000
0110
0000
0101
0000
0000
1001
,
0000
0000
1010
0000
0101
0000
1010
0000
0110
0000
0110
0000
1001
0000
0000
0011
,
0000
0101
1200
0000
1301
0000
0110
0000
0011
0000
1100
0000
1100
0000
0202
0000
,
0303
0000
0101
0000
0110
0000
1100
0000
0110
0000
0011
0000
0110
0000
0000
1100
,
0000
0101
2100
0000
3101
0000
0011
0000
0011
0000
1010
0000
0220
0000
0330
1001
,
0000
0000
0011
0000
1010
0000
1001
0000
0110
0000
1001
0000
1100
0000
0000
0101
,
0000
0011
1020
0000
0132
0000
0100
0000
1103
0000
0010
0000
0201
0000
0001
0000
,
1301
0100
1200
0010
0311
0100
0120
1000
,
0131
0010
2100
0001
3101
0010
0120
0100
,
1130
0001
0012
1000
0113
1000
1020
0100
,
1031
0100
0210
0001
1301
0001
2010
0010
,
3101
0001
0012
0010
1103
0100
0210
1000
,
1302
0100
1103
0010
0201
0001
1301
0100
,
1200
0010
0311
0100
0120
1000
0131
0010
,
2100
0001
3102
0100
1103
0010
0201
0001
,
1301
0100
1200
0010
0311
0100
0120
1000
,
0131
0010
2100
0001
3101
0010
0120
0100
,
1130
0001
0012
1000
0113
1000
1020
0100
,
1031
0100
0210
0001
1301
0001
2010
0010
,
3101
0001
0012
0010
1103
0100
0210
1000
,
1301
0100
0021
0100
1031
0100
0120
0001
,
1130
1000
0022
0000
0000
0000
0000
0000
,
0000
0000
0000
0000
0133
0000
1000
0000
0010
0000
0100
0010
0000
0010
0100
0000
,
0011
0000
1010
0000
0010
0000
0001
0000
1000
0000
0001
1000
0000
1000
0001
0000
,
0110
0000
0101
0000
0100
0000
1000
0000
0010
0000
0001
0010
0000
0010
0001
0000
,
1100
0000
0101
0000
0010
0000
1000
0000
0010
0000
0100
0001
0000
0001
1000
0000
,
1001
0000
1001
0000
0100
0000
1000
0000
0010
0000
0100
0010
0000
0010
0100
0000
,
0011
0000
1010
0000
0010
0000
0001
0000
1000
0000
0001
1000
0000
1000
0001
0000
,
0110
0000
0101
0000
0100
0000
1000
0000
0010
0000
0001
0010
0000
0010
0001
0000
,
1100
0000
0101
0000
0010
0000
1000
0000
0010
0000
0100
0001
0000
0001
1000
0000
,
1001
0000
1001
0000
0011
0100
1000
0100
0010
1000
0010
0100
0010
0001
0100
0001
,
0010
0001
0100
0010
0001
1000
0100
0010
0100
0010
0001
0100
1000
0010
1000
0100
,
1000
0100
1000
0010
1000
0100
0010
0001
0100
0001
0010
0100
0010
0100
0010
1000
,
0010
1000
0100
1000
0100
1000
0010
1000
0010
0100
0001
0010
0001
0100
0010
0100
,
0001
0100
0010
1000
0010
0000
0010
0000
1000
0000
1000
0001
0010
0000
0001
0000
,
1000
0000
0100
0010
0001
0000
1000
0000
0010
0000
0100
0010
1000
0000
0001
0000
,
0100
0000
0010
0100
1000
0000
0001
0100
1000
0000
0010
0100
1000
0000
0001
0100
,
1000
0000
0010
0100
2000
0000
3002
0000
2003
0000
3002
0000
2003
0000
3002
0000
,
2003
3000
0000
0000
0000
0000
0000
0000
0000
0000
0000
0000
0000
0000
0000
0000
;

//---------------dance-single - Kombo Steps----------------
#NOTES:
     dance-single:
     Kombo Steps:
     Challenge:
     15:
     1.000,1.000,1.000,1.000,0.711,759.000,170.000,313.000,0.000,114.000:
0000
0000
0000
0000
,
0000
0000
0000
0000
,
0000
0000
0000
0000
,
0000
0000
0000
0000
,
0000
0000
0000
0000
,
0000
0000
0000
0000
,
0000
0000
0000
0000
,
0000
0000
0000
0000
,
0000
0000
1000
0000
0010
0001
0000
0100
,
1000
0000
0010
0100
0000
0100
0001
0000
,
0001
1000
0001
0000
1000
0001
0000
0001
,
1000
0000
0100
0010
0000
0010
0100
0000
,
0010
0100
0010
0000
0010
1000
0000
0100
,
0001
0000
0001
0010
0000
0010
0001
0000
,
0001
1000
0001
0000
0100
1000
0000
0010
,
0000
0010
1000
0000
0100
0001
0000
0001
,
1000
0010
1110
0000
0001
1000
0020
0100
,
2000
0000
3002
1000
0000
0100
2030
0000
,
0100
0010
3200
0000
0010
1000
0003
0001
,
0010
0000
0010
1000
0000
1000
0001
0000
,
0010
0001
0010
0000
0010
1000
0002
1000
,
0320
0000
2030
0100
0000
0010
3203
0000
,
0001
1000
0320
0000
1000
0001
0000
0001
,
0000
1000
0230
0000
0001
0010
0000
0001
,
1300
0001
0111
0000
0000
0000
0020
0100
,
2000
0000
3002
1000
0000
0100
2030
0000
,
0100
0010
3200
0000
0010
1000
0003
0001
,
0010
0000
0010
1000
0000
1000
0001
0000
,
0010
0001
0010
0000
0010
1000
0002
1000
,
0320
0000
2030
0100
0000
0010
3203
0000
,
0001
1000
0320
0000
1000
0001
0000
0001
,
0000
1000
0230
0000
0001
0010
0000
0001
,
1300
0000
0000
0000
0000
0000
0000
0000
0000
0000
0000
0000
0000
0000
0000
0000
0000
0000
0000
0000
0000
0000
0000
0000
0001
2000
0000
0000
0000
0000
0000
0000
0000
0000
0000
0000
0000
0000
0000
0000
0000
0000
0000
0000
0000
0000
0000
0000
3000
0000
0000
0000
0000
0000
0000
0000
0000
0000
0000
0000
0000
0000
0000
0000
0000
0000
0000
0000
0000
0000
0000
0000
0000
0000
0000
0000
0000
0000
0000
0000
0000
0000
0000
0000
0000
0000
0000
0000
0000
0000
0000
0000
0000
0000
0000
0000
0000
0000
0000
0000
0000
0000
0000
0000
0000
0000
0000
0000
0000
0000
0000
0000
0000
0000
0000
0000
0000
0000
0000
0000
0000
0000
0000
0000
0000
0000
0000
0000
0000
0000
0000
0000
0000
0000
0000
0000
0000
0000
0000
0000
0000
0000
0000
0000
0000
0000
0000
0000
0000
0000
0000
0000
0000
0000
0000
0000
0000
0000
0000
0000
0000
0000
0000
0000
0000
0000
0000
0000
0000
0000
0000
0000
0000
0000
0000
0000
0000
0000
0000
0000
0000
0000
0000
0000
0000
0000
0000
0000
0000
0000
0000
0000
,
0000
0000
0000
0000
,
0000
0000
0000
0000
2000
3000
0002
0003
0200
0300
0020
0030
2000
0000
3000
0200
,
0300
0000
0020
0000
0000
0000
0230
0300
0020
0030
0002
0003
0020
0030
0000
0020
,
0030
0000
0200
0300
2000
0000
3000
0000
0002
0000
0003
0000
0200
0000
0300
0000
0002
0000
0003
0000
0200
0000
0300
0000
0002
0000
0000
0000
0003
0000
2000
0000
,
3000
0000
0002
0003
0020
0030
0002
0003
2000
3000
0002
0003
0200
0300
0000
0020
,
0030
0200
0302
0003
2000
3000
0020
0030
0200
0300
0002
0003
0200
0000
0300
2000
,
3000
0000
0020
0000
0000
0030
0020
0030
0002
0003
0020
0030
0200
0300
0000
0002
,
0003
0200
2300
3000
0020
0030
2000
3000
0020
0030
2000
3000
0002
0000
0003
2000
,
3000
0000
0020
0030
0002
0003
0200
0300
2000
3000
0200
0300
0002
0003
0000
2000
,
3000
0020
0230
0300
1001
0001
0101
0001
0011
0001
0101
0001
1001
0001
0001
1001
,
0001
0001
0011
0001
0001
0001
0101
0001
0011
0001
1001
0001
0101
0001
0001
1001
,
0001
1001
0011
0001
0101
0001
0011
0001
1001
0001
0101
0001
0011
0001
1001
0001
,
0001
0001
0101
0001
0011
0001
0101
0001
1001
0001
0101
0001
1001
0001
0011
0001
,
0011
0101
0001
1001
0101
0001
1001
0001
0011
0001
0101
0001
0011
0001
0001
1001
,
0001
0001
0011
0001
0101
0001
1001
0001
0101
0001
1001
0001
0011
0001
0001
0011
,
0001
1001
0011
0001
1001
0001
0011
0001
1001
0001
0011
0001
1001
0001
0101
0001
,
0001
0001
0011
0001
1101
0000
0000
0000
0000
0000
0000
0000
0000
0000
0000
0000
,
0001
1000
0001
1000
0001
1000
0001
1000
0020
0000
0030
0000
0002
0000
0003
0000
1210
0000
0300
0000
0020
0000
0030
0000
2000
0000
0000
0000
3000
0000
0200
0000
,
1310
0000
0020
0000
0000
0000
0230
0300
1120
0030
0002
0003
0020
0030
0000
0020
,
1031
0000
0200
0300
2000
0000
3000
0000
0002
0000
0003
0000
0020
0000
0030
0000
1012
0000
0003
0000
0020
0000
0030
0000
0002
0000
0000
0000
0003
0000
0200
0000
,
0311
0000
0020
0030
2000
3000
0020
0030
1210
0300
0020
0030
0002
0003
0000
2000
,
3110
0002
0023
0030
0200
0300
2000
3000
0112
0003
0020
0030
0002
0000
0003
0200
,
1301
0000
2000
0000
0200
3300
2000
3000
1021
0030
2000
3000
0002
0003
0000
0020
,
1130
0002
0203
0300
2000
3000
0200
0300
2110
3000
0200
0300
0002
0000
0003
2000
,
3011
0000
0020
0030
0002
0003
0200
0300
2011
3000
0200
0300
0002
0003
0000
2000
,
3110
0000
0002
0003
0200
0000
0300
0000
2000
0000
3000
0000
0002
0000
0003
0000
2110
0000
3000
0000
0002
0000
0003
0000
0020
0000
0000
0000
0030
0000
2000
0000
,
3101
0000
0002
0000
0000
0000
2003
3000
1012
0003
0200
0300
0002
0003
0000
0002
,
0113
0000
2000
3000
0020
0000
0030
0000
0200
0000
0300
0000
2000
0000
3000
0000
1201
0000
0300
0000
2000
0000
3000
0000
0200
0000
0000
0000
0300
0000
0020
0000
,
1130
0000
0002
0003
0020
0030
0002
0003
0112
0003
2000
3000
0020
0030
0000
0200
,
1301
0020
2030
3000
0002
0003
0200
0300
1021
0030
2000
3000
0020
0000
0030
0002
,
1013
0000
0200
0000
0002
0303
0200
0300
2011
3000
0200
0300
0020
0030
0000
2000
,
3101
0020
0032
0003
0200
0300
0002
0003
1210
0300
0002
0003
2000
0000
3000
0002
,
1103
0000
0200
0300
2000
3000
0020
0030
0002
0003
0200
0300
0002
0003
0000
2000
,
3000
0000
0002
0003
2000
0000
3000
0000
0020
0000
0030
0000
0002
0000
0003
0000
1210
0000
0300
0000
0020
0000
0030
0000
2002
0000
0000
0000
3000
0000
0200
0000
,
1310
0000
0000
0000
0020
0000
0000
0000
2003
0000
0000
0000
0230
0000
0300
0000
0120
0000
0030
0000
0002
0000
0003
0000
3020
0000
0000
0000
0000
0000
0200
0300
,
1001
0000
0200
0300
2000
0000
3000
0000
0032
0000
0000
0000
0020
0000
0030
0000
1110
0000
0000
0000
0020
0000
0030
0000
2000
0000
0000
0000
3000
0000
0200
0000
,
1310
0000
0020
0030
2000
3000
0020
0030
1210
0300
0020
0030
0200
0300
0000
2000
,
3110
2000
3020
0030
0203
0300
2000
3000
0112
0003
0020
0030
0002
0000
0000
0200
,
1310
0000
2000
0000
0213
3000
2000
3000
1021
0030
2000
3000
0302
0000
0000
0020
,
1130
0020
0230
0300
2023
0030
0200
0300
0112
0003
0200
0300
0002
0000
0003
0200
,
0311
0000
0020
0030
3002
0000
0200
0300
2110
3000
0200
0300
2000
3000
0000
2000
,
3113
0000
0002
0003
0200
0000
0300
0000
2112
0000
3003
0000
0020
0000
0030
0000
2110
0000
3000
0000
0002
0000
0003
0000
2002
0000
0000
0000
0003
0000
0020
0000
,
0131
0000
0000
0000
0200
0000
0000
0000
3002
0000
0000
0000
0320
0000
0030
0000
0210
0000
0300
0000
2000
0000
3000
0000
0203
0000
0000
0000
0000
0000
0020
0030
,
1001
0000
0000
0000
0000
0000
0000
0000
0000
0000
0000
0000
0020
0000
0000
0000
0000
0000
0030
0000
0000
0000
0000
0000
0002
0000
0000
0000
0000
0000
0000
0000
0000
0000
0000
0000
0003
0000
0000
0000
0000
0000
0000
0000
0000
0000
0000
0000
2300
0000
0000
0000
0000
0000
0000
0000
0000
0000
0000
0000
0000
0000
0000
0000
0000
0000
0000
0000
0000
0000
0000
0000
0200
0000
0000
0000
0000
0000
0000
0000
0000
0000
0000
0000
0300
0000
0000
0000
0000
0000
0000
0000
0000
0000
0000
0000
0111
0000
0000
0000
0000
0000
0000
0000
0000
0000
0000
0000
0000
0000
0000
0000
0000
0000
0000
0000
0000
0000
0000
0000
0200
0000
0000
0000
0000
0000
0000
0000
0000
0000
0000
0000
0300
0000
0000
0000
0000
0000
0000
0000
0000
0000
0000
0000
0002
0000
0000
0000
0000
0000
0000
0000
0000
0000
0000
0000
0000
0000
0000
0000
0000
0000
0000
0000
0000
0000
0000
0000
0013
0000
0000
0000
0000
0000
0000
0000
0100
0000
0000
0000
0000
0000
0000
0000
0001
0000
0000
0000
0000
0000
0000
0000
,
0010
0000
0100
0000
0001
0000
0010
0000
0000
0000
0000
0000
0002
0000
0000
0003
0000
0000
0200
0000
0000
0300
0000
0000
0121
0000
0000
0030
0000
0000
0200
0000
0000
0300
0000
0000
0020
0000
0000
0030
0000
0000
0000
0000
0000
0002
0000
0000
,
0113
0002
0203
0300
3020
0030
0002
0003
2110
3000
0200
0300
2000
0000
0000
0020
,
0131
0000
0002
0000
3120
0003
0002
0003
1201
0300
0002
0003
2030
0000
0000
0200
,
0311
0200
0320
0030
3202
0300
0020
0030
2110
3000
0020
0030
2000
0000
3000
0020
,
1130
0000
0200
0300
2003
0000
0000
0000
0000
0000
0000
0000
0000
0000
0000
0000
,
0000
0000
0000
0000
3111
0000
0001
0000
1000
0000
0001
1000
0000
1000
0001
0000
,
0110
0000
0101
0000
1101
0000
0010
0000
0100
0000
0010
0100
0000
0100
0010
0000
,
1001
0000
0011
0000
1110
0000
0001
0000
0001
0000
1000
0001
0000
0001
1000
0000
,
0110
0000
1010
0000
1011
0000
0100
0000
0010
0000
0100
0010
0000
0010
0100
0000
,
1001
0000
0101
0000
1011
0000
1000
0000
0010
0000
0100
0010
0000
0010
0100
0000
,
0011
0000
1010
0000
1110
0000
0001
0000
1000
0000
0001
1000
0000
1000
0001
0000
,
0110
0000
0101
0000
0111
0000
1000
0000
0010
0000
0001
0010
0000
0010
0001
0000
,
1100
0000
0101
0000
0111
0000
1000
0000
0010
0000
0100
0001
0000
0001
1000
0100
,
0000
0011
1100
0000
1001
0010
0100
0010
0101
0010
0001
0010
1100
0010
0100
1000
,
0011
1000
0100
0010
0101
0010
0100
0001
1100
0001
0100
0010
1100
0010
0001
0010
,
1100
0001
0010
0001
0110
1000
0100
0010
1100
0010
0001
0010
0101
1000
0100
1000
,
0011
0100
0010
0100
1010
0001
1000
0001
1100
0010
0001
0010
1100
0010
0100
0010
,
0101
1000
0100
0010
1001
0000
1000
0000
0110
0000
0010
0001
1000
0000
1000
0000
,
0110
0000
0010
0001
1000
0000
1000
0000
0110
0000
0010
0001
1000
0000
1000
0000
,
0110
0000
0001
1000
1000
0000
0001
1000
1000
0000
0001
1000
1000
0000
0001
1000
,
1000
0000
0000
0000
0000
0000
0001
0000
0000
0010
0000
0000
1100
0000
0000
0000
0000
0000
0110
0000
0000
0000
0000
0000
0101
0000
0000
0000
0000
0000
0110
0000
0000
0000
0000
0000
0100
0000
0010
0000
0001
0000
1000
0000
0100
0000
0010
0000
,
0001
0000
0000
0000
;
