#TITLE:Anubis (Black Land Mix);
#SUBTITLE:;
#ARTIST:DM Ashura;
#TITLETRANSLIT:;
#SUBTITLETRANSLIT:;
#ARTISTTRANSLIT:;
#CREDIT:;
#BANNER:banner.PNG;
#BACKGROUND:bg.PNG;
#LYRICSPATH:;
#CDTITLE:CMGtitle.PNG;
#MUSIC:Anubis (Black Land Mix).mp3;
#OFFSET:-0.060;
#SAMPLESTART:69.840;
#SAMPLELENGTH:8.700;
#SELECTABLE:YES;
#BPMS:0.000=110.000;
#STOPS:176.000=0.008
;
#BGCHANGES:;
// cache tags:
#FIRSTBEAT:16.000;
#LASTBEAT:209.000;
#SONGFILENAME:Songs/toune 2/Anubis (Black Land Mix)/Anubis (Black Land Mix).sm;
#HASMUSIC:1;
#HASBANNER:1;
#MUSICLENGTH:120.084;
// end cache tags

//---------------dance-single - ----------------
#NOTES:
     dance-single:
     :
     Hard:
     9:
     0.560,0.587,0.200,0.150,0.541,429.000,24.000,18.000,0.000,0.000:
0000
0000
0000
0000
,
0000
0000
0000
0000
,
0000
0000
0000
0000
,
0000
0000
0000
0000
,
1100
0000
0000
0010
0001
0000
0000
0010
0100
0000
1000
0000
0100
0000
0010
0000
,
0011
0000
0000
0010
0100
0000
0000
0100
1000
0000
0100
0000
0010
0100
0010
0000
,
0001
0000
0000
1000
0100
0000
0000
0010
0001
0000
0100
0000
0010
0000
1000
0000
,
1001
0000
0000
0010
1000
0000
0000
0010
0100
0000
1000
0000
0001
1000
0001
0000
,
0010
0000
0000
1000
0100
0000
0000
0010
0001
0000
0100
0000
0010
0000
1000
0000
,
1001
0000
0000
0010
1000
0000
0000
0001
0100
0000
0010
0000
0001
1000
0001
0000
,
0010
0000
0000
1000
0100
0000
0000
0010
0001
0000
0100
0000
0010
0000
1000
0000
,
1001
0000
0010
0100
0010
0000
1000
0100
1000
0000
0010
0100
0001
0000
1000
0000
,
0001
1000
0001
0000
1001
0000
0000
0000
0010
0100
0010
0000
0110
0000
0000
1000
,
0000
1000
0100
0000
0010
0000
1000
0000
0001
0000
0100
0000
0010
1000
0010
0000
,
0001
0100
0001
0000
0101
0000
0000
0001
0010
0001
0010
0000
0011
0000
0000
0010
,
0000
1000
0100
0000
0010
0000
1000
0000
0001
0000
0100
0000
0010
1000
0010
0000
,
0001
0100
0001
0000
0101
0000
0000
0010
0100
0010
0100
0000
0110
0000
0000
0010
,
0000
0001
1000
0000
0100
0000
1000
0000
0010
0000
0100
0000
0001
1000
0001
0000
,
0001
0100
0001
0000
0101
0000
0000
0010
1000
0010
1000
0010
0000
0000
0000
1000
,
0000
1000
0100
0000
0010
0000
1000
0000
0001
0000
0100
0000
0010
1000
0010
0000
,
0002
0000
0000
0000
0000
0000
0000
0013
,
0200
0000
0300
1000
0100
0010
1000
0001
,
0200
0000
0000
0000
0000
0000
0000
0310
,
2000
0000
0000
3001
0100
0001
1000
0010
,
0001
0010
0001
0000
0010
0000
0010
0100
0010
0000
0010
1000
0000
0001
0100
0000
,
0010
1000
0010
0000
0010
0000
0001
1000
0001
0000
0010
0100
0000
1000
0100
0000
,
0010
0100
0010
0000
1000
0000
0001
1000
0001
0000
0010
1000
0000
0001
0100
0000
,
1000
0100
1000
0000
0010
0001
0010
0000
0010
1000
0001
0100
0010
1000
0010
0100
,
0001
0100
0001
0000
0101
0000
0000
0010
0100
0010
0100
0000
0110
0000
0000
0010
,
0000
0010
1000
0000
0001
0000
0100
0000
1000
0000
0100
0000
0010
1000
0010
0000
,
0010
0100
0010
0000
0100
0000
0000
0010
0100
0010
0100
0000
0001
0000
0000
1000
,
0000
1000
0100
0000
0010
0000
1000
0000
0001
0000
0100
0000
0010
0100
0010
0000
,
0001
1000
0001
0000
1001
0000
0000
0010
0100
0010
0100
0000
0110
0000
0000
1100
,
0000
0010
0001
0000
0010
0000
0100
0000
0001
0000
1000
0000
0100
1000
0100
0000
,
0010
1000
0010
0000
1001
0000
0000
0010
0100
0010
1000
0000
0001
0000
0000
0010
,
0000
0010
0100
0000
0001
0000
1000
0000
0100
0000
1000
0000
0010
0100
0010
0000
,
0002
0000
0003
0010
0200
0000
0000
1300
0100
0000
0010
0000
1000
0000
0001
0000
,
0100
0000
0000
0020
2000
0030
3000
0001
0200
0000
0310
0000
0001
1000
0001
0000
,
2000
0000
3000
0100
2000
0000
0000
3010
0200
0000
0010
0000
0010
0000
0010
0300
,
0110
0000
0000
0010
0200
0000
0000
0310
2000
0000
0001
3000
0010
0100
0001
0000
,
0011
0000
0000
0010
0200
0000
0000
1300
0100
0000
0010
0000
1000
0000
0001
0000
,
0101
0000
0000
0010
0200
0000
0000
1300
0100
0000
0010
0000
0010
1000
0010
0000
,
0001
1000
0001
0000
0010
0100
0010
0000
0010
1000
0010
0000
0001
0100
0001
0000
,
0010
0001
0010
0000
0010
0100
0010
0000
0010
1000
0001
0100
0010
1000
0010
1000
,
0100
0000
0000
0100
1000
0000
0000
0010
0001
0000
0010
0000
0100
0000
1000
0000
,
0011
0000
0000
0010
0100
0000
0000
0100
1000
0000
0100
0000
0010
1000
0010
0000
,
0001
0000
0000
0100
1000
0000
0000
1000
0100
0000
0010
0000
1000
0000
0010
0000
,
0101
0000
0000
0010
0001
0000
0000
0010
0100
0000
1000
0000
0001
0000
0100
0000
,
1000
0000
0000
0100
1000
0000
0000
0010
0001
0000
0010
0000
1000
0000
0001
0000
,
0100
0000
0000
0010
1000
0000
0000
0001
0100
0000
0010
0000
0001
1000
0001
0000
,
0100
0000
0000
1000
0100
0000
0000
0010
0001
0000
0100
0000
0010
0000
1000
0000
,
0001
0000
0000
0010
0100
0000
0000
1000
0100
1000
0100
0000
0010
0000
1000
0000
,
2002
3003
0000
0000
;

//---------------dance-single - ----------------
#NOTES:
     dance-single:
     :
     Medium:
     7:
     0.419,0.413,0.017,0.017,0.229,348.000,2.000,2.000,0.000,0.000:
0000
0000
0000
0000
,
0000
0000
0000
0000
,
0000
0000
0000
0000
,
0000
0000
0000
0000
,
1000
0000
0100
0000
0010
1000
0001
0100
,
0010
0000
0000
0000
0001
0000
0000
0000
0100
0000
1000
0000
0010
1000
0010
0000
,
1000
0000
0001
0000
0100
0010
1000
0001
,
0100
0000
0000
0000
0010
0000
0000
0000
1000
0000
0001
0000
0010
0100
1000
0000
,
0001
0000
0100
0000
0010
1000
0001
0100
,
1000
0000
0000
0000
0010
0000
0000
0000
0100
0000
1000
0000
0010
0001
0010
0000
,
0100
0000
0001
0000
0001
0010
0100
0001
,
1000
0000
0000
0000
0010
0000
0000
0000
0001
0000
1000
0000
0010
1000
0010
0000
,
1000
0100
1000
0000
1000
0000
0000
0000
0010
0100
0010
0000
0100
0000
0000
0010
,
0000
0010
0100
0000
0010
0000
1000
0000
0010
0000
0100
0000
0001
0000
1000
0000
,
0001
0100
0001
0000
0100
0000
0000
0000
0001
0100
0001
0000
0100
0000
0000
0010
,
0000
0010
0100
0000
0010
0000
1000
0000
0001
0000
0100
0000
0010
0000
1000
0000
,
0001
1000
0001
0000
1000
0000
0000
0000
1000
0001
1000
0000
0001
0000
0000
0000
,
0010
0100
1000
0100
0010
0001
1000
0100
,
0010
0100
0010
0000
1000
0000
0000
0000
0001
0100
0001
0000
0100
0000
0000
0000
,
0010
1000
0010
0100
0001
1000
0010
0100
,
0001
0000
0011
0000
0001
0100
1000
0000
,
0010
1000
0010
0000
1000
0000
0000
0000
0001
0000
0100
0000
0010
0000
1000
0000
,
0001
1000
0001
0000
0100
0000
0000
0000
1000
0000
0100
0000
0010
0000
0000
0000
,
0010
0001
0010
0000
0100
0000
0000
0000
0010
0000
1000
0000
0001
0000
0000
0000
,
0010
0100
1000
0000
0100
0000
0000
0000
0010
0000
0001
0000
0010
0000
0000
0000
,
0001
0010
0001
0000
0010
0000
0000
0000
0100
0000
1000
0000
0100
0000
0000
0000
,
0010
1000
0001
0000
0010
0000
0000
0000
0100
0000
1000
0000
0100
0000
0000
0000
,
0010
1000
0010
0000
0001
0000
0000
0000
0100
0000
1000
0000
0010
0000
0100
0000
,
0001
0000
0000
0000
1000
0000
0000
0000
0010
0000
0100
0000
0010
0000
0000
1000
,
0000
1000
0100
0000
0010
0000
1000
0000
0010
0000
0100
0000
0001
0000
1000
0000
,
0001
0100
0001
0000
0100
0000
0000
0000
0010
1000
0010
0000
0100
0000
0000
1000
,
0000
1000
0100
0000
0010
0000
1000
0000
0001
0000
0100
0000
0010
0000
1000
0000
,
0001
1000
0001
0000
0100
0000
0000
0000
0010
0100
0010
0000
0100
0000
0000
1000
,
0000
0100
0010
0000
0001
0000
0010
0000
0100
0000
1000
0000
0010
0100
0010
0000
,
1000
0001
1000
0000
0010
0000
0000
0000
0010
1000
0010
0000
0001
0000
0000
0100
,
0000
0100
1000
0000
0010
0000
0100
0000
0010
0000
1000
0000
0001
1000
0001
0000
,
0100
0000
0000
0000
1000
0000
0000
0100
1000
0000
0010
0000
0100
0000
0010
0000
,
1000
0000
0000
0001
0100
0000
0000
0001
0100
0000
0001
0000
0100
0000
0010
0000
,
1000
0000
0000
1000
0100
0000
0000
1000
0100
0000
1000
0000
0100
0000
0010
0000
,
1000
0000
0000
0001
1000
0000
0000
0001
1000
0000
0010
0000
0010
0000
0100
0000
,
1000
0000
0000
1000
0100
0000
0000
0010
0001
0000
0010
0000
0100
0000
1000
0000
,
0001
0000
0000
0001
0100
0000
0000
0010
0100
0000
1000
0000
0100
0000
0010
0000
,
0001
0000
0000
1000
0010
0000
0000
0100
0001
0000
0010
0000
0100
0000
1000
0000
,
0001
0000
0000
0001
1000
0000
0000
1000
0100
0000
0010
0000
1000
0000
0010
0000
,
1000
0000
0100
0000
0010
0001
0010
0100
,
1000
0000
0001
0000
0100
0010
1000
0001
,
0100
0000
1000
0000
0100
0010
0001
0010
,
0100
0000
1000
0000
0001
0100
0010
1000
,
0001
0100
1000
0010
,
0100
0001
1000
0100
,
0010
0001
0100
0010
,
1000
0000
0000
0000
0001
0000
0000
0000
1000
0001
1000
0000
0010
0000
0100
0000
,
2002
3003
0000
0000
;

//---------------dance-single - ----------------
#NOTES:
     dance-single:
     :
     Easy:
     4:
     0.332,0.348,0.100,0.142,0.000,250.000,12.000,17.000,0.000,0.000:
0000
0000
0000
0000
,
0000
0000
0000
0000
,
0000
0000
0000
0000
,
0000
0000
0000
0000
,
1000
0000
0100
0000
0010
1000
0010
1000
,
0001
0000
0100
0000
0010
0100
0010
0100
,
0010
0000
1000
0000
0001
0100
0010
1000
,
0001
0000
0100
0000
0010
1000
0001
0100
,
0010
0000
0100
0000
1000
0010
0001
0100
,
1000
0000
0001
0000
0010
0100
0010
0100
,
1000
0000
0001
0000
0010
0001
0010
0000
,
0100
0000
1100
0000
0010
1000
0020
0000
,
0130
1000
0100
0000
0010
0001
0010
0000
,
1000
0000
0100
0000
0010
0000
0001
0100
,
0010
1000
0010
0000
0100
1000
0100
0000
,
0010
1000
0001
0200
,
0310
1000
0001
0000
0100
1000
0001
0000
,
0010
0000
0100
0000
1000
0000
0001
0010
,
0200
0000
1300
0000
0010
1000
0001
0000
,
0100
0000
1100
0000
0010
1000
0002
0000
,
2003
0100
0010
0100
,
3020
0000
0000
0031
0100
0001
0100
0010
,
2000
0000
0000
0000
3200
0000
0000
0310
,
0200
0000
0000
0310
0001
0100
1000
0010
,
0200
0000
0000
0000
0320
0000
0000
0031
,
2000
0000
0000
3100
0010
1000
0001
0100
,
0020
0000
0000
0000
0230
0000
0000
1300
,
0002
0000
0003
0100
1000
0100
0010
0001
,
1000
0100
1000
0000
0010
0100
0010
0000
,
0001
0000
1000
0000
0100
0000
0010
0001
,
0010
0100
0001
0000
1000
0100
0010
0000
,
1000
0000
0001
0000
0100
0000
0010
0100
,
1000
0000
0001
0000
0001
1000
0010
0000
,
0100
0000
1000
0000
0001
0000
0100
1000
,
0010
1000
0001
0100
,
1000
0000
0100
0000
0010
0000
0001
1000
,
0001
0000
0101
0000
0001
0100
0010
1000
,
0100
0000
1100
0000
0010
1000
0010
0100
,
0001
0000
1001
0000
0010
0100
1000
0100
,
0010
0000
0011
0000
0001
0100
0010
1000
,
0001
0000
1010
0000
1000
0100
0010
0001
,
1000
0000
1001
0000
0010
0100
1000
0100
,
0010
0000
0011
0000
0001
0100
0010
1000
,
1001
0000
0110
0000
1000
0100
0010
0001
,
1000
0000
0100
0000
0010
0001
0010
0100
,
1000
0000
0001
0000
0100
1000
0010
0100
,
0001
0000
0010
0000
1000
0001
0100
0010
,
1000
0000
0010
0000
0001
0100
0010
1000
,
0001
1000
0100
0010
,
0001
1000
0100
0010
,
0001
0000
1000
0000
,
0100
0000
0000
0000
,
2002
3003
0000
0000
;

//---------------dance-single - ----------------
#NOTES:
     dance-single:
     :
     Beginner:
     1:
     0.148,0.217,0.142,0.000,0.000,107.000,17.000,0.000,0.000,0.000:
0000
0000
0000
0000
,
0000
0000
0000
0000
,
0000
0000
0000
0000
,
0000
0000
0000
0000
,
1000
0000
0000
0000
,
0001
0000
0000
0000
,
0100
0000
0000
0000
,
0010
0000
0000
0000
,
0001
0000
0000
0000
,
1000
0000
0000
0000
,
0100
0000
0000
0000
,
0010
0000
0000
0000
,
1000
1000
0001
0001
,
0000
0000
0000
0000
,
0100
0100
0010
0010
,
0000
0000
0000
0000
,
0001
1000
0010
0100
,
1001
0000
0000
0000
,
0010
0100
1000
0001
,
0110
0000
0000
0000
,
1000
0000
0001
0000
,
1001
0000
0100
0000
,
0110
0000
0010
0000
,
1001
0000
0001
0000
,
1001
0000
1000
0000
,
0110
0000
0010
0000
,
1001
0000
0100
0000
,
0110
0000
0001
1000
,
1001
0000
0100
0000
,
0010
0010
0010
0010
,
0010
0000
0100
0000
,
0001
0001
0001
0001
,
1000
0000
1000
0000
,
0001
1000
0100
0010
,
1001
0000
1001
0000
,
1000
1000
1000
1000
,
0001
0000
0001
0001
,
0001
0000
1000
1000
,
1000
0000
0100
0100
,
0100
0000
0010
0010
,
0110
0000
0001
0001
,
1001
0000
1000
1000
,
1001
0000
0100
0100
,
0110
0000
0001
1000
,
0001
0000
1000
1000
,
1000
0000
0001
0001
,
0001
0000
0100
0100
,
0100
0000
0010
0010
,
0010
0000
0000
1000
,
0000
0000
0000
0001
,
0000
0000
0000
0000
,
0000
0000
0000
0000
,
1001
0000
0000
0000
;
