#TITLE:VANITY ANGEL;
#SUBTITLE:-Seraphim Mix-;
#ARTIST:DM Ashura vs. Fixx;
#TITLETRANSLIT:;
#SUBTITLETRANSLIT:;
#ARTISTTRANSLIT:;
#CREDIT:Kewing Darksun;
#BANNER:VANITY ANGEL -Seraphim Mix-.png;
#BACKGROUND:VANITY ANGEL -Seraphim Mix--bg.png;
#LYRICSPATH:;
#CDTITLE:!Kewing DarkSun (cdtitle).png;
#MUSIC:Vanity Angel (Seraphim Mix).mp3;
#OFFSET:-13.020;
#SAMPLESTART:32.381;
#SAMPLELENGTH:12.000;
#SELECTABLE:YES;
#BPMS:0.000=148.000,64.000=74.000,88.000=148.000;
#STOPS:;
#BGCHANGES:;
// cache tags:
#FIRSTBEAT:0.000;
#LASTBEAT:222.000;
#SONGFILENAME:Songs/toune/VANITY ANGEL -Seraphim Mix-/VANITY ANGEL -Seraphim Mix-.sm;
#HASMUSIC:1;
#HASBANNER:1;
#MUSICLENGTH:116.824;
// end cache tags

//---------------dance-single - Copied from----------------
#NOTES:
     dance-single:
     Copied from:
     Medium:
     6:
     0.386,0.400,0.171,0.094,0.056,285.000,20.000,11.000,0.000,0.000:
1000
0010
0100
0010
,
1000
0000
0001
0000
0100
0000
0001
1000
,
0001
0100
0010
0100
,
0001
0000
1000
0000
0100
0000
1000
0001
,
1000
0000
0100
0000
0010
0000
0001
0001
,
0100
0000
0010
0000
1000
0000
1000
1000
,
0100
0000
0010
0000
0001
0000
0001
0001
,
0100
1000
0010
0100
,
1001
0010
0010
0000
,
1001
0100
0100
0000
,
1001
0100
0010
0000
,
1001
0010
0100
0000
,
1001
0000
0010
1000
0010
0000
0101
0000
,
1001
0000
0010
0001
0010
0000
1100
0000
,
1001
0000
0100
0010
0100
0000
0110
0000
,
1001
0000
0010
1000
0001
0100
0010
0000
,
1001
0000
0000
0001
2000
0000
0000
0000
3000
0000
0001
0000
0010
0000
0100
0000
,
2000
0000
0000
3000
0001
1000
0010
0100
,
0001
0000
0000
1000
0002
0000
0000
0000
0003
0000
1000
0000
0001
0000
0100
0000
,
0020
0000
0000
1030
0002
0000
0000
0000
1003
0000
0100
0000
0010
0000
0001
0000
,
0200
0000
0000
0300
1000
0000
0100
0000
,
0002
0000
0000
2003
0000
0000
3000
0001
2000
0000
0000
0000
3001
0000
1000
0000
,
1001
0000
0001
0100
0000
0100
0001
0000
,
1000
0000
1000
0010
0000
0010
1000
0000
,
0100
0000
0010
0001
0000
0001
0010
0000
,
0001
0000
0100
0010
0000
0010
0100
0001
,
1001
0000
0001
0010
0000
0100
1000
0000
,
1001
0000
0000
1010
0000
0000
0101
0000
,
1001
0000
1000
0001
0000
0001
0100
0001
,
0000
0001
0010
0001
0000
0001
1000
0001
,
0000
1000
0000
0100
1000
0000
0001
0100
,
0000
0001
0000
0010
0001
0000
1000
0010
,
0000
1000
0000
0100
0010
0000
0010
0001
,
0000
0100
0000
0010
1000
0000
1000
0100
,
0000
1000
0000
0001
0010
0000
0100
1000
,
0001
1000
0000
0001
0100
0000
0010
1000
,
0001
1000
0000
0001
0010
0000
0010
0001
,
0100
0001
0000
1000
0010
0000
0010
1000
,
0100
0000
1000
0000
0000
1000
0000
0000
1000
0000
0000
0000
0001
0000
0010
0000
,
0100
0000
0010
0000
0000
0001
0000
0000
0001
0000
0000
0000
1000
0000
0100
0000
,
0010
0000
0100
0000
0000
1000
0000
0000
1000
0000
0000
0000
0001
0000
0100
0000
,
1000
0000
0100
0000
0000
0001
0000
0000
0001
0000
0000
0000
1000
0000
0100
0000
,
0001
0000
0100
0000
0000
1000
0000
0000
1000
0000
0000
0000
0100
0000
0100
0000
,
0100
0000
0010
0000
0000
0001
0000
0000
1000
0000
0000
0000
0010
0000
0010
0000
,
0010
0000
0100
0000
0000
0001
0000
0000
1000
0000
0000
0000
0001
0000
0001
0000
,
0001
0000
1000
0000
0000
0010
0000
0000
0100
0000
0000
0000
0100
0000
0010
0000
,
1001
0000
0100
0000
0001
0000
0100
0010
,
1000
0010
0100
0000
0001
0000
0010
0100
,
1000
0100
0010
0000
0100
0000
0010
0001
,
0100
0001
0010
0000
0100
0000
1000
0100
,
0010
0100
1000
0000
0100
1000
0010
0000
,
1000
0010
0100
0000
0010
0100
0001
0000
,
0100
0001
0010
0000
0001
0010
0100
0000
,
0010
0100
1000
0010
0100
0001
0010
0100
,
2002
0000
0000
0000
,
3003
0000
0000
0000
;

//---------------dance-single - ----------------
#NOTES:
     dance-single:
     :
     Hard:
     9:
     0.518,0.546,0.120,0.111,0.668,397.000,14.000,13.000,0.000,0.000:
1000
0000
0100
0000
1000
0000
0001
0001
,
0001
0000
0100
0000
0001
0000
0010
0010
,
0010
0000
0100
0000
1000
0000
0100
0100
,
0100
0000
0010
0000
0100
0000
1000
1000
,
1000
0000
0100
0000
0000
0100
0000
0000
0010
0000
0000
0001
0000
0100
0000
0100
,
0000
0000
0001
0000
0000
0100
0000
0000
0010
0000
0000
1000
0000
0100
0000
0100
,
0000
0000
1000
0000
0000
0001
0000
0000
0010
0000
0000
1000
0000
0010
0000
0010
,
0000
0000
0100
0000
0000
0001
0000
0000
0100
0000
0000
0010
0000
0010
0000
0000
,
1100
0000
0000
0100
0000
0010
0001
0000
0100
0000
0000
0000
0001
0000
0000
0000
,
0011
0000
0000
0010
0000
0100
1000
0000
0010
0000
0000
0000
1000
0000
0000
0000
,
0101
0000
0000
1000
0000
0001
0010
0000
0100
0000
0000
0000
1000
0000
0000
0000
,
1010
0000
0000
0001
0000
1000
0100
0000
0010
0000
0000
0000
0001
0000
0000
0000
,
0100
0001
0000
0100
0000
0010
1000
0000
0001
0000
1000
0000
0010
0000
0000
0000
,
0100
1000
0000
0100
0000
0010
0001
0000
1000
0000
0001
0000
0010
0000
0000
0000
,
0001
0100
0000
0010
0000
1000
0100
0000
0010
0000
0001
0000
1000
0000
0000
0000
,
0001
0010
0000
0100
0000
1000
0010
0000
0010
0100
0000
0100
0001
0000
1000
0000
,
2002
0000
3003
0100
0010
0000
0000
0000
0000
0000
1000
0000
0001
0000
0100
0000
,
0020
0000
0000
0000
0030
0000
0000
0000
1000
0100
1000
0010
0100
0010
1000
0100
,
0002
0000
0000
0000
0003
0000
0100
0010
0200
0000
0000
0000
0000
0000
0000
0000
0300
0000
0000
0000
1000
0000
0000
0000
0001
0000
0000
0000
0010
0000
0000
0000
,
0200
0000
0300
1000
0002
0000
0000
0003
0001
0100
0010
1000
0100
0010
0001
0100
,
2000
0000
0000
0000
0000
0000
0000
0000
0000
0000
3000
0000
0000
0000
0000
0000
0100
0000
0000
1000
0000
0000
0100
0000
0010
0000
0000
0100
0000
0000
0001
0000
,
0200
0000
0000
0000
0000
0000
0320
0000
0000
0000
0000
0000
0030
0000
0100
0010
0200
0000
0000
0000
0000
0000
0300
0000
0010
0000
0000
1000
0000
0000
0001
0000
,
1001
0000
0000
0001
0100
0000
0100
0000
0000
0001
0000
1000
0100
0000
0100
0000
,
0000
0010
0000
0001
0100
0000
0100
0000
0000
0010
0000
1000
0001
1000
0001
0000
,
0000
0010
0000
0010
0001
0000
1000
0000
0000
0100
0000
0100
1000
0000
0001
0000
,
0001
1000
0001
0000
0100
0000
0010
0000
1000
0001
1000
0000
0100
0000
0010
0000
,
1001
0000
0000
0000
0001
0000
0100
0000
0000
0010
0000
0000
1000
0000
0100
0000
,
1100
0000
0000
0100
0000
0000
1001
0000
0000
0010
0000
0000
0011
0000
0010
0000
,
0110
0000
0100
1000
0010
0100
0001
0010
,
0100
1000
0010
0000
0100
0000
0010
0000
0100
0001
0010
0000
0100
0000
0010
0000
,
0110
0000
1000
0000
0000
0010
0000
0000
0100
0000
0000
0001
0000
0010
0000
0010
,
0000
0000
0001
0000
0000
0100
0000
0000
0010
0000
0000
1000
0000
0100
0000
0100
,
0000
0000
0001
0000
0000
0100
0000
0000
1000
0000
0000
0010
0000
0100
0000
0100
,
0000
0000
1000
0000
0000
0100
0000
0000
0001
0000
0000
0010
0000
0100
0000
0100
,
0000
0000
1000
0010
0000
0100
0000
0000
0001
0010
0000
0100
0000
0010
0000
0010
,
0000
0000
0100
1000
0000
0010
0000
0000
0100
0001
0000
0010
0000
0100
0000
0100
,
0000
0000
1000
0100
0000
0001
0000
0000
0100
1000
0000
0001
0000
0100
0000
0100
,
0000
0000
0001
0100
0000
1000
0000
0000
0100
0001
0000
1000
0000
0100
0000
0100
,
0000
0000
0010
0000
0000
0100
0000
0000
0001
0000
0000
1000
0000
0100
0000
0010
,
0000
0000
1000
0000
0000
0010
0000
0000
0100
0000
0000
0001
0000
0010
0000
0100
,
0000
0000
0001
0000
0000
0100
0000
0000
0010
0000
0000
1000
0000
0010
0000
0001
,
0000
0000
1000
0000
0000
0010
0000
0000
1000
0000
0000
0001
0000
0100
0000
1000
,
0000
0000
0100
0001
0000
0001
0010
0000
0010
0100
0000
0100
0000
1000
0000
1000
,
0000
0000
0010
0100
0000
0100
0001
0000
0001
1000
0000
1000
0000
0100
0000
0100
,
0000
0000
0001
0100
0000
0100
1000
0000
1000
0010
0000
0010
0000
0001
0000
0001
,
0000
0000
0010
1000
0000
1000
0001
0000
0010
0100
0000
0100
1000
0000
0010
0000
,
1010
1000
0100
0010
0001
0100
0010
0100
,
1000
0100
0001
0100
0010
1000
0100
1000
,
0001
0100
0001
0010
1000
0010
0100
0010
,
0001
0000
0100
0000
0001
0000
0010
0000
1000
0000
0100
0000
0001
0010
0001
0000
,
1000
0001
0100
1000
0100
0010
0100
0001
,
0100
0010
1000
0001
0100
0001
1000
0100
,
0001
0100
0010
0100
1000
0100
0010
0001
,
1000
0010
0100
0001
0010
0100
1000
0001
,
2002
0000
0000
0000
,
0000
0000
3003
0000
;

//---------------dance-single - ----------------
#NOTES:
     dance-single:
     :
     Easy:
     4:
     0.291,0.353,0.120,0.171,0.000,204.000,14.000,20.000,0.000,0.000:
1001
0000
0001
1000
,
0001
0000
1000
0001
,
1000
0000
0010
0100
,
0010
0000
0100
0010
,
0100
0010
0001
0100
,
0000
0100
0001
0010
,
0000
0010
1000
0100
,
0000
0010
0100
0010
,
0001
0100
0020
0030
,
1000
0100
0020
0030
,
1000
0010
0200
0300
,
0001
0010
0200
0300
,
1000
0010
0002
0003
,
0001
0010
2000
3000
,
1000
0100
0002
0103
,
1000
0010
0100
0010
,
1001
0000
0200
0000
0300
0010
0100
0010
,
2000
0000
3000
0000
0100
1000
0100
1000
,
0010
0000
0120
0000
0030
0100
0010
0100
,
0002
0000
2003
0000
3200
0000
0000
0300
,
0220
0330
0100
0010
,
0200
2300
3002
1003
,
1001
0001
1000
1000
,
0010
0010
0100
0100
,
0001
0001
0010
0010
,
0100
0100
1000
1000
,
0110
0100
0010
0010
,
1001
0000
0000
0110
0000
0000
0101
0000
,
1100
1000
0001
0001
,
0100
0100
0010
0010
,
1001
0100
0010
0001
,
0001
0010
0100
1000
,
1000
0010
0100
0001
,
0001
0100
0010
1000
,
1000
0100
0001
0100
,
0100
0010
1000
0010
,
0010
0001
0001
0100
,
0100
0010
0010
1000
,
1001
0001
0010
0001
,
0100
0010
1000
0100
,
1000
0010
0100
0001
,
0010
0001
1000
0100
,
0010
0001
0001
1000
,
1000
0010
0010
0100
,
0100
0001
0001
1000
,
1000
0100
0100
0010
,
0110
0100
1000
0010
,
0001
0010
1000
0100
,
0010
0010
0100
1000
,
0010
0100
0001
0010
,
1000
0010
0001
0100
,
0010
0010
0100
0001
,
0010
0100
1000
0010
,
0001
0100
1000
0010
,
2002
0000
0000
0000
,
3003
0000
0000
0000
;

//---------------dance-single - ----------------
#NOTES:
     dance-single:
     :
     Beginner:
     1:
     0.143,0.185,0.137,0.000,0.000,101.000,16.000,0.000,0.000,0.000:
1000
0000
0001
0000
,
1000
0000
0001
0000
,
1000
0000
0010
0000
,
0100
0000
0010
0000
,
0100
0000
0001
0000
,
1000
0000
0100
0000
,
0010
0000
0001
0000
,
0100
0000
0010
0000
,
1001
0000
0000
0000
,
1001
0000
0000
0000
,
1001
0000
0000
0000
,
1001
0000
0000
0000
,
1000
0000
1000
0000
,
0001
0000
0001
0000
,
0100
0000
0010
0000
,
1000
1000
1000
0000
,
1001
0000
0000
0100
,
0100
0000
0000
0000
,
1001
0100
0000
0000
,
0110
0000
0000
0000
,
0110
0000
0001
0000
,
1001
0000
0100
0000
,
1001
0000
0000
0000
,
0100
0000
0000
0000
,
0010
0000
0000
0000
,
1000
0000
0000
0000
,
1001
0000
0000
0000
,
1001
0000
1001
0000
,
1001
0000
0000
0000
,
0000
0000
0000
0000
,
1000
0000
0100
0000
,
0010
0000
0001
0000
,
1000
0000
0010
0000
,
0100
0000
0001
0000
,
1000
1000
1000
0000
,
0001
0000
0100
0000
,
0010
0010
0010
0000
,
0100
0000
0010
0000
,
1001
0000
0100
0000
,
0010
0000
1000
0000
,
0100
0000
0010
0000
,
0001
0000
0100
0000
,
1000
1000
1000
0000
,
0100
0000
0001
0000
,
0010
0010
0010
0000
,
0001
0000
1000
0000
,
0010
0000
0100
0000
,
0010
0000
1000
0000
,
0001
0000
0010
0000
,
1000
0000
0010
0000
,
0100
0000
1000
0000
,
0010
0000
0001
0000
,
0010
0000
0100
0000
,
0001
0001
0001
0000
,
1001
0000
0000
0000
;
