#TITLE:The Shining Polaris;
#SUBTITLE:(kors k Mix);
#ARTIST:kors k;
#TITLETRANSLIT:;
#SUBTITLETRANSLIT:;
#ARTISTTRANSLIT:;
#CREDIT:B. Abear;
#BANNER:Bn-Polaris.png;
#BACKGROUND:Bg-Polaris.png;
#LYRICSPATH:;
#CDTITLE:;
#MUSIC:02 - THE SHINING POLARIS -kors k mix-.ogg;
#OFFSET:-0.417;
#SAMPLESTART:21.000;
#SAMPLELENGTH:23.000;
#SELECTABLE:YES;
#DISPLAYBPM:172.000;
#BPMS:0.000=172.000,60.000=344.000,64.000=172.000;
#STOPS:60.000=0.022
,60.125=0.022
,60.250=0.022
,60.375=0.022
,60.500=0.022
,60.625=0.022
,60.750=0.022
,60.875=0.022
,61.000=0.022
,61.125=0.022
,61.250=0.022
,61.375=0.022
,61.500=0.022
,61.625=0.022
,61.750=0.022
,61.875=0.022
,62.000=0.022
,62.125=0.022
,62.250=0.022
,62.375=0.022
,62.500=0.022
,62.625=0.022
,62.750=0.022
,62.875=0.022
,63.000=0.022
,63.125=0.022
,63.250=0.022
,63.375=0.022
,63.500=0.022
,63.625=0.022
,63.750=0.022
,63.875=0.022
;
#BGCHANGES:;
// cache tags:
#FIRSTBEAT:32.000;
#LASTBEAT:1000.500;
#SONGFILENAME:Songs/SSSC Pack 2/The Shining Polaris (kors k Mix) - [Cosmic Pope]/The Shining Polaris (kors k Mix).sm;
#HASMUSIC:1;
#HASBANNER:1;
#MUSICLENGTH:105.000;
// end cache tags

//---------------dance-single - B. Abear----------------
#NOTES:
     dance-single:
     B. Abear:
     Challenge:
     13:
     1.000,1.000,0.743,0.762,1.000,2045.000,78.000,80.000,25.000,1.000:

0000
0000
0000
0000
,
0000
0000
0000
0000
,
0000
0000
0000
0000
,
0000
0000
0000
0000
,
0000
0000
0000
0000
,
0000
0000
0000
0000
,
0000
0000
0000
0000
,
0000
0000
0000
0000
,
0011
0000
1000
0000
0000
0011
1000
1000
,
0101
0000
0010
0000
0000
0101
0010
0010
,
1001
0000
0100
0000
0000
1001
0100
0100
,
0011
0000
0000
0000
0100
0000
0000
0000
0000
0000
0011
0000
0100
2000
0000
0000
,
3101
0000
0001
0100
0010
1000
0001
1000
0001
0010
0100
1000
0001
0010
0001
1000
,
0010
0100
0001
1000
0100
1000
0001
1000
0001
0100
0010
0100
0001
1000
0100
1000
,
0001
0010
0001
0010
0100
1000
0001
1000
0010
0100
0010
1000
0001
0010
0100
1000
,
0001
0000
0000
1000
0100
0100
1000
0010
,
0100
0001
0010
0100
1000
0001
0100
0010
,
1000
1001
0000
0011
0000
1100
0000
0100
,
0000
0011
0000
1010
0000
0101
0000
0001
,
0000
1100
0000
1000
0001
0001
0010
0200
,
0000
0000
0000
0000
,
0300
0000
0010
0001
0010
0001
1000
0001
1000
0000
0001
0100
0010
1000
0001
0010
,
0002
0000
0000
1003
0000
0100
0010
0100
0020
0000
0031
0000
400M
0000
3010
0000
,
02M0
0000
0301
0010
0001
1000
0100
0000
0100
0000
1000
0000
0001
0000
0200
0000
,
0010
0000
0000
0000
0000
0000
0000
0000
0000
0000
0000
0000
0300
0000
0100
0001
,
0000
0000
1001
0000
0000
0000
1100
0000
0000
0000
0100
0010
0001
1000
0001
0000
,
0000
0000
0101
0000
0000
0000
0001
1000
0100
1000
0100
0000
0100
0010
0100
0000
,
0000
0010
0020
0130
1000
1000
0001
2000
,
0000
0000
0000
0000
0000
0000
0000
0000
3001
0100
0001
0000
1000
0100
1000
0010
,
0100
0001
0100
0001
1000
0100
1000
0100
0010
0001
0010
0001
2000
0000
3002
0000
,
0103
0000
0000
0000
0000
0000
0100
0000
0000
0000
0000
0000
0010
0000
0000
0000
0000
0000
0010
0000
0000
0100
0000
0000
0001
0000
0000
0000
0000
0000
1000
0000
0000
0001
0000
0000
1000
0000
0000
0000
0000
0000
0001
0000
0010
0000
0001
0000
,
0010
0000
0000
0000
0000
0000
0000
0000
0000
0110
0000
0000
0000
0000
0000
0000
0000
0000
1100
0000
0000
0000
0000
0000
1000
0000
0000
0000
0000
0000
0001
0000
0000
0000
0000
0000
0100
0000
0000
0000
0000
0000
0010
0000
1000
0000
0010
0000
,
1000
0001
0010
0001
1000
0100
0010
0011
,
0000
1001
0000
1010
0000
0101
0000
MMMM
,
0000
1001
0000
1100
0000
0011
0000
1001
,
0000
1100
0000
1000
0001
0001
0100
0020
,
0000
0000
0000
0100
0000
1000
0000
0001
,
0000
0000
1030
0001
1000
0000
0001
1000
0100
0000
1000
0100
1000
0100
0010
0100
,
0010
0000
0001
0010
0001
0010
0001
1000
0001
0000
0100
0000
0010
0000
1000
0000
,
0001
0000
0010
0100
1000
0100
1000
0000
0001
0000
0001
0000
0100
0000
0010
0000
,
1000
0001
0010
0001
1000
0100
0010
0011
,
0000
0000
1010
0000
0000
0000
0101
0000
0000
0000
0001
1000
0100
1000
0001
1000
,
0000
0000
1100
0000
0000
0000
0110
0000
0100
1000
0001
0000
0100
0001
0100
0000
,
0101
0001
1000
0100
0010
0010
0100
2000
,
0000
0000
0000
0000
0000
0000
3001
0000
0000
0100
0000
0000
0001
0000
0000
0100
0000
0000
0001
0000
0000
0100
0000
0000
0001
0000
1000
0000
0001
0000
1000
0000
0000
0000
0000
0000
0000
0000
0000
0000
0000
0000
0001
0000
0000
0010
0000
0000
,
0100
1000
0100
1000
0001
0100
0001
0100
0010
0100
0010
0100
0001
0000
1000
0000
,
1100
0100
0100
0010
0011
0001
0001
0100
,
0010
1000
0010
1000
0010
0100
0010
0100
0001
1000
0100
0010
0001
1000
0001
1000
,
0010
0100
0001
1000
0001
0010
0100
1000
,
0001
0100
0010
1000
0001
0020
0000
0230
,
0000
2300
0000
3002
0000
0203
0000
0310
,
1000
0001
1000
0001
0100
0001
0100
0001
1000
0000
0001
0010
0000
0100
1000
0000
,
0001
0100
0010
0100
0001
1000
0100
0010
,
0001
1000
0001
0100
0010
0200
0000
0302
,
0000
1003
0100
0020
0000
0031
1000
0010
,
0100
0001
0100
0001
1000
0001
1000
0001
0010
0000
0100
1000
0000
0001
0100
0000
,
0110
0010
1000
0001
0010
0001
1000
0100
,
0010
0000
0001
1000
0000
0001
0100
0001
0100
0000
0010
1000
0000
0001
0010
0001
,
0010
0100
1000
0001
0100
0001
0010
0001
,
1000
0000
0001
0100
0001
0100
0001
0100
0010
0000
1000
0100
0000
0010
0001
0000
,
1000
0001
0010
0100
1000
0010
0100
0001
,
1000
0000
0001
0100
0000
0010
1000
0010
1000
0000
0001
0010
0000
0100
1000
0100
,
1000
0001
0010
0100
0010
0001
1000
0010
,
0100
0010
1000
0001
1000
0001
1000
0001
0100
0000
0010
1000
0000
0001
0100
0000
,
0101
0001
1000
0100
0010
0001
1000
0001
,
0100
0010
1000
0020
0000
0130
0001
2000
,
0000
3001
0010
0200
0000
1300
0001
0010
,
0100
1000
0100
1000
0001
0100
0001
1000
0001
0000
1000
0100
0000
0010
0100
0000
,
0010
0001
1000
0010
0100
0001
0010
0200
,
0000
1300
0001
0200
0000
0310
1000
0002
,
0000
1003
0100
0020
0000
0130
1000
0001
,
0100
0001
0100
0001
1000
0001
1000
0100
1000
0000
0001
0010
0000
0100
1000
0000
,
1001
0001
0010
0100
1000
0001
0100
0010
,
1000
0000
0001
0010
0000
0100
0010
0100
0010
0000
0001
1000
0000
0001
0100
0001
,
0100
0010
1000
0001
0010
0100
1000
0010
,
0100
0010
0100
0010
0100
0001
0100
0001
1000
0000
0001
0010
0000
0001
0100
0000
,
0101
0010
1010
0100
,
0001
0000
0010
0100
0000
1000
0001
1000
0001
0000
0100
0010
0000
1000
0100
1000
,
0100
0010
0001
1000
0010
1000
0001
0010
0100
1000
0001
0100
0010
1000
0001
0010
,
0100
1000
0100
1000
0001
1000
0001
1000
0010
0000
0100
0001
0000
1000
0001
0000
,
1001
0000
1000
0000
0001
0010
0001
0000
1000
0000
0010
0000
0100
0010
0100
0000
,
0001
0000
1000
0100
0000
0010
0100
0010
0001
0000
1000
0010
0000
0100
0010
0100
,
0001
0000
1000
0000
0001
0100
0001
0000
1000
0000
0100
0000
0010
0001
0010
0000
,
0100
1000
0001
0010
0001
1000
0010
1000
0001
0000
1000
0100
0000
1000
0001
0000
,
0100
0000
0010
0000
1000
0010
1000
0000
0001
0000
1000
0000
0001
1000
0001
0000
,
0010
0000
0100
1000
0000
0001
1000
0100
1000
0000
0010
0100
0000
0001
0100
0010
,
0100
0000
0010
0000
1000
0001
1000
0000
0100
0000
0010
0000
0001
1000
0001
0000
,
1000
0100
1000
0001
0010
0100
0010
0001
1000
0000
0001
0100
0000
0010
1000
0000
,
1001
0000
0001
0000
1000
0100
1000
0000
0010
0000
0100
0000
0001
0100
0001
0000
,
1000
0000
0100
1000
0000
0001
0010
0001
0010
0000
0100
1000
0000
0001
0100
0001
,
0100
0000
0010
0000
1000
0010
1000
0000
0001
0000
1000
0000
0100
1000
0100
0000
,
0010
0001
1000
0001
0010
0100
1000
0001
1000
0000
0010
0100
0000
0001
0010
0000
,
0100
1000
0001
1000
0010
0100
0001
1000
0100
1000
0001
0010
0100
1000
0001
1000
,
0001
0100
0010
1000
0001
1000
0100
0010
0001
1000
0001
1000
0010
0100
0001
0100
,
0001
1000
0100
0010
0001
0010
0100
1000
0001
1000
0010
0100
0001
1000
0001
0010
,
0400
4000
0000
0000
0000
0000
0000
0000
0000
0000
0000
0000
0000
0000
0000
0000
0000
0000
0000
0000
3300
0000
0000
0000
,
1001
0000
0000
2000
0000
3020
0000
0230
,
0000
0301
1000
0000
0000
0000
0000
M001
,
1M00
0200
0000
130M
0M01
0200
0000
0302
,
0000
2003
0000
3002
0000
2003
0000
3100
,
0010
0010
0000
0001
0100
0010
1000
0002
,
0000
0023
0000
0230
0000
0300
0010
0000
,
0001
2000
0000
0000
0000
0000
0000
0000
,
3020
0000
0000
0000
0000
0000
0000
0130
,
0001
0000
0000
0000
2000
0000
0000
0000
0000
3002
0000
0000
0000
0000
0000
0023
0000
0000
0000
0000
0000
0230
0000
0000
,
0000
1300
0001
0000
0000
0000
0000
1000
,
0020
0000
0000
0230
0000
0302
0000
1003
,
0000
0200
0000
0320
0000
0032
0000
1003
,
0010
0020
0000
0030
200M
0000
3M01
0020
,
0000
0230
000M
2300
0000
3M10
0200
0000
,
M301
0000
0000
0010
0000
0000
020M
0000
0000
0000
M000
0000
0000
0000
0000
0000
000M
0000
0000
0000
00M0
0000
0000
0000
,
M000
0000
0000
0000
000M
0000
0000
0000
0000
1300
0000
0000
0001
0000
0000
0001
0000
0000
1000
0000
0000
0010
0000
0000
,
M2M2
0000
0000
0000
,
0000
0000
0000
0000
,
0000
0000
0000
0000
,
0000
0000
0300
1003
0010
0010
0100
0001
,
22MM
0000
0000
0000
,
0000
0000
0000
0000
,
0000
0000
0000
0000
,
0000
0000
0000
0000
0000
0000
0000
0300
,
3001
0010
0000
0000
0100
1000
0000
0001
0000
0100
0000
0010
1000
0000
0001
0000
,
0010
0000
0000
0100
0000
0000
1000
0000
0000
0001
0000
0100
0000
0010
1000
0000
,
0001
1000
0100
0000
0010
0000
0001
0010
0000
0001
1000
0001
0100
0010
1000
0000
,
0001
0000
0000
1000
0000
0000
0001
0000
0010
0000
0000
0001
0000
0000
1000
0000
,
0010
0100
0001
1000
0001
0010
0001
1000
0100
0010
0001
1000
0010
1000
0001
0100
,
0010
1000
0010
1000
0001
0010
0001
1000
0010
0100
0001
1000
0100
0010
0001
0010
,
0001
1000
0001
0100
0010
1000
0010
0100
0001
1000
0001
0100
0010
1000
0100
0010
,
0004
4000
0000
0000
0000
0000
0000
0000
0000
0000
0000
0000
0000
0000
3003
0000
,
0001
0100
0010
1000
0001
1000
0000
0001
0000
1000
0000
0001
0000
1000
0100
0000
,
0010
0000
0000
0001
0000
0000
1000
0000
0000
0010
0000
0100
0000
0001
1000
0000
,
0010
0100
0001
1000
0100
1000
0000
0001
0000
1000
0100
0010
0001
1000
0010
0000
,
1000
0000
0000
0010
0000
0000
0100
0000
0001
0000
0000
1000
0000
0000
0001
0000
,
1000
0100
0000
0000
0010
0001
1000
0001
0000
1000
0000
0010
0000
0100
0001
0000
,
1000
0000
0000
0010
0000
0000
0100
0000
0000
0001
0000
1000
0000
0100
0010
0000
,
0001
0000
1000
0000
1000
0000
0010
0100
0000
0001
0000
1000
0000
0001
0010
0000
,
0001
0000
0000
0100
0000
0000
0010
0000
1000
0000
0000
0001
0000
0000
0010
0000
,
0100
1000
0000
0001
0100
0001
1000
0100
0000
0010
0000
0001
0000
1000
0001
0000
,
0010
0000
0000
0100
0000
0000
1000
0000
0000
0001
0000
0100
0000
0010
1000
0000
,
0001
0000
0010
0000
0010
0000
0100
1000
0000
0001
0000
0001
0000
1000
0010
0000
,
0100
0000
0000
0001
0000
0000
1000
0000
0010
0000
0000
1000
0000
0000
0100
0000
,
0010
0001
0000
0000
1000
0001
0010
0100
0000
1000
0000
0010
0000
0100
0001
0000
,
0100
0000
0000
0010
0000
0000
1000
0000
0000
0001
0000
1000
0000
0001
0010
0000
,
0110
0000
0100
0000
1000
0000
0001
0100
0000
0010
0000
1000
0000
0001
0010
0000
,
0100
0000
1000
0000
0100
0000
1000
0000
0001
0000
1000
0000
0001
0000
1000
0000
0001
0000
0100
0000
0001
0000
0100
0000
0040
0400
0000
0000
0330
0000
0000
0000
,
1010
0000
1000
0000
0001
0000
0010
0100
0000
1000
0000
0001
0000
1000
0010
0000
,
1000
0000
0001
0000
0010
0000
0100
1000
0000
0001
0000
1000
0000
0001
0100
0000
,
0010
0000
1000
0000
1000
0000
0001
0010
0000
0100
0000
1000
0000
0001
0010
0000
,
0001
0000
0000
1000
0000
0000
0010
0000
0100
0000
0000
0001
0000
0000
1000
0000
,
0100
0000
0010
0000
0001
1000
0000
0010
0100
0001
1000
0001
0010
0100
1000
0000
,
0001
0000
0000
0100
0000
0000
0010
0000
0000
1000
0000
0001
0000
0010
0100
0000
,
1000
0000
0010
0000
0010
0000
0100
0001
0000
1000
0000
0001
0000
1000
0100
0000
,
0010
0000
0000
0100
0000
0000
1000
0000
0001
0000
0000
0100
0000
0000
0010
0000
,
0100
0000
0001
1000
0100
1000
0001
0010
0000
0100
0000
1000
0000
0001
0100
0000
,
0010
0000
0000
1000
0000
0000
0001
0000
0000
1000
0000
0001
0000
0010
0100
0000
,
1000
0000
0010
0000
0100
0000
0001
0100
0000
0010
0000
1000
0000
0001
0010
0000
,
0100
0000
0000
1000
0000
0000
0001
0000
0100
0000
0000
0010
0000
0000
1000
0000
,
0001
0000
1000
0000
0001
0010
0100
1000
0002
0000
0000
0000
0103
0000
0020
0000
,
0000
2030
0000
3002
0000
0013
0200
0000
,
1300
0001
1000
0001
1000
0001
1000
0001
1000
0001
1000
0001
1000
0001
1000
0001
,
0100
0001
0400
0004
0000
0000
0000
0000
0000
0000
0000
0000
0000
0000
0000
0000
0000
0000
0000
0000
0000
0303
0000
0000
,
1001
0000
1000
0100
1000
0000
0001
0100
0001
0000
1000
0100
1000
0000
0001
0010
,
0001
0000
0010
0100
0010
0000
0100
1000
0100
0000
1000
0010
1000
0000
0001
1000
,
0001
0000
0010
0100
0010
0000
0001
1000
0001
0000
1000
0010
1000
0000
0001
0100
,
0001
0000
1000
0100
1000
0000
0010
0100
0010
0000
0100
0001
0100
0000
0001
0010
,
0001
0000
1000
0100
1000
0000
0100
0010
0100
0000
0010
0001
0010
0000
0001
1000
,
0001
0000
1000
0010
1000
0000
0010
0100
0010
0000
0100
0001
0100
0000
0001
0010
,
0001
0000
1000
0100
1000
0000
0001
0010
0001
0000
0010
0100
0010
0000
0100
1000
,
0100
0000
1000
0010
1000
0000
0001
0100
0001
0000
1000
0001
1000
0000
0001
0010
,
0011
0000
0001
1000
0001
0000
1000
0010
1000
0000
0001
0100
0001
0000
1000
0010
,
1000
0000
0001
0010
0100
1000
0001
0000
0100
0000
0010
1000
0001
1000
0100
0000
,
0010
0000
0001
1000
0100
1000
0001
0000
0100
0000
0010
1000
0010
0100
0001
0000
,
1000
0000
0001
0010
0100
1000
0001
0000
0100
0000
0010
1000
0000
0001
0000
0000
,
1000
0000
0001
1000
0100
1000
0100
0000
0010
0000
0001
0100
0010
0100
0001
0000
,
1000
0000
0001
1000
0100
0010
0100
0000
1000
0000
0001
0100
0001
1000
0010
0000
,
0100
0001
1000
0001
0010
0100
1000
0001
0100
0001
1000
0100
0010
0001
1000
0000
,
1000
0001
4000
0004
0000
0000
0000
0000
0000
0000
0000
0000
0000
0000
0000
0000
0000
0000
0000
0000
0000
3003
0000
0000
,
1010
0010
0100
0001
1000
0100
0010
0001
,
1000
0001
0100
0001
0100
1000
0100
0010
,
0001
0000
0010
0000
1000
0000
0001
0000
0010
0000
0100
0000
1000
0001
1000
0000
,
0001
0000
0100
0000
0010
0100
0010
0000
1000
0000
0001
0010
0000
0100
0000
0000
,
1000
0000
0001
0000
0100
0010
0100
0000
0001
0000
1000
0000
0001
0010
0001
0000
,
1000
0000
0100
0000
0010
0001
0010
0000
0100
0000
1000
0000
0001
0100
0001
0000
,
0100
1000
0100
0001
0010
1000
0010
0001
,
0100
1000
0100
0001
0010
1000
0010
0001
,
0011
0010
0100
1000
0001
0100
0010
0100
,
0001
1000
0001
1000
0100
0001
0100
0010
,
1000
0000
0010
0000
0001
0000
0100
0000
0001
0000
0010
0000
0100
1000
0100
0000
,
1000
0000
0001
0000
0100
0001
0100
0000
0010
0000
1000
0001
0000
0010
0000
0000
,
1100
0000
0100
1000
0001
0100
0001
1000
0010
0100
0001
0100
0010
1000
0001
0010
,
0001
0010
0100
1000
0001
0100
0010
1000
0001
0100
0010
0100
0001
1000
0100
0010
,
0001
1000
0001
0100
0001
1000
0010
0100
0001
0010
0100
1000
0100
0010
0001
1000
,
0004
0400
0000
0000
0000
0000
0000
0000
0000
0000
0000
0000
0000
0000
0000
0000
0000
0000
0000
0000
0000
0303
0000
0000
,
2002
0000
0000
0000
,
0000
0000
0000
0000
,
0000
0000
0000
0000
,
0000
0000
0000
0000
0000
0000
0000
3003
,
1000
0010
0000
0000
0100
0001
0000
1000
0000
0001
0000
0010
0000
0100
1000
0000
,
0001
0000
0000
0100
0000
0000
0010
0000
0000
1000
0000
0001
0000
0000
1000
0000
,
0001
0000
0010
0000
0010
0000
0010
0100
0000
1000
0000
0001
0000
0100
0010
0000
,
1010
0000
0000
1000
0000
0000
0001
0000
0010
0000
0000
1100
0000
1000
0001
0000
,
1001
1000
0011
0001
0100
0010
0101
0100
,
0010
1000
0110
0010
1000
0100
0011
0010
,
0001
1000
0101
0001
1000
0010
1001
1000
,
0001
0010
0100
1000
0001
0100
0001
1000
0100
0010
0100
1000
0001
0100
0010
0100
,
0001
1000
0100
1000
0001
0010
0001
1000
0100
1000
0010
0100
0001
1000
0001
0010
,
0100
1000
0001
0100
0001
0100
0010
1000
0001
0010
0001
0100
0010
0100
0001
1000
,
0100
1000
0001
0010
0100
1000
0001
0010
0100
0010
0001
1000
0001
0100
0010
1000
,
0002
0000
0000
0000
0000
0000
0000
0003
,
1001
0000
1000
0000
0001
0000
0010
0100
0000
1000
0000
0001
0000
1000
0010
0000
,
1000
0000
0001
0000
0010
0000
0100
1000
0000
0001
0000
1000
0000
0001
0100
0000
,
0010
0000
1000
0000
1000
0000
0001
0010
0000
0100
0000
1000
0000
0001
0010
0000
,
0001
0000
0000
1000
0000
0000
0010
0000
0100
0000
0000
0001
0000
0000
1000
0000
,
0100
0000
0010
0000
0001
1000
0000
0010
0100
0001
1000
0001
0010
0100
1000
0000
,
0001
0000
0000
0100
0000
0000
0010
0000
0000
1000
0000
0001
0000
0010
0100
0000
,
1000
0000
0010
0000
0010
0000
0100
0001
0000
1000
0000
0001
0000
1000
0100
0000
,
0010
0000
0000
0100
0000
0000
1000
0000
0001
0000
0000
0100
0000
0000
0010
0000
,
0100
0000
0001
1000
0100
1000
0001
0010
0000
0100
0000
1000
0000
0001
0100
0000
,
0010
0000
0000
1000
0000
0000
0001
0000
0000
1000
0000
0001
0000
0010
0100
0000
,
1000
0000
0010
0000
0100
0000
0001
0100
0000
0010
0000
1000
0000
0001
0010
0000
,
0100
0000
0000
1000
0000
0000
0001
0000
0100
0000
0000
0010
0000
0000
1000
0000
,
0001
0000
1000
0000
0001
0010
0100
1000
0002
0000
0000
0000
0103
0000
0020
0000
,
0000
2030
0000
3002
0000
0013
0200
0000
,
1300
0001
1000
0001
1000
0001
1000
0001
1000
0001
1000
0001
1000
0001
1000
0001
,
0100
0000
0001
0000
0400
0000
0004
0000
0000
0000
0000
0000
0000
0000
0000
0000
0000
0000
0000
0000
0000
0000
0000
0000
0000
0000
0000
0000
0000
0000
0303
0000
0000
0000
0000
0000
0001
0000
0000
1000
0000
0000
0001
0000
0000
1000
0000
0000
,
0100
0010
0000
0001
1000
0010
0000
1000
0000
0001
0000
0010
0000
0100
1000
0000
,
0001
0000
0100
0010
0000
0010
1000
0000
0000
0001
0000
0010
0000
0100
1000
0000
,
0001
0000
0100
0000
0010
0000
1000
0010
0000
0100
0000
0001
0000
1000
0100
0000
,
0010
0000
0000
0001
0000
1000
0010
0000
0100
0000
0001
0000
1000
0000
0100
0000
,
0010
0001
0000
0000
1000
0010
0000
0100
0000
0001
0000
1000
0000
0001
0010
0000
,
0100
0000
1000
0001
0000
0100
0010
0000
0000
1000
0000
0001
0000
0010
0001
0000
,
1000
0000
0010
0000
0010
0000
0010
0100
0000
0001
0000
0001
0000
0001
1000
0000
,
0001
0000
0000
0010
0000
0100
1000
0000
0001
0000
0100
0000
0010
0000
1000
0000
,
2002
0000
0000
0000
,
0000
0000
0000
0000
,
0000
0000
0000
0000
,
0000
0000
0003
3001
0010
0100
1000
0010
,
1000
0001
0010
0001
1000
0100
0010
0001
1000
0010
0100
0001
1000
0100
1000
0001
,
0010
0001
1000
0010
0100
0001
0100
0010
1000
0100
0010
0001
0010
0100
1000
0001
,
0100
0010
0100
0001
1000
0100
0010
0001
1000
0001
1000
0010
1000
0001
0010
0100
,
2000
0000
0100
0000
0001
0000
0010
3000
,
0110
0000
0010
0100
0010
0000
0100
0001
0100
0000
0001
1000
0001
0000
1000
0100
,
1000
0000
0001
0010
0001
0000
0010
0100
0010
0000
0100
1000
0100
0000
1000
0001
,
1000
0000
0001
0100
0001
0000
0100
0010
0100
0000
0010
1000
0010
0000
1000
0001
,
1000
0000
0001
1000
0001
0000
1000
0100
1000
0000
0001
0010
0001
0000
1000
0010
,
1000
0000
0010
0100
0010
0000
0100
0001
0100
0000
0001
0010
0001
0000
1000
0100
,
1000
0000
0001
0010
0001
0000
1000
0010
1000
0000
0010
0100
0010
0000
0100
0001
,
0100
0000
0001
1000
0001
0000
1000
0100
1000
0000
0001
0010
0001
0000
1000
0001
,
4000
0004
0000
0000
0000
0000
0000
0000
0000
0000
0000
0000
0000
0000
0000
0000
0000
0000
0000
0000
0000
3003
0000
0000
,
2002
0000
0000
0000
,
0000
0000
0000
0000
,
0000
3003
0000
0000
0000
0000
0000
0000
;
