#TITLE:NEMESIS;
#SUBTITLE:;
#ARTIST:D.J.SETUP;
#TITLETRANSLIT:;
#SUBTITLETRANSLIT:;
#ARTISTTRANSLIT:;
#CREDIT:owenviau1;
#BANNER:../Banner.png;
#BACKGROUND:../BG.png;
#LYRICSPATH:;
#CDTITLE:../CDTitleBRAEDEN.png;
#MUSIC:DJ SETUP - NEMESIS.ogg;
#OFFSET:-0.177;
#SAMPLESTART:93.816;
#SAMPLELENGTH:29.999;
#SELECTABLE:YES;
#DISPLAYBPM:164.000;
#BPMS:0.000=164.000,160.000=82.000,168.000=61.500,174.000=82.000,198.000=164.000;
#STOPS:;
#BGCHANGES:;
// cache tags:
#FIRSTBEAT:13.000;
#LASTBEAT:295.500;
#SONGFILENAME:Songs/Index Tesseract/NEMESIS  - [Braeden]/NEMESIS.sm;
#HASMUSIC:1;
#HASBANNER:1;
#MUSICLENGTH:126.966;
// end cache tags

//---------------dance-single - ----------------
#NOTES:
     dance-single:
     :
     Challenge:
     17:
     1.000,1.000,0.205,0.567,1.000,793.000,26.000,72.000,16.000,0.000:

0000
0000
0000
0000
,
0000
0000
0000
0000
,
0000
0000
0000
0000
,
0000
MMM0
0MMM
M00M
,
0000
1000
0000
1000
0000
0000
0100
0000
0000
0010
0000
0010
0000
0000
0001
0000
,
0000
1000
0000
1000
0000
0000
0100
0000
0000
0010
0000
0010
0000
0000
0001
0000
,
0000
1000
0000
1000
0000
0000
0100
0000
0000
0010
0000
0010
0000
0000
0100
0000
,
0000
0000
0000
0000
,
1001
0000
0000
0001
0100
0000
0010
1000
0010
0000
0100
0001
0100
0000
0001
0010
,
0001
0000
1000
0100
2000
0000
3001
0100
0010
1000
0010
1000
0010
0000
0100
0010
,
0001
0000
1000
0010
0200
0000
0301
0100
0010
1000
0100
0010
0001
0000
0100
0010
,
1000
0000
0000
0000
0001
0000
0100
0000
0020
0000
0000
0000
1030
0000
0100
0000
1000
0000
0010
0000
0100
0000
0001
0000
1000
0000
0010
0000
0100
0010
0100
0010
,
0100
0000
0100
0001
0200
0000
0310
1000
0010
0000
0100
0001
0100
0000
0001
0010
,
0001
0000
1000
0001
0020
0000
0130
0010
0001
0000
0100
0010
0100
0000
0001
1000
,
0010
0000
0100
0001
0200
0000
0310
1000
0001
0000
0100
0010
0100
0000
0001
1000
,
0010
0000
0000
0100
0000
0000
0001
0000
0000
0100
0000
0000
0010
0000
0000
1000
0000
0000
0100
0000
0000
0010
0000
0000
0001
0000
0000
0000
0000
0000
1000
0000
0000
0000
0000
0000
0001
0000
0100
0000
0010
0000
1000
0000
0001
0000
0100
0000
,
0001
0000
0000
1000
1010
0000
0010
0100
0001
1000
0010
0100
0001
1000
0000
0010
,
0100
0001
0100
0000
0001
0000
0010
0000
0100
0000
0000
0000
1000
0000
0001
0000
0100
0010
0100
0000
0010
0000
1000
0000
0001
0010
0100
1000
0001
0010
0100
1000
,
0001
0100
0010
1000
0001
0000
0100
0000
0010
0000
0000
0000
1000
0000
0001
0000
0100
0000
0100
0000
0010
0000
0000
0000
1010
0000
1000
0000
0001
0000
0100
0000
,
0010
1000
0010
1000
0001
0000
1000
0000
0020
0000
0000
0000
0130
0000
0001
0000
0100
0000
0100
0000
0010
0000
1000
0000
1001
0000
0000
0000
1001
0000
0000
0000
,
1000
0010
0100
0001
1000
0000
0010
0000
0100
0000
0000
0000
0001
0000
0100
0000
0010
0000
0010
0000
1000
0000
0000
0000
1001
0000
0100
0000
0010
0000
1000
0000
,
0100
0010
0001
1000
0010
0000
0100
0000
0002
0000
0000
0000
1003
0000
0010
0000
0100
0000
0100
0000
0001
0000
0000
0000
1001
0000
0000
0000
0001
0000
0100
0000
,
0010
1000
0001
0100
0010
0000
1000
0000
0100
0000
0000
0000
0010
0000
0001
0000
0100
0000
0010
0000
0100
0000
0010
0000
1000
0000
0001
0000
0100
0000
0010
0000
,
1000
0000
0000
0100
0000
0000
1000
0000
0000
0100
0000
0000
0010
0000
0000
0001
0000
0000
0010
0000
0000
0001
0000
0000
1000
0000
0000
0000
0000
0000
0010
0000
0000
0000
0000
0000
0100
0000
0001
0000
0100
0000
0010
0000
1000
0000
0001
0000
,
0200
0320
0230
0310
0200
0300
0010
0002
0203
0320
2030
3001
0200
0310
0010
1000
,
0100
0010
0001
1000
0100
0000
0010
0000
0100
0000
0000
0000
1000
0000
0001
0000
0100
0000
0010
0000
1000
0000
0000
0000
1001
0000
0000
0000
0010
0000
0100
0000
,
1000
0001
0010
0001
1000
0000
0000
0000
1001
0000
0000
0000
0010
0000
0200
0000
0301
0000
0200
0000
0320
0000
1030
0000
0200
0000
0310
0000
0000
0000
0001
0000
,
0100
0010
0100
0010
0100
0000
0001
0000
1000
0000
0000
0000
0000
0000
0200
0000
0302
0000
0023
0000
0230
0000
1300
0000
0010
0100
0001
0010
0100
1000
0001
0010
,
0001
1000
0100
0010
0001
0000
1000
0000
0100
0000
0000
0000
0010
0000
0002
0000
0203
0000
0320
0000
2030
0000
3001
0000
0200
0000
0300
0000
0010
0000
0010
0000
,
1000
0100
0010
0001
1000
0000
0010
0000
0100
0000
0000
0000
0001
0000
0200
0000
0320
0000
2030
0000
3200
0000
0310
0000
0002
0000
0003
0000
1000
0000
0000
0000
,
0001
0010
0100
1000
0001
0000
0100
0000
0010
0000
0000
0000
1000
0000
0010
0000
0100
0000
0001
0000
1000
0000
0100
0000
0010
0000
0000
0000
0000
0000
0001
0000
,
0100
0000
0000
0010
0000
0000
0100
0000
0000
0010
0000
0000
1000
0000
0000
0100
0000
0000
1000
0000
0000
0100
0000
0000
1000
0000
0000
0000
0000
0000
0001
0000
0000
0000
0000
0000
0100
0000
0010
0000
0100
0000
0001
0000
1000
0000
0010
0000
,
0100
0010
0100
0000
0110
0000
0010
1000
0001
0100
0010
0000
1010
0000
1000
0001
,
0100
0010
0100
0010
0100
0000
0010
0000
1000
0000
0000
0000
0100
0000
0010
0000
0100
0000
1000
0000
0001
0000
0000
0000
1001
0000
0000
0000
1000
0100
0010
0001
,
1000
0000
0001
0000
1000
0000
0010
0100
0001
1000
0100
0000
1010
0000
0100
0001
,
1000
0100
1000
0100
1000
0000
0001
0000
0100
0000
0000
0000
0010
0000
1000
0000
0100
0000
0010
0000
0100
0000
0000
0000
1000
0001
0010
0100
1000
0001
0010
0100
,
1000
0001
0100
0010
1000
0000
0000
0000
0110
0000
0000
0000
0001
0000
0100
0000
0010
0000
1000
0000
0100
0000
0000
0000
1001
0000
0000
0000
0010
0000
0100
0000
,
M11M
0000
0010
0000
1001
0000
1000
0001
0100
0010
1000
0000
1001
0000
0001
1000
,
1MM1
0000
0000
0010
0010
0000
0000
0100
1001
0000
0000
0001
0001
0000
0000
1000
,
1001
0000
0000
0000
0000
0000
0010
0000
0000
0000
0000
0000
0100
0000
0000
0000
0000
0000
0010
0000
0000
0000
0000
0000
0100
0000
0000
0010
0000
0000
0100
0000
0000
0010
0000
0000
1000
0000
0001
0000
0100
0000
0010
0000
1000
0000
0001
0000
,
0200
0000
0000
0000
,
0000
0000
0000
0000
,
0310
0000
0000
0000
,
0000
0000
0000
0000
0000
0000
0000
0000
0000
0000
0000
0000
0000
0000
0000
0000
2000
0000
0100
0000
0000
3000
M000
0000
0000
0000
0000
0000
0000
0000
0000
0000
,
0000
0000
0000
0000
0002
0000
0000
0000
0203
0000
0000
0000
0320
0000
0000
0000
2030
0000
0100
0000
0000
3000
M000
0000
0000
0000
0000
0000
0000
0000
0000
0000
,
0000
0000
0000
0000
0000
0000
0000
0000
0002
0000
0000
0000
0203
0000
0000
0000
0320
0000
1000
0000
0000
0030
00M0
0000
0000
0000
0000
0000
0000
0000
0000
0000
,
0000
0000
0000
0000
2000
0000
3020
0000
2030
0001
3000
M000
0000
0000
0000
0000
,
0000
0000
2000
0000
3020
0000
0230
0000
0302
0203
0310
2000
3001
0010
0100
1000
,
0001
0100
0010
0010
1000
1000
0100
0100
0020
0032
0103
0020
1030
0100
1000
0001
,
0100
0010
1000
0100
2000
3010
0100
0001
1000
0100
0010
0001
0010
0100
1000
0001
,
0100
0010
0100
0001
1000
0100
0010
0100
1000
0001
0010
0100
1000
0001
0100
0010
,
0100
0000
0000
0001
0000
0000
1000
0000
0000
0100
0000
0000
0010
0000
0000
0001
0000
0000
1000
0000
0000
0010
0000
0000
1000
0000
0100
0000
0010
0000
0100
0000
1000
0000
0001
0000
0100
0000
0010
0000
0100
0000
0001
0000
1000
0000
0100
0000
,
0010
0100
1000
0001
0010
0100
1000
0001
0100
0010
0100
0001
1000
0100
0010
0100
1000
0001
0010
0100
1000
0001
0100
0010
,
0100
0000
0001
0000
1000
0000
0100
0000
0010
0000
0100
0000
1000
0000
0001
0000
0010
0000
0100
0000
1000
0000
0001
0000
0100
0000
0000
0000
0000
0000
0000
0000
0000
0010
0000
0000
1000
0000
0000
0000
0000
0000
0100
0000
0000
0000
0000
0000
,
0010
0000
0000
0000
0001
0000
0100
0000
0010
0000
1000
0000
0001
0000
0000
0000
1000
0001
1000
0001
1000
0000
0000
0000
0110
0000
0000
0000
0100
0000
0001
0000
,
0100
0000
0010
1000
0010
0000
0100
0001
0200
0000
0320
0000
0000
0000
0130
0000
,
0002
0000
0000
0000
0103
0000
0000
0000
0010
0000
0000
0000
1000
0000
0000
0000
0001
1000
0001
1000
0001
0000
0010
0000
0001
0000
0000
0000
1000
0000
0010
0000
,
0200
0000
0304
0000
1003
0200
0000
0310
,
0001
0000
0000
0000
0100
0000
0000
0000
0010
0000
1000
0000
0001
0000
0000
0000
1000
0001
1000
0001
1000
0000
0010
0000
1000
0000
0000
0000
0001
0000
0100
0000
,
0020
0000
0000
0000
1030
0000
0001
0000
0400
0000
0310
0000
1000
0000
0010
0100
,
0001
0000
1000
0100
0010
0100
1000
0000
0001
0010
0100
1000
0001
0100
0010
0100
,
0001
0000
0000
0000
0000
0000
1000
0000
0000
0000
0000
0000
0001
0000
0100
0000
0010
0000
1000
0000
0001
0000
0100
0000
0010
0000
0000
0000
0000
0000
0000
0000
0000
1000
0000
0000
0100
0000
0000
0000
0000
0000
0010
0000
0000
0001
0000
0000
,
1000
0000
0000
0000
0000
0000
0000
0000
1001
0000
0000
0000
0010
0000
0000
0000
1000
0100
0010
0001
1000
0000
0000
0000
0002
0000
0000
0000
0000
0000
0000
0000
,
0203
0000
0010
0000
1000
1000
0000
0301
,
1000
0000
0000
0000
0000
0000
0010
0000
0100
0000
0000
0000
0001
0000
0000
0000
1000
0010
1000
0010
1000
0000
0000
0000
0001
0000
0000
0000
1000
0000
0001
0000
,
0200
0000
0010
0000
1000
1000
0000
0001
,
0300
0000
0000
0000
0000
0000
0000
0000
1001
0000
0000
0000
0010
0000
0100
0000
0001
0010
0001
0010
0001
0000
0000
0000
0100
0000
0000
0000
0010
0000
1000
0000
,
0002
0000
0000
0000
0103
0000
0000
0000
0010
0000
0000
0100
0100
0000
0000
0010
,
0010
0000
0000
1000
1000
0000
0000
0010
0010
0100
0001
0100
0010
1000
0100
0010
,
0100
0000
0000
1000
0000
0000
0001
0000
0000
0100
0000
0000
0010
0000
1000
0000
0100
0000
0010
0000
0100
0000
1000
0000
0010
0000
0000
0000
0000
0000
1000
0000
0000
0000
0000
0000
0000
0000
0000
0000
0000
0000
0100
0000
0000
0000
0000
0000
,
0000
0000
0000
2000
,
3200
0000
2300
0000
3001
1000
0000
0001
,
0000
0000
0000
0000
,
0002
0000
2003
0000
3001
0100
0000
0001
;
