#TITLE:Mumbo's Mountain;
#SUBTITLE:Banjo-Kazooie;
#ARTIST:Rareware;
#TITLETRANSLIT:;
#SUBTITLETRANSLIT:;
#ARTISTTRANSLIT:;
#CREDIT:;
#BANNER:mm.png;
#BACKGROUND:mm-bg.png;
#LYRICSPATH:;
#CDTITLE:kyka06.png;
#MUSIC:MumbosMountain.mp3;
#OFFSET:-0.640;
#SAMPLESTART:59.647;
#SAMPLELENGTH:12.500;
#SELECTABLE:YES;
#BPMS:0.000=190.000;
#STOPS:;
#BGCHANGES:;
// cache tags:
#FIRSTBEAT:0.000;
#LASTBEAT:400.000;
#SONGFILENAME:Songs/new/BK - Mumbo's Mountain/mm.sm;
#HASMUSIC:1;
#HASBANNER:1;
#MUSICLENGTH:134.564;
// end cache tags

//---------------dance-single - ----------------
#NOTES:
     dance-single:
     :
     Hard:
     9:
     0.658,0.706,0.565,0.000,0.476,544.000,76.000,0.000,0.000,0.000:
0110
0000
0100
1000
0001
0000
1010
0000
,
0001
0000
1000
0100
0001
0000
1010
0000
,
0100
0000
0001
1000
0000
0000
0010
0000
0000
0000
0000
0000
,
0100
0000
1000
0001
0000
0000
0010
0000
0000
0000
0000
0000
,
0100
0000
0001
1000
0000
0000
1000
0000
1000
0010
0000
0010
,
0001
0000
0001
1000
0000
1000
0100
0000
0000
0100
0001
1000
,
0010
0000
0001
1000
0000
0000
0100
0000
0000
0000
0000
0000
,
0001
0000
1000
0010
0000
0000
0101
0000
0000
0000
0000
0000
,
1000
0000
0100
0001
0000
1000
0010
0000
0000
0001
0000
0000
,
1000
0000
0100
0001
0000
0000
1000
0000
0000
0001
0010
0001
,
0010
0000
1000
0100
0000
0000
1000
0001
0100
0010
0001
1000
,
0001
0000
0010
1000
0000
0000
0010
1000
0100
1000
0001
0010
,
0100
0000
1000
0001
0000
0000
0010
0000
1000
0001
0000
0100
,
1000
0000
0001
0010
0000
0100
0001
0000
0000
1000
0010
0001
,
0100
0000
1000
0001
0000
0000
1000
0100
0001
0010
1000
0100
,
0001
0000
0001
0100
0000
0000
0001
0010
0100
0001
0100
0010
,
0100
0000
0001
0010
0000
0100
1000
0000
0000
1001
0000
0000
,
0101
0000
1000
0001
0000
0000
1010
0000
0000
0110
0000
0000
,
0100
0000
0000
0001
0000
1000
0010
0000
0000
0001
0100
1000
,
0100
0000
0000
0001
0000
1000
0010
0000
0001
1000
0000
0100
,
0001
0000
1000
0010
0000
0000
0001
0000
0000
1000
0000
0000
,
0100
0000
0000
0001
0000
1000
0010
0000
0000
0001
0000
0000
,
1000
0000
0000
0100
0001
1000
0010
0000
0001
1000
0000
0100
,
0001
0000
1000
0010
0000
0000
0001
0000
0000
0010
0000
0000
,
1000
0000
0000
0001
0000
0100
1000
0000
0000
0001
0000
0010
,
1000
0000
0000
0001
0000
0100
1000
0000
0000
0001
0000
0000
,
0010
0000
1000
0010
0000
0000
0001
0000
0000
1000
0000
0000
,
0100
0000
0001
1000
0000
0000
0010
0000
0000
0001
1000
0100
,
1000
0000
0100
0001
0000
0000
0100
0010
0100
0010
0001
1000
,
0010
0000
1000
0100
0000
0000
1000
0100
0001
0100
0001
1000
,
0001
0000
0100
0010
0000
0000
1000
0000
0100
0010
0000
0001
,
0100
0000
0010
1000
0000
0001
0010
0000
0000
0100
1000
0010
,
0001
0000
0100
0010
0000
0000
0100
1000
0100
1000
0001
1000
,
0010
0000
0010
0001
0000
0000
0010
0001
1000
0100
1000
0100
,
0001
0000
0010
1000
0000
0001
0100
0000
0000
0110
0000
0000
,
0011
0000
0100
0010
0000
0000
1100
0000
0000
1001
0000
0000
,
0110
0001
0011
1000
,
0101
0010
1001
0010
,
0100
0000
0000
0001
1000
0000
0011
0000
,
0011
0000
0000
0000
1000
0000
0001
0100
,
0010
0000
0000
1000
0001
0000
0011
0000
,
1001
1000
1100
0011
,
1100
0000
0000
0010
0100
0000
1000
0000
,
0110
1001
0101
1001
,
0110
0010
0101
1000
,
0011
0010
1010
0100
,
0011
0000
0000
0100
1000
0000
0101
0000
,
0011
0000
0000
0000
0000
0000
1000
0001
,
0100
0000
0000
1000
0001
0000
1010
0000
,
1001
0110
0011
1001
,
0110
0000
0100
0001
0100
1000
0100
0010
,
0100
1000
0001
0000
,
0110
0001
0011
1000
,
0101
0010
1001
0010
,
0100
0000
0000
0001
1000
0000
0011
0000
,
0011
0000
0000
0000
1000
0000
0001
0100
,
0010
0000
0000
1000
0001
0000
0011
0000
,
1001
1000
1100
0011
,
1100
0000
0000
0010
0100
0000
1000
0000
,
0110
1001
0101
1001
,
0110
0010
0101
1000
,
0011
0010
1010
0100
,
0011
0000
0000
0100
1000
0000
0101
0000
,
0011
0000
0000
0000
0000
0000
1000
0001
,
0100
0000
0000
1000
0001
0000
1010
0000
,
1001
0110
0011
1001
,
0110
0000
0100
0001
0100
1000
0100
0010
,
0110
1001
0101
0000
,
0100
0000
0000
0010
0000
1000
0001
0000
0000
0001
0100
1000
,
0100
0000
0000
1000
0000
0010
0001
0000
1000
0100
0000
0001
,
1000
0000
0010
0001
0000
0000
0010
0000
0000
1000
0000
0000
,
0001
0000
0000
0100
0000
1000
0001
0000
0000
0010
0000
0000
,
1000
0000
0000
0001
0100
1000
0001
0000
0010
0100
0000
0001
,
1000
0000
0100
0001
0000
0000
1000
0000
0000
0010
0000
0000
,
0001
0000
0000
0010
0000
1000
0001
0000
0000
0100
0000
1000
,
0001
0000
0000
0010
0000
0100
0001
0000
0000
1000
0000
0000
,
0010
0000
0001
1000
0000
0000
0100
0000
0000
0001
0000
0000
,
1000
0000
0100
1000
0000
0000
0001
0000
0000
1000
0000
0000
,
0100
0000
0001
1000
0000
0000
0010
0000
0000
0000
0000
0000
,
0001
0000
1000
0100
0000
0000
0001
0000
0000
0000
0000
0000
,
1000
0000
0010
0001
0000
0000
0001
0000
0001
1000
0000
1000
,
0100
0000
0100
0001
0000
0001
1000
0000
0000
1000
0010
0001
,
0010
0000
0100
1000
0000
0000
0001
0000
0000
0000
0000
0000
,
0010
0000
1000
0001
0000
0000
0100
0000
0000
0000
0000
0000
,
1000
0000
0001
0010
0000
1000
0001
0000
0000
0100
0000
0000
,
1000
0000
0001
0010
0000
0000
1000
0000
0000
0000
0000
0000
,
0100
0000
0001
0010
1000
0000
0010
0100
,
0001
0000
1000
0010
0100
0000
0001
1000
,
0010
0000
0001
0010
0100
0000
0001
0100
,
0010
0000
0001
0010
0100
0000
0001
1000
,
0010
0000
0001
1000
0100
0000
0001
0100
,
0001
0000
1000
0010
0001
0000
0001
0010
,
0100
0000
0001
0000
1000
0010
0001
1000
,
0100
0001
1000
0010
,
0001
0000
1000
0000
0100
0001
0010
1000
,
0001
1000
0100
0001
,
1000
0000
0010
0000
0100
0010
0001
1000
,
0100
0001
1000
0010
,
0110
0000
0001
1000
0100
0000
1010
0000
,
1001
0000
1000
0100
0001
0000
1010
0000
,
0110
0000
0000
0000
;

//---------------dance-single - ----------------
#NOTES:
     dance-single:
     :
     Medium:
     6:
     0.425,0.483,0.030,0.000,0.000,396.000,4.000,0.000,0.000,0.000:
1000
0001
1000
0001
,
0010
0100
0010
0100
,
1000
0100
0010
0000
,
0001
0100
0010
0000
,
1000
0100
0010
0001
,
0100
0000
0010
0000
1000
0000
0100
1000
,
0100
0010
0001
0000
,
0100
0010
1000
0000
,
0001
0010
0100
1000
,
0010
0100
0010
0000
1000
0100
1000
0100
,
0010
0000
0001
0000
1000
0010
1000
0010
,
1000
0000
0100
0000
0010
0001
0010
0001
,
0100
0000
0010
0000
1000
0100
0010
0001
,
0100
0010
1000
0100
0010
0000
0001
0000
,
0100
0000
0010
0000
1000
0100
1000
0100
,
0010
0000
0001
0000
0100
0010
0100
0010
,
1000
0100
0010
0001
,
0100
0001
0010
0000
0001
0000
0000
0000
,
1000
0000
0010
0000
,
0100
0000
0001
0001
,
1000
0000
0100
0000
,
0110
0000
0001
0010
,
0001
0000
1000
0000
,
0100
0000
0010
0001
,
0100
0000
1000
0000
,
1000
0000
0100
0000
,
0010
0100
0010
0000
,
0001
1000
0001
0010
,
0100
0000
0000
0000
1000
0100
1000
0100
,
0010
0000
0001
0000
0100
0001
0010
0001
,
0100
0010
1000
0100
,
0010
0001
0100
0001
,
0010
0000
0100
0000
1000
0010
1000
0010
,
0100
0000
0001
0000
0010
0001
0100
0001
,
0010
0001
1000
0100
,
0010
0001
0010
0000
0001
0000
0100
0000
,
0010
0000
0100
0000
,
0010
0000
0001
0000
,
0100
0000
0000
0100
0010
0000
0010
0000
,
0010
0000
0000
1000
,
0001
0000
0000
0010
0100
0000
1000
0000
,
0010
0000
0100
0100
,
0001
0000
0000
0001
0010
0000
0100
0000
,
1000
1000
0010
0010
,
0100
0000
0001
0000
,
0010
0000
0100
0000
,
1000
0000
0000
1000
0010
0000
0010
0000
,
0100
0000
0000
0000
0000
0000
0001
0010
,
0001
0000
0000
0001
1000
0000
0000
0000
,
0100
0000
0010
0000
,
0001
0000
0010
0001
0010
0000
0010
0001
,
0010
0100
1000
0000
,
0001
0010
0100
0010
,
0001
0100
0010
1000
,
0100
0010
0001
0100
,
0010
1000
0100
1000
,
0010
0100
0001
0010
,
0001
1000
0100
0010
,
0001
0100
0010
1000
,
0010
0100
0010
1000
,
0100
0010
0001
0100
,
0010
0100
0010
0001
,
1000
0100
0010
0001
,
0100
0001
0010
0001
,
1000
0100
0010
0001
,
0100
0010
1000
0100
,
1000
0010
0100
0001
,
0010
0001
1001
0000
,
1000
0000
0100
0010
0001
0000
0100
0010
,
0100
0000
0010
1000
0100
0000
0010
0000
,
0001
0100
0010
1000
,
0100
0000
0010
0001
0010
0000
0001
0000
,
0100
0000
0010
0100
0010
0000
1000
0000
,
0100
0010
0001
0100
,
0010
0000
1000
0100
1000
0000
0001
0010
,
0001
0000
0100
0010
0100
0000
0010
0000
,
1000
0100
1000
0000
0001
0000
0010
0000
,
0100
0010
0100
0000
1000
0000
0001
0000
,
1000
0001
0010
0000
,
0010
0100
1000
0000
,
0100
0001
0010
0001
,
1000
0000
0010
0000
0100
0000
1000
0100
,
1000
0001
0010
0000
,
0100
0010
0001
0000
,
1000
0001
0100
0010
,
1000
0100
0010
0000
,
1000
0000
0001
0010
0000
0000
0100
0000
,
0000
0000
1000
0100
0000
0000
0010
0000
,
0000
0000
0100
0010
0000
0000
1000
0100
,
0000
0000
0010
0001
0000
0000
0100
0010
,
0000
0000
1000
0100
0000
0000
0001
0000
,
0000
0000
0100
0001
0000
0000
1100
0000
,
0010
0100
0010
1000
,
0100
0010
0001
0000
,
1000
0000
0100
0000
0010
0001
0010
0001
,
0010
0001
0100
0000
,
0010
0000
1000
0000
0100
0010
0001
0100
,
0010
1000
0100
0000
,
1000
0001
0010
0100
,
1000
0010
0100
0001
,
0110
0000
0000
0000
;

//---------------dance-single - ----------------
#NOTES:
     dance-single:
     :
     Challenge:
     10:
     0.748,0.855,0.126,0.000,0.483,688.000,17.000,0.000,0.000,0.000:
1001
0000
1000
0010
0100
0000
0011
0000
,
0100
0000
0010
1000
0100
0000
0011
0000
,
1000
0000
0100
0010
0000
0000
0001
0000
0000
0000
0000
0000
,
1000
0000
0010
0100
0000
0000
0001
0000
0000
0000
0000
0000
,
1000
0000
0100
0010
0000
0000
0010
0000
0010
0001
0000
0001
,
0100
0000
0100
0010
0000
0010
1000
0000
0000
1000
0100
0010
,
0001
0000
0100
0010
0000
0000
1000
0000
0000
0000
0000
0000
,
0100
0000
0010
0001
0000
0000
1100
0000
0000
0000
0000
0000
,
0010
0000
1000
0100
0000
0010
0001
0000
0000
0100
0000
0000
,
0010
0000
1000
0100
0000
0000
0010
0000
0000
0100
0001
0100
,
0001
0000
0000
0000
0000
0000
0000
0000
0010
0000
0000
0000
1000
0000
0000
0000
0000
0000
0000
0000
0000
0000
0000
0000
0010
0000
0000
0100
0000
0000
1000
0000
0000
0100
0000
0000
1000
0000
0000
0010
0000
0000
1000
0000
0000
0010
0000
0000
,
0100
0000
0000
0000
0000
0000
0000
0000
0001
0000
0000
0000
0010
0000
0000
0000
0000
0000
0000
0000
0000
0000
0000
0000
0001
0000
0000
0010
0000
0000
1000
0000
0000
0010
0000
0000
1000
0000
0000
0010
0000
0000
1000
0000
0000
0010
0000
0000
,
1000
0000
0010
0100
0000
0000
0001
0000
0010
0100
0000
1000
,
0010
0000
0100
0001
0000
1000
0100
0000
0000
0010
0001
0100
,
1000
0000
0000
0000
0000
0000
0000
0000
0010
0000
0000
0000
0100
0000
0000
0000
0000
0000
0000
0000
0000
0000
0000
0000
0010
0000
0000
0001
0000
0000
0100
0000
0000
0001
0000
0000
0100
0000
0000
0010
0000
0000
1000
0000
0000
0010
0000
0000
,
0100
0000
0000
0000
0000
0000
0000
0000
0100
0000
0000
0000
1000
0000
0000
0000
0000
0000
0000
0000
0000
0000
0000
0000
0100
0000
0000
0001
0000
0000
0100
0000
0000
0001
0000
0000
0010
0000
0000
0001
0000
0000
0100
0000
0000
0001
0000
0000
,
1000
0000
0100
0001
0000
1000
0010
0000
0000
0110
0000
0000
,
1100
0000
0000
0000
0010
1000
0100
0000
0000
0000
0000
0000
0011
0000
0000
0000
0000
0000
1001
0000
0000
0000
0000
0000
,
1000
0000
0000
0100
0000
0010
0001
0000
0000
0100
1000
0010
,
1000
0000
0000
0100
0000
0010
0001
0000
0100
0010
0000
1000
,
0100
0000
0010
0001
0000
0000
0100
0000
0000
0010
0000
0000
,
1000
0000
0000
0100
0000
0010
0001
0000
0000
0100
0000
0000
,
0010
0000
0000
1000
0100
0010
0001
0000
0100
0010
0000
1000
,
0100
0000
0010
0001
0000
0000
0100
0000
0000
0001
0000
0000
,
0010
0000
0000
0100
0000
1000
0010
0000
0000
0100
0000
0001
,
0010
0000
0000
0100
0000
1000
0010
0000
0000
0100
0000
0000
,
0001
0000
0010
0001
0000
0000
0100
0000
0000
0010
0000
0000
,
1000
0000
0100
0010
0000
0000
0001
0000
0000
0100
0010
1000
,
0010
0000
0000
0000
0000
0000
0000
0000
1000
0000
0000
0000
0100
0000
0000
0000
0000
0000
0000
0000
0000
0000
0000
0000
1000
0000
0000
0001
0000
0000
0100
0000
0000
0001
0000
0000
0100
0000
0000
1000
0000
0000
0100
0000
0000
1000
0000
0000
,
0001
0000
0000
0000
0000
0000
0000
0000
0010
0000
0000
0000
1000
0000
0000
0000
0000
0000
0000
0000
0000
0000
0000
0000
0010
0000
0000
1000
0000
0000
0100
0000
0000
1000
0000
0000
0100
0000
0000
1000
0000
0000
0100
0000
0000
1000
0000
0000
,
0100
0000
1000
0001
0000
0000
0010
0000
1000
0001
0000
0100
,
1000
0000
0001
0010
0000
0100
0001
0000
0000
1000
0010
0001
,
0100
0000
0000
0000
0000
0000
0000
0000
1000
0000
0000
0000
0001
0000
0000
0000
0000
0000
0000
0000
0000
0000
0000
0000
1000
0000
0000
0010
0000
0000
0001
0000
0000
0010
0000
0000
0001
0000
0000
1000
0000
0000
0100
0000
0000
1000
0000
0000
,
0001
0000
0000
0000
0000
0000
0000
0000
0001
0000
0000
0000
0100
0000
0000
0000
0000
0000
0000
0000
0000
0000
0000
0000
0001
0000
0000
0010
0000
0000
0001
0000
0000
0010
0000
0000
1000
0000
0000
0010
0000
0000
0001
0000
0000
0010
0000
0000
,
0100
0000
0001
0010
0000
0100
1000
0000
0000
1001
0000
0000
,
0101
0000
0000
0000
1000
0100
0001
0000
0000
0000
0000
0000
1010
0000
0000
0000
0000
0000
0110
0000
0000
0000
0000
0000
,
0100
0010
1000
0100
0010
0001
0100
0001
,
0100
0001
0010
0100
1000
0010
0100
0001
,
0010
0001
0100
0010
1000
0100
0010
0001
,
0100
0001
0010
0001
0100
0010
1000
0100
,
0001
0100
0010
1000
0010
0001
0100
0010
,
1000
0100
0010
0001
0100
0010
1000
0001
,
0100
0001
0010
0100
1000
0010
0100
0001
,
1000
0100
0001
0100
0010
1000
0010
0001
,
0010
0001
0010
0001
0100
0001
0100
0001
,
0010
0001
0010
0001
0100
0001
0100
0001
,
1000
0010
0100
0010
1000
0100
0010
0100
,
1000
0010
0100
0010
1000
0100
0010
0001
,
0100
0010
1000
0100
0010
0001
0100
0010
,
1000
0100
0010
0001
0100
0010
1000
0100
,
0010
0001
0100
0001
0010
0001
0100
0001
,
1000
0100
1000
0100
0010
0100
1000
0010
,
0100
0010
1000
0100
0010
0001
0100
0001
,
0100
0001
0010
0100
1000
0010
0100
0001
,
0010
0001
0100
0010
1000
0100
0010
0001
,
0100
0001
0010
0001
0100
0010
1000
0100
,
0001
0100
0010
1000
0010
0001
0100
0010
,
1000
0100
0010
0001
0100
0010
1000
0001
,
0100
0001
0010
0100
1000
0010
0100
0001
,
1000
0100
0001
0100
0010
1000
0010
0001
,
0010
0001
0010
0001
0100
0001
0100
0001
,
0010
0001
0010
0001
0100
0001
0100
0001
,
1000
0010
0100
0010
1000
0100
0010
0100
,
1000
0010
0100
0010
1000
0100
0010
0001
,
0100
0010
1000
0100
0010
0001
0100
0010
,
1000
0100
0010
0001
0100
0010
1000
0100
,
0010
0001
0100
0001
0010
0001
0100
0001
,
1000
0100
1000
0100
0010
0100
1000
0010
,
1000
0000
0000
0001
0000
0010
0100
0000
0000
0100
1000
0010
,
1000
0000
0000
0010
0000
0001
0100
0000
0010
1000
0000
0100
,
0010
0000
0001
0100
0000
0000
0001
0000
0000
0010
0000
0000
,
0100
0000
0000
1000
0000
0010
0100
0000
0000
0001
0000
0000
,
0010
0000
0000
0100
1000
0010
0100
0000
0001
1000
0000
0100
,
0010
0000
1000
0100
0000
0000
0010
0000
0000
0001
0000
0000
,
0100
0000
0000
0001
0000
0010
0100
0000
0000
1000
0000
0010
,
0100
0000
0000
0001
0000
1000
0100
0000
0000
0010
0000
0000
,
0001
0000
0100
0010
0000
0000
1000
0000
0000
0100
0000
0000
,
0010
0000
1000
0010
0000
0000
0100
0000
0000
0010
0000
0000
,
1000
0000
0100
0010
0000
0000
0001
0000
0000
0000
0000
0000
,
0100
0000
0010
1000
0000
0000
0100
0000
0000
0000
0000
0000
,
0010
0000
0001
0100
0000
0000
0100
0000
0100
0010
0000
0010
,
1000
0000
1000
0100
0000
0100
0010
0000
0000
0010
0001
0100
,
0001
0000
1000
0010
0000
0000
0100
0000
0000
0000
0000
0000
,
0001
0000
0010
0100
0000
0000
1000
0000
0000
0000
0000
0000
,
0010
0000
0100
0001
0000
0010
0100
0000
0000
1000
0000
0000
,
0010
0000
0100
0001
0000
0000
0010
0000
0000
0000
0000
0000
,
1000
0000
0100
0001
0010
0000
0001
1000
,
0100
0000
0010
0001
1000
0000
0100
0010
,
0001
0000
0100
0001
1000
0000
0100
1000
,
0001
0000
0100
0001
1000
0000
0100
0010
,
0001
0000
0100
0010
1000
0000
0100
1000
,
0100
0000
0010
0001
0100
0000
0100
0001
,
1000
0000
0100
0000
0010
0001
0100
0010
,
1000
0100
0010
0001
,
0100
0000
0010
0000
1000
0100
0001
0010
,
0100
0010
1000
0100
,
0010
0000
0001
0000
1000
0001
0100
0010
,
1000
0100
0010
0001
,
1001
0000
0100
0010
1000
0000
0011
0000
,
0110
0000
0010
1000
0100
0000
0011
0000
,
1001
0000
0000
0000
;

//---------------dance-single - ----------------
#NOTES:
     dance-single:
     :
     Easy:
     3:
     0.262,0.297,0.007,0.000,0.000,246.000,1.000,0.000,0.000,0.000:
0010
0000
0010
0000
,
0001
0000
0001
0000
,
0010
1000
0001
0000
,
0100
1000
0001
0000
,
0010
0000
0001
0000
,
1000
0001
0000
0000
,
1000
0001
0100
0000
,
1000
0001
0010
0000
,
0100
0000
1000
0000
,
0001
0000
0010
0000
,
0001
0100
0010
0000
,
0010
1000
0001
0000
,
1000
0001
0010
0001
,
1000
0010
0001
0000
,
1000
0001
0010
0000
,
0001
0100
1000
0000
,
0010
1000
0001
0100
,
1000
0001
0100
0000
,
0010
0000
0001
0000
,
1000
0000
0100
0000
,
0010
0000
1000
0000
,
1000
0000
0100
0000
,
0100
0000
0010
0000
,
1000
0000
0001
0000
,
1000
0000
0010
0000
,
0010
0000
1000
0000
,
0001
0000
0001
0000
,
0100
0000
0100
0000
,
1000
0001
0010
0000
,
0001
0100
1000
0000
,
1000
0001
0010
1000
,
0001
0100
1000
0000
,
0001
1000
0010
0000
,
1000
0100
0001
0000
,
0001
0100
0010
1000
,
0001
0001
0100
0000
,
0001
0000
1000
0000
,
0001
0000
0100
0000
,
1000
0000
0001
0000
,
0001
0000
1000
0000
,
0100
0000
1000
0000
,
0001
0000
1000
0000
,
0100
0000
0001
0000
,
0010
0000
0001
0000
,
1000
0000
0100
0000
,
0001
0000
1000
0000
,
0010
0000
0001
0000
,
1000
0000
0100
0000
,
0100
0000
0010
0000
,
1000
0000
0001
0000
,
0100
0000
0001
0000
,
0010
0000
0100
0000
,
0010
0000
0001
0000
,
0100
0000
0010
0000
,
0010
0000
0100
0000
,
0001
0000
0100
0000
,
0010
0000
0100
0000
,
0001
0000
0010
0000
,
1000
0000
0010
0000
,
0100
0000
0001
0000
,
0010
0000
0100
0000
,
1000
0000
0010
0000
,
0100
0000
0001
0000
,
0001
0000
1000
0000
,
0100
0000
0010
0000
,
0001
0000
0010
0000
,
0010
0001
1000
0100
,
0001
0100
0010
0000
,
0010
0000
0100
0000
,
1000
0000
1000
0000
,
0100
0000
0001
0000
,
1000
0000
0001
0000
,
1000
0000
0001
0000
,
1000
0000
0100
0000
,
0001
0000
0010
0000
,
0100
0000
1000
0000
,
0010
0000
0100
0000
,
1000
0000
0010
0000
,
0010
0100
0001
0000
,
0001
1000
0010
0000
,
1000
0100
0001
0100
,
0010
0001
1000
0000
,
0010
0100
0001
0000
,
1000
0001
0100
0000
,
0010
0100
1000
0001
,
0010
1000
0001
0000
,
0010
0000
1000
0000
,
0010
0000
0001
0000
,
1000
0000
0010
0000
,
0001
0000
1000
0000
,
0010
0000
0100
0000
,
1000
0000
0000
0000
,
0001
1000
0001
0010
,
1000
0001
0100
0000
,
0010
1000
0001
0001
,
0001
0100
1000
0000
,
0001
0010
1000
0100
,
0001
0010
1000
0000
,
0010
0000
0001
0000
,
0010
0000
1000
0000
,
1001
0000
0000
0000
;
