#TITLE:Dark Chest Of Wonders;
#SUBTITLE:;
#ARTIST:Nightwish;
#TITLETRANSLIT:;
#SUBTITLETRANSLIT:;
#ARTISTTRANSLIT:;
#CREDIT:Wavanova;
#BANNER:Dark Chest Banner.jpg;
#BACKGROUND:blackBG.jpg;
#LYRICSPATH:;
#CDTITLE:wavanova06.jpg;
#MUSIC:Nightwish - Dark Chest Of Wonders (Short).mp3;
#OFFSET:0.000;
#SAMPLESTART:74.900;
#SAMPLELENGTH:12.000;
#SELECTABLE:YES;
#BPMS:0.000=83.500,6.000=167.000,30.167=203.000,65.000=167.000,118.000=176.000,159.625=16.000,160.000=158.000,215.500=167.000;
#STOPS:28.250=0.200
,30.167=1.000
,87.250=0.200
,94.125=0.300
,100.625=0.300
,106.875=0.300
,137.750=0.100
,138.250=0.100
,138.750=0.100
,147.750=0.140
,148.250=0.140
,148.750=0.140
,164.500=0.040
,166.000=0.040
,167.500=0.040
,170.750=0.040
,172.250=0.040
,173.750=0.040
,190.500=0.040
,192.000=0.040
,193.500=0.040
,196.750=0.040
,198.250=0.040
,199.750=0.040
,223.500=0.140
,224.000=0.140
,224.500=0.140
,233.000=0.140
,233.500=0.140
,234.000=0.140
,242.250=0.140
,242.750=0.140
,243.250=0.140
,255.000=0.420
,255.500=0.460
,259.750=0.420
,260.250=0.420
,278.500=0.420
,279.000=0.460
,283.250=0.420
,283.750=0.420
;
#BGCHANGES:0.000=Once111.jpg=1.000=1=0=1,
2.000=IHadADream111.jpg=1.000=1=0=1,
4.000=AndThisIsIt111.jpg=1.000=1=0=1,
6.000=Nightwish - Dark Chest Of Wonders1.jpg=1.000=0=0=1,
126.500=Nightwish - Dark Chest Of Wonders2.jpg=1.000=0=0=1,
127.500=Nightwish - Dark Chest Of Wonders1.jpg=1.000=0=0=1,
128.250=Nightwish - Dark Chest Of Wonders2.jpg=1.000=0=0=1,
129.250=Nightwish - Dark Chest Of Wonders1.jpg=1.000=0=0=1,
137.750=Nightwish - Dark Chest Of Wonders3.jpg=1.000=0=0=1,
138.250=Nightwish - Dark Chest Of Wonders1.jpg=1.000=0=0=1,
138.750=Nightwish - Dark Chest Of Wonders3.jpg=1.000=0=0=1,
139.250=Nightwish - Dark Chest Of Wonders1.jpg=1.000=0=0=1,
147.750=Nightwish - Dark Chest Of Wonders2.jpg=1.000=0=0=1,
148.250=Nightwish - Dark Chest Of Wonders1.jpg=1.000=0=0=1,
148.750=Nightwish - Dark Chest Of Wonders2.jpg=1.000=0=0=1,
149.250=Nightwish - Dark Chest Of Wonders1.jpg=1.000=0=0=1,
159.938=Nightwish - Dark Chest Of Wonders2.jpg=1.000=0=0=1,
160.000=Nightwish - Dark Chest Of Wonders1.jpg=1.000=0=0=1,
164.500=Nightwish - Dark Chest Of Wonders2.jpg=1.000=0=0=1,
166.000=Nightwish - Dark Chest Of Wonders1.jpg=1.000=0=0=1,
167.500=Nightwish - Dark Chest Of Wonders2.jpg=1.000=0=0=1,
170.750=Nightwish - Dark Chest Of Wonders1.jpg=1.000=0=0=1,
172.250=Nightwish - Dark Chest Of Wonders2.jpg=1.000=0=0=1,
173.750=Nightwish - Dark Chest Of Wonders1.jpg=1.000=0=0=1,
190.500=Nightwish - Dark Chest Of Wonders3.jpg=1.000=0=0=1,
192.000=Nightwish - Dark Chest Of Wonders1.jpg=1.000=0=0=1,
193.500=Nightwish - Dark Chest Of Wonders3.jpg=1.000=0=0=1,
196.750=Nightwish - Dark Chest Of Wonders1.jpg=1.000=0=0=1,
198.250=Nightwish - Dark Chest Of Wonders3.jpg=1.000=0=0=1,
199.750=Nightwish - Dark Chest Of Wonders1.jpg=1.000=0=0=1,
223.500=Nightwish - Dark Chest Of Wonders3.jpg=1.000=0=0=1,
224.000=Nightwish - Dark Chest Of Wonders1.jpg=1.000=0=0=1,
224.500=Nightwish - Dark Chest Of Wonders3.jpg=1.000=0=0=1,
225.000=Nightwish - Dark Chest Of Wonders1.jpg=1.000=0=0=1,
233.000=Nightwish - Dark Chest Of Wonders2.jpg=1.000=0=0=1,
233.500=Nightwish - Dark Chest Of Wonders1.jpg=1.000=0=0=1,
234.000=Nightwish - Dark Chest Of Wonders2.jpg=1.000=0=0=1,
234.500=Nightwish - Dark Chest Of Wonders1.jpg=1.000=0=0=1,
242.250=Nightwish - Dark Chest Of Wonders3.jpg=1.000=0=0=1,
242.750=Nightwish - Dark Chest Of Wonders1.jpg=1.000=0=0=1,
243.250=Nightwish - Dark Chest Of Wonders3.jpg=1.000=0=0=1,
243.750=Nightwish - Dark Chest Of Wonders1.jpg=1.000=0=0=1,
255.000=Nightwish - Dark Chest Of Wonders3.jpg=1.000=0=0=1,
255.500=Nightwish - Dark Chest Of Wonders2.jpg=1.000=0=0=1,
256.000=Nightwish - Dark Chest Of Wonders1.jpg=1.000=0=0=1,
259.750=Nightwish - Dark Chest Of Wonders3.jpg=1.000=0=0=1,
260.250=Nightwish - Dark Chest Of Wonders2.jpg=1.000=0=0=1,
260.750=Nightwish - Dark Chest Of Wonders1.jpg=1.000=0=0=1,
278.500=Nightwish - Dark Chest Of Wonders3.jpg=1.000=0=0=1,
279.000=Nightwish - Dark Chest Of Wonders2.jpg=1.000=0=0=1,
279.500=Nightwish - Dark Chest Of Wonders1.jpg=1.000=0=0=1,
283.250=Nightwish - Dark Chest Of Wonders3.jpg=1.000=0=0=1,
283.750=Nightwish - Dark Chest Of Wonders2.jpg=1.000=0=0=1,
284.250=Nightwish - Dark Chest Of Wonders1.jpg=1.000=0=0=1,
99999=-nosongbg-=1.000=0=0=0 // don't automatically add -songbackground-
;
// cache tags:
#FIRSTBEAT:6.000;
#LASTBEAT:363.000;
#SONGFILENAME:Songs/keyboard/3/Nightwish - Dark Chest Of Wonders (Short).sm;
#HASMUSIC:1;
#HASBANNER:1;
#MUSICLENGTH:139.911;
// end cache tags

//---------------dance-single - ----------------
#NOTES:
     dance-single:
     :
     Hard:
     11:
     0.845,1.000,0.843,1.000,0.990,494.000,118.000,216.000,0.000,30.000:
0000
0000
0000
0000
,
0000
0000
0000
0000
0000
0000
0000
0000
1001
0000
0000
0020
0030
0101
0000
0000
,
0002
0003
1010
0000
0000
0020
0030
0101
0000
0000
0200
0300
2002
3003
0000
0220
,
0000
0330
0000
0000
1001
0000
0000
2000
3000
0011
0000
0000
0200
0300
0110
0000
,
0000
0000
0000
2000
0000
0000
3000
0000
0000
1100
0000
0000
0000
0000
0000
0000
0000
0000
0001
0000
0000
0000
0000
0000
1000
0000
0100
0000
0010
0000
0001
0000
0000
0000
0000
0000
0001
0000
0000
0000
2000
0000
0000
0000
0000
0000
3000
0000
,
0220
0000
0000
0001
0330
1001
0000
0000
1000
0000
0011
0000
0000
2000
0000
0200
,
0300
0000
0020
0000
3031
0000
0000
0000
0002
0000
0000
0000
0020
0000
0030
0000
0200
0000
1303
0000
0000
0000
0000
0000
1001
0000
0000
0010
0000
0000
0100
0000
,
0000
0010
0000
0000
0000
0000
0000
0000
1001
0000
0000
0010
0000
0000
0100
0000
0000
0010
0000
0000
0000
0000
1002
0000
0003
0000
0200
0000
0300
0000
0020
0000
,
0030
0002
0003
2000
3000
0220
0000
0000
0332
0003
0020
0030
0200
0300
2000
3000
,
0200
0300
0020
0030
0002
0003
0020
0030
0002
0003
2020
0200
0300
3032
0003
0200
,
0300
2000
3000
0220
0000
0000
0000
0000
0000
0000
0300
0000
0000
0000
0000
0000
,
0000
0000
0000
0000
0000
0000
0000
0000
0000
0030
0000
0000
0000
0002
0003
0020
,
0030
2000
3000
0002
0003
0020
0030
0200
0300
2000
3000
0200
0300
0020
0030
0002
,
0003
0020
0030
2000
3000
0020
0030
0200
0300
2000
3000
0020
0030
0200
0300
0002
,
0003
2000
3000
0200
0300
0020
0030
0002
0003
0000
2002
0000
0000
3003
0000
0000
,
0000
0000
0220
0000
0000
0000
0000
0000
0000
0000
0000
0000
0000
0000
0000
0000
0030
0000
0020
0030
0000
0000
0020
0030
0000
0000
0020
0030
0000
0000
0020
0030
,
0000
0000
0020
0030
0300
0000
0000
0000
1001
0000
0000
0000
0000
0000
0020
0000
0030
0000
1001
0000
0000
0000
0000
0000
0020
0000
0030
0000
1001
0000
0000
0000
,
0000
0200
0300
1010
0000
0000
0020
0030
0101
0000
0000
0101
0000
0000
0000
0000
,
1100
0000
0000
0002
0003
1010
0000
0000
0002
0003
1100
0000
0000
0020
0030
1001
,
0000
0000
0000
0000
0000
0000
0001
0000
0000
0000
0000
0000
0001
0000
0010
0000
0100
0000
1000
0000
0000
0000
0000
0000
0110
0000
0000
0000
1001
0000
0000
0000
0000
0000
0000
0000
1010
0000
0000
0000
0000
0000
0000
0000
0000
0002
0000
0000
,
0003
0110
0000
0000
0002
0003
1001
0000
0000
0020
0000
0000
0000
1000
0000
0000
,
0230
0000
0000
0000
0000
0000
0000
0000
0001
0000
0000
0000
0000
0000
0300
0000
1001
0000
0000
0010
0000
0000
0100
0000
0000
0010
0000
0000
0000
0000
0000
0000
,
1001
0000
0000
0010
0000
0000
0100
0000
0000
0010
0000
0000
0000
0000
0000
0000
0000
0000
0000
0000
2002
0000
0000
0000
3003
0000
0000
0000
0220
0000
0330
0000
,
0000
0000
0001
0010
0100
1000
0100
0010
0001
0000
0000
0000
1000
0100
0010
0001
,
0010
0200
0300
0001
0010
0100
1000
0100
0020
0030
0000
0001
0010
0100
0001
0010
,
0100
1000
0101
0000
0000
0010
0000
1001
0000
0000
0000
0010
0000
0100
0002
0003
,
0010
0001
0000
1000
0000
0100
0000
0001
0000
0100
0000
1000
0000
0000
0000
1000
,
0100
0010
0001
0020
0030
1000
0000
0100
0000
0001
0000
0000
1000
0000
0100
0000
,
0010
0001
0000
0001
0010
0100
1000
0100
0010
0001
0010
0100
2002
0000
3003
0000
,
0220
0000
0330
0000
0000
0000
0000
0000
2002
3003
0000
0010
0000
0001
0000
0110
,
0000
0000
0000
0000
1000
0020
0030
0100
0002
0003
0000
0010
0100
0000
1001
0000
,
0000
0000
0000
0000
0000
0000
0000
0000
0000
0010
0000
0000
0100
0000
0000
0000
0000
0000
0001
0000
0000
0000
0000
0000
0010
0000
0000
0000
0000
0000
2002
0000
0000
0000
0000
0000
0000
0000
0000
0000
0000
0000
0220
3000
0000
0003
0000
0000
,
0000
2002
0000
0330
0000
0220
3003
0000
0330
0001
0010
0000
0100
0000
0000
0000
,
0002
2003
3000
0200
0320
0030
0000
0001
0000
0010
0000
1001
0000
0000
0000
0001
,
0000
0020
0030
0001
0000
0000
0000
1001
0000
0110
0000
1001
0000
0220
0000
0330
,
0000
0000
0001
0000
0010
0100
0000
0000
0000
0001
0000
0010
0000
0100
0000
0001
,
0000
1000
0010
0000
0100
0000
0000
0000
0001
0000
0010
0000
0100
0000
0000
0110
,
0000
1001
0000
0110
0000
2002
0000
3003
0000
0010
0000
0100
0000
0001
0000
0000
,
0000
0010
2000
3000
0001
0200
0300
0000
0010
0000
0102
0000
0000
0000
0000
0010
,
0000
0000
0000
0000
0103
0000
0000
0000
0000
0000
0000
0000
1000
0000
0000
0000
0000
0000
0000
0000
0000
0000
0000
0000
0000
0000
0000
0000
0100
0000
0000
0000
0000
0000
0000
0000
0000
0000
0000
0000
0010
0000
0000
0000
0000
0000
0000
0000
0000
0000
0000
0000
0000
0000
0000
0000
0110
0000
0000
0000
0000
0001
0000
1000
,
0000
0000
0000
0000
0000
0000
0000
0000
0000
0000
0000
0000
0000
0000
0000
0010
,
0010
0000
1001
0000
0000
0001
0001
0000
1010
0000
0000
0100
0100
0000
0011
0000
,
0000
0010
0200
0300
0001
0020
0030
0000
1000
1000
0000
1001
0000
0000
0010
0010
,
0000
1010
0000
0000
0100
0100
0000
0101
0000
0000
1000
0200
0300
0001
0020
0030
,
0000
0000
0000
0000
0000
0001
0000
0000
1000
0000
0000
0001
0000
0010
0000
0000
,
0000
0000
0002
0000
0000
0010
0000
0000
0000
0100
0000
0003
2000
0000
0000
0010
,
0000
0001
0000
0000
0000
0000
0010
0000
0000
0002
0000
0000
0000
0000
0000
0000
,
0000
0000
0000
0000
0000
0000
0000
0000
0000
0000
0000
0000
0000
0000
0000
0000
0000
0000
0000
0000
0000
0000
0000
0000
0000
3003
0000
0000
0000
0000
0000
0000
0000
0000
0000
0000
0000
0000
0000
0000
0000
0000
0000
0000
0000
0000
0000
0000
0000
0000
0000
0000
0000
0000
0000
0000
0000
0000
0000
0000
0000
0000
0000
0000
0000
0000
0000
0000
0000
0000
0000
0000
0000
0000
0000
0000
0000
0000
0000
0000
0000
0000
0000
0000
0010
0000
0000
0000
0000
0000
0000
0000
0000
0000
0000
0000
0010
0000
0000
0000
0000
0000
0000
0000
0000
0000
0000
0000
0000
0000
0000
0000
0000
0000
0000
0000
0000
0000
0000
0000
0011
0000
0000
0000
0000
0000
0000
0000
0000
0000
0000
0000
0000
0000
0000
0000
0000
0000
0000
0000
0000
0000
0000
0000
0000
0000
0000
0000
0000
0000
0000
0000
0000
0000
0000
0000
0100
0000
0000
0000
0000
0000
0000
0000
0000
0000
0000
0000
0100
0000
0000
0000
0000
0000
0000
0000
0000
0000
0000
0000
0000
0000
0000
0000
0000
0000
0000
0000
0000
0000
0000
0000
,
1100
0000
0000
1000
1000
0000
1001
0000
0000
1000
0200
0300
0010
0002
0003
0000
,
0010
0010
0000
0101
0000
0000
1000
1000
0000
0011
0000
0000
0001
0001
0000
0011
,
0000
0000
0010
2000
3000
0100
0002
0003
0000
0000
0000
0000
0000
0010
0000
0000
,
0001
0000
0000
0000
0100
0020
0000
0000
0000
0000
1030
0000
0000
0001
0000
0000
,
0000
0010
0000
0000
0001
0000
0000
0100
0000
0001
0000
0000
0000
0010
0000
0000
,
0200
0000
0000
0000
0000
0000
0000
0000
0000
0000
0000
0000
0000
0300
1001
0000
,
0000
0000
0020
0000
0100
0002
0000
0000
0000
2030
0000
0023
0000
3200
0000
0032
,
0310
0000
0000
0000
0000
0000
0000
0000
0000
0000
0000
0000
0000
0000
0000
0000
0000
0000
0000
0000
0000
0000
0000
0000
0203
0000
0000
0000
0000
0000
0000
0000
0000
0000
0000
0000
0000
0000
0000
0000
0000
0000
0000
0000
0000
0000
0000
0000
0020
0000
0000
0000
0000
0000
0000
0000
0000
0000
0000
0000
0000
0000
0000
0000
0000
0000
0000
0000
0000
0000
0000
0000
0000
0330
0000
0000
0000
0000
0000
0000
0000
0000
0000
0000
0001
0000
0000
0000
0000
0000
0000
0000
0000
0000
0000
0000
0000
0000
0000
0000
0000
0000
0000
0000
0000
0000
0000
0000
0010
0000
0000
0000
0000
0000
0000
0000
0000
0000
0000
0000
0000
0000
0000
0000
0000
0000
0000
0000
0000
0000
0000
0000
0100
0000
0000
0000
0000
0000
0000
0000
0000
0000
0000
0000
0010
0000
0000
0000
0000
0000
0000
0000
0000
0000
0000
0000
0000
0000
0000
0000
0000
0000
0000
0000
0000
0000
0000
0000
0011
0000
0000
0000
0000
0000
0000
0000
0000
0000
0000
0000
0000
0000
0000
0000
0000
0000
0000
0000
0000
0000
0000
0000
,
1100
0000
0011
0000
2200
3300
0000
0000
1000
0000
0100
0000
0001
0000
0000
0200
,
0000
1000
2000
0000
0320
0000
3200
0032
0000
2300
0000
0000
0000
0003
3002
0000
,
0200
0000
0000
0000
0000
0000
0000
0000
0000
0000
0000
0000
0000
0000
0000
0000
0000
0000
0000
0000
0000
0000
0000
0000
0000
0303
0000
0000
0000
0000
0000
0000
0000
0000
0000
0000
0000
0000
0000
0000
0000
0000
0000
0000
0000
0000
0000
0000
1010
0000
0000
0000
0000
0000
0000
0000
0000
0000
0000
0000
0000
0000
0000
0000
0000
0000
0000
0000
0000
0000
0000
0000
0101
0000
0000
0000
0000
0000
0000
0000
0000
0000
0000
0000
0000
0000
0000
0000
0000
0000
0000
0000
0000
0000
0000
0000
1010
0000
0000
0000
0000
0000
0000
0000
0000
0000
0000
0000
0000
0000
0000
0000
0000
0000
0000
0000
0000
0000
0000
0000
0202
0000
0000
0000
0000
0000
0000
0000
0000
0000
0000
0000
0303
0000
0000
0000
0000
0000
0000
0000
0000
0000
0000
0000
0000
0000
0000
0000
0000
0000
0000
0000
0000
0000
0000
0000
0010
0000
0000
0000
0000
0000
0000
0000
0000
0000
0000
0000
0000
0000
0000
0000
0000
0000
0000
0000
0000
0000
0000
0000
0010
0000
0000
0000
0000
0000
0000
0000
0000
0000
0000
0000
,
0000
0020
0000
0000
0100
0000
1000
0000
0230
1000
0000
0020
0000
0302
0000
2030
,
0000
0000
0013
0000
3010
0200
0300
0000
0000
1001
0000
0110
0000
1001
0000
0220
,
0330
0000
0000
0001
0000
0020
0100
0000
0000
0000
0002
2030
0000
0023
0000
3200
,
0000
0000
0000
0000
0000
0000
0000
0000
0000
0000
0000
0000
0032
0000
0000
0000
0000
0000
0000
0000
0000
0000
0000
0000
0310
0000
0000
0000
0000
0000
0000
0000
0000
0000
0000
0000
0000
0000
0000
0000
0000
0000
0000
0000
0000
0000
0000
0000
0203
0000
0000
0000
0000
0000
0000
0000
0000
0000
0000
0000
0000
0000
0000
0000
0000
0000
0000
0000
0000
0000
0000
0000
0000
0000
0000
0000
0000
0000
0000
0000
0000
0000
0000
0000
0300
0000
0000
0000
0000
0000
0000
0000
0000
0000
0000
0000
0020
0000
0000
0000
0000
0000
0000
0000
0000
0000
0000
0000
0000
0000
0000
0000
0000
0000
0000
0000
0000
0000
0000
0000
0001
0000
0000
0000
0000
0000
0000
0000
0000
0000
0000
0000
2000
0000
0000
0000
0000
0000
0000
0000
0000
0000
0000
0000
0130
3000
0000
0000
0000
0000
0000
0000
0000
0000
0000
0000
0000
0000
0000
0000
0000
0000
0000
0000
0000
0000
0000
0000
0020
0000
0000
0000
0000
0000
0000
0000
0000
0000
0000
0000
0000
0000
0000
0000
0000
0000
0000
0000
0000
0000
0000
0000
,
0000
0000
0000
0000
0000
0030
0011
1100
,
0022
0000
0033
0000
0000
0000
0000
0010
0000
0100
0000
0001
0000
0000
0000
1010
,
0000
0101
0000
2002
0000
3003
0000
0000
0000
0000
0000
0010
0000
0200
0000
0000
,
0000
0300
0001
0000
0000
0000
0010
0000
0000
0100
0000
0002
0000
0000
0000
0000
,
0010
0000
0000
0100
0000
0000
0000
2003
0000
0000
0000
0010
0000
0000
0001
0000
,
0020
3000
0000
0000
0000
0230
0000
0000
0000
0000
0000
0002
0000
0000
0000
0300
,
0000
0003
0000
0000
0000
0000
0000
0000
0000
0000
1001
0000
0110
0000
2002
0000
,
3003
0000
0000
0000
0000
0010
0000
0002
0000
0003
0000
0000
0000
1001
0000
1001
,
0000
2002
0000
3003
0000
0000
0000
0000
0000
0010
0100
0000
0000
0000
0000
0002
,
0000
0000
0000
0010
0000
0000
0000
0100
2000
0003
0000
0000
0000
0000
0010
0000
,
0000
0001
0000
0000
0000
0010
0000
0000
0002
3000
0000
0000
0010
0000
0100
0000
,
0000
0000
1000
0000
0003
0000
1001
0000
0000
0000
0000
0010
0000
0000
0000
0000
,
0100
0000
0000
0002
0000
0000
0000
0000
0000
0000
0000
0000
0003
0000
0000
0000
,
0000
0220
0000
0000
0000
0330
2002
0000
0000
0000
0000
3003
0000
0110
0000
0000
,
2002
0000
0000
0000
0000
0000
0000
0000
0000
3003
0000
0000
0000
0000
0110
0000
,
0000
0000
1001
0000
0110
0000
0000
0000
0000
1001
0000
0000
0220
0000
0000
0000
,
0000
0000
0000
0330
0000
0000
0000
0000
0011
0000
0000
1100
0000
0000
0011
0000
,
2200
0000
0000
0000
0000
0011
0000
0000
0000
0000
0000
0000
0000
0022
0000
0000
,
0000
0000
0000
3333
0000
0000
1001
0000
,
0000
0000
0000
0000
0000
0020
0000
0000
0000
0000
0030
0200
0000
0000
0000
0000
,
0300
0000
0002
0000
0000
0000
0000
0013
0000
0000
0000
0200
0000
0000
0000
0000
,
1001
0000
0000
0000
0000
0000
0300
0000
0000
0000
0000
0000
0000
0000
0000
1001
,
0000
0000
0020
0000
0100
0000
0000
0000
0000
0000
1000
0000
0000
0200
0000
0000
,
0000
0000
0000
0000
0000
0000
0000
0000
0000
0000
0000
0000
0000
0000
0000
0000
0000
0000
0000
0000
0000
0000
0000
0000
0000
0000
0000
0000
0000
0000
0000
0000
0000
0000
0000
0000
0000
0000
0000
0000
0000
0000
0000
0000
0000
0000
0000
0000
0000
0000
0000
0000
0000
0000
0000
0000
0000
0000
0000
0000
0000
0000
0000
0000
0000
0000
0000
0000
0000
0000
0000
0000
0000
0000
0000
0000
0000
0000
0000
0000
0000
0000
0000
0000
0030
0000
0000
0000
0000
0000
0000
0000
0000
0000
0000
0000
0000
0000
0000
0000
0000
0000
0000
0000
0000
0000
0000
0000
0002
0300
0000
0000
0000
0000
0000
0000
0000
0000
0000
0000
0000
0000
0000
0000
0000
0000
0000
0000
0000
0000
0000
0000
0000
0000
0000
0000
0000
0000
0000
0000
0000
0000
0000
0000
0000
0000
0000
0000
0000
0000
0000
0000
0000
0000
0000
0000
0000
0000
0000
0000
0000
0000
0000
0000
0000
0000
0000
0000
0000
0000
0000
0000
0000
0000
0000
0000
0000
0000
0000
0000
0000
0000
0000
0000
0000
0000
0000
0000
0000
0000
0000
0000
,
0000
0000
0000
0003
2000
0000
0000
0000
,
0000
0000
0000
0000
0000
3000
0200
0000
0000
0000
0000
0300
0020
0000
0000
0000
,
0000
0030
2000
0000
0000
0002
3000
0000
0000
0000
0000
0000
0000
0000
0000
0000
,
0000
0000
0000
0003
;

//---------------dance-single - Copied from----------------
#NOTES:
     dance-single:
     Copied from:
     Beginner:
     3:
     0.180,0.356,0.086,0.100,0.000,150.000,12.000,14.000,0.000,0.000:
0000
0000
0000
0000
,
0000
0000
1000
0000
,
0000
0000
0000
0001
,
1000
0000
0000
0000
,
0000
0000
0001
1000
,
0000
0001
0000
1001
,
0000
0000
0000
1000
,
0000
0001
0000
1000
,
0000
0001
0000
1000
,
0000
0001
1000
0001
,
0000
0010
0000
0000
,
0100
0000
0010
0100
,
0001
0000
1000
0000
,
0001
0000
1000
0001
,
1000
0001
1000
0000
,
0000
0002
0000
0000
,
0003
0000
0000
0000
,
0000
0000
1000
0000
,
0000
1000
0000
1000
,
1000
0001
1000
0000
,
0000
0000
0010
0000
,
0001
0000
1000
0000
,
0001
0000
0000
1000
,
0001
0000
0000
1000
,
0000
0001
0000
1000
,
0000
0001
0000
1000
,
0001
1000
0000
0000
,
0001
1000
0000
0100
,
0000
0010
0000
0001
,
0010
0100
0100
0000
,
0000
0001
1000
0001
,
1000
0000
0001
1000
,
0001
1000
0000
0000
,
0010
0000
0001
1000
,
0000
0000
0001
1000
,
1001
0001
1000
0001
,
1000
0001
1000
0001
,
1001
1001
0000
0000
,
0000
0000
0000
0010
,
0000
0000
0001
0000
,
0000
0000
0000
0000
,
0000
0001
1000
0000
,
0001
0000
0000
1000
,
0001
0000
1000
0000
,
0001
1000
0001
1001
,
1000
0001
1000
0001
,
1001
0000
0000
0000
,
0000
0000
0010
0000
,
0001
1000
0000
1000
,
0000
1000
0001
0000
,
1000
0000
0000
0001
,
1000
0001
1000
0001
,
1001
1000
0000
0000
,
2000
0002
0000
0000
,
0000
0000
0000
0000
,
0000
0000
3003
0000
,
0000
0000
0001
1000
,
0001
1000
1001
0000
,
0000
1001
1001
0000
,
0000
0000
0000
0000
,
0000
0000
0001
1000
,
0001
0000
0000
0000
,
0000
0001
0000
0000
,
1000
0000
0000
0000
,
0001
0000
0000
0000
,
0000
1000
0000
0000
,
0000
0000
0000
0000
,
0000
0001
0000
2000
,
0000
0000
0000
0000
,
0000
0000
3000
0001
,
1000
0000
0000
0001
,
1001
0000
0000
0000
,
0000
0000
0000
0000
,
0000
0000
1000
0000
,
0000
0002
0000
0000
,
0003
1000
0000
0000
,
0000
0110
0000
0000
,
0002
0000
0000
0000
,
0000
0000
0000
2003
,
0000
0000
0000
0000
,
0000
0000
0000
3002
,
0000
0000
0000
0000
,
0003
1000
0000
0001
,
0000
1000
0000
0000
,
0010
0000
0000
0000
,
0001
1000
0000
0002
,
0000
0000
2000
0003
,
0000
0000
3200
0000
,
0000
0320
0000
2030
,
0000
3002
0000
0000
,
0000
0000
0003
0000
;

//---------------dance-single - ----------------
#NOTES:
     dance-single:
     :
     Medium:
     8:
     0.601,0.766,0.843,0.007,0.908,470.000,118.000,1.000,0.000,0.000:
0000
0000
0000
0000
,
0000
0000
0000
0000
0000
0000
0000
0000
1001
0000
0000
0010
0000
0101
0000
0000
,
0001
0000
1010
0000
0000
0010
0000
0101
0000
0000
0100
0000
1001
0000
0000
0110
,
0000
0000
0000
0000
1001
0000
0000
1000
0000
0011
0000
0000
0100
0000
0110
0000
,
0000
0000
0000
1000
0000
0000
0000
0000
0000
1100
0000
0000
0000
0000
0000
0000
0000
0000
0001
0000
0000
0000
0000
0000
0000
0000
0000
0000
0000
0000
0000
0000
0000
0000
0000
0000
0001
0000
0000
0000
1000
0000
0000
0000
0000
0000
0000
0000
,
0110
0000
0000
0001
0000
1001
0000
0000
1000
0000
0011
0000
0000
1000
0000
0100
,
0000
0010
0001
0000
0001
0000
0010
0000
0100
1000
0000
0000
1001
0000
0000
0000
,
0110
0000
0000
0000
1001
0000
0000
0000
0110
0000
0000
1001
0000
0100
0000
0010
,
0000
0001
0000
1000
0000
0100
0000
0000
0001
0000
0010
0000
0100
0000
1000
0000
,
0100
0000
0010
0000
0001
0000
0010
0000
0001
0000
1010
0100
0000
0001
0000
0100
,
0000
1000
0000
0010
0000
0000
0000
0000
0000
0000
0000
0000
0000
0000
0000
0000
,
0000
0000
0000
0000
0000
0000
0000
0000
0000
0000
0000
0000
0000
0001
0000
0010
,
0000
1000
0000
0001
0000
0010
0000
0100
0000
1000
0000
0100
0000
0010
0000
0001
,
0000
0010
0000
1000
0000
0010
0000
0100
0000
1000
0000
0010
0000
0100
0000
0001
,
0000
1000
0000
0100
0000
0010
0000
0001
0000
0000
1001
0000
0000
0000
0000
0000
,
0000
0210
0000
0000
0000
0000
0000
0000
0300
0000
0000
0000
0000
0000
0000
0000
,
0000
0000
0000
0000
1001
0000
0000
0010
0000
1001
0000
0000
0010
0000
1001
0000
,
0000
0100
0000
1010
0000
0000
0010
0000
0101
0000
0000
0101
0000
0000
0000
0000
,
1100
0000
0000
0001
0000
1010
0000
0000
0001
0000
1100
0000
0000
0010
0000
1001
,
0000
0000
0000
0000
0000
0000
0001
0000
0000
0000
0000
0000
0001
0000
0000
0000
0000
0000
0000
0000
0000
0000
0000
0000
0110
0000
0000
0000
1001
0000
0000
0000
0000
0000
0000
0000
1010
0000
0000
0000
0000
0000
0000
0000
0000
0001
0000
0000
,
0000
0110
0000
0000
0001
0000
1001
0000
0000
0010
0000
0000
0000
1000
0000
0000
,
0100
0001
1001
0000
,
1001
0000
0000
0000
0000
1001
0000
0110
,
0000
0000
0001
0010
0100
1000
0100
0010
0001
0000
0000
0000
1000
0100
0010
0001
,
0010
0100
0000
0001
0010
0100
1000
0100
0010
0000
0000
0001
0010
0100
0001
0010
,
0100
1000
0101
0000
0000
0010
0000
1001
0000
0000
0000
0010
0000
0100
0001
0000
,
0010
0001
0000
1000
0000
0100
0000
0001
0000
0100
0000
1000
0000
0000
0000
1000
,
0100
0010
0001
0010
0000
1000
0000
0100
0000
0001
0000
0000
1000
0000
0100
0000
,
0010
0001
0000
0001
0010
0100
1000
0100
0010
0001
0010
0100
1001
0000
0000
0000
,
0110
0000
0000
0000
0000
0000
0000
0000
1001
0000
0000
0010
0000
0001
0000
0110
,
0000
0000
0000
0000
1000
0010
0000
0100
0001
0000
0000
0010
0100
0000
1001
0000
,
0000
0000
0000
0010
0100
0000
0001
0000
0010
0000
1001
0000
0000
0000
0110
0000
,
0000
1001
0000
0000
0000
0110
0000
0000
0000
0001
0010
0000
0100
0000
0000
0000
,
0001
1000
0000
0100
0010
0000
0000
0001
0000
0010
0000
1001
0000
0000
0000
0001
,
0000
0010
0000
0001
0000
0000
0000
1001
0000
0110
0000
1001
0000
0110
0000
0000
,
0000
0000
0001
0000
0010
0100
0000
0000
0000
0001
0000
0010
0000
0100
0000
0001
,
0000
1000
0010
0000
0100
0000
0000
0000
0001
0000
0010
0000
0100
0000
0000
0110
,
0000
1001
0000
0110
0000
1001
0000
0000
0000
0010
0000
0100
0000
0001
0000
0000
,
0000
0010
1000
0000
0001
0100
0000
0000
0010
0000
0101
0000
0000
0000
0000
0010
,
0000
0100
0000
1000
0000
0000
0000
0100
0000
0000
0010
0000
0000
0000
0110
0000
,
0000
0000
0000
0000
0000
0000
0000
0000
0000
0000
0000
0000
0000
0000
0000
0010
,
0010
0000
1001
0000
0000
0001
0001
0000
1010
0000
0000
0100
0100
0000
0011
0000
,
0000
0010
0100
0000
0001
0010
0000
0000
1000
1000
0000
1001
0000
0000
0010
0010
,
0000
1010
0000
0000
0100
0100
0000
0101
0000
0000
1000
0100
0000
0001
0010
0000
,
0000
0000
0000
0000
0000
0001
0000
0000
1000
0000
0000
0001
0000
0010
0000
0000
,
0000
0000
0001
0000
0000
0010
0000
0000
0000
0100
0000
0000
1000
0000
0000
0010
,
0000
0001
0000
0000
0000
0000
0010
0000
0000
0001
0000
0000
0000
0000
0000
0000
,
0000
0000
0000
0000
0000
0000
0000
0010
0010
0000
0011
0000
0000
0100
0100
0000
,
1100
0000
0000
1000
1000
0000
1001
0000
0000
1000
0100
0000
0010
0001
0000
0000
,
0010
0010
0000
0101
0000
0000
1000
1000
0000
0011
0000
0000
0001
0001
0000
0011
,
0000
0000
0010
1000
0000
0100
0001
0000
0000
0000
0000
0000
0000
0010
0000
0000
,
0001
0000
0000
0000
0100
0010
0000
0000
0000
0000
1000
0000
0000
0001
0000
0000
,
0000
0010
0000
0000
0001
0000
0000
0100
0000
0001
0000
0000
0000
0010
0000
0000
,
0100
0000
0000
0000
0000
0000
0000
1001
,
0000
0000
0010
0000
0100
0001
0000
0000
0000
1000
0000
0010
0000
0100
0000
0001
,
0010
0000
0100
0000
0010
0000
0000
0001
0000
0010
0000
0100
0010
0000
0011
0000
,
1100
0000
0011
0000
1100
0000
0000
0000
1000
0000
0100
0000
0001
0000
0000
0100
,
0000
1000
1000
0000
0010
0000
0100
0001
0000
1000
0000
0000
0000
0000
0001
0000
,
0100
0000
0000
0000
1010
0000
0101
0000
1010
0000
0101
0000
0000
0010
0000
0010
,
0000
0010
0000
0000
0100
0000
1000
0000
0100
1000
0000
0010
0000
0001
0000
1000
,
0000
0000
0010
0000
0010
0100
0000
0000
0000
1001
0000
0110
0000
1001
0000
0110
,
0000
0000
0000
0001
0000
0010
0100
0000
0000
0000
0001
1000
0000
0010
0000
0100
,
0000
0001
0010
0000
0100
0000
0000
0000
0010
0000
0001
1000
0100
0000
0010
0000
,
0000
0000
0000
0000
0000
0000
0011
1100
,
0011
0000
0000
0000
0000
0000
0000
0010
0000
0100
0000
0001
0000
0000
0000
1010
,
0000
0101
0000
1001
0000
0000
0000
0000
0000
0000
0000
0010
0000
0100
0000
0000
,
0000
0000
0001
0000
0000
0000
0010
0000
0000
0100
0000
0001
0000
0000
0000
0000
,
0010
0000
0000
0100
0000
0000
0000
1000
0000
0000
0000
0010
0000
0000
0001
0000
,
0010
0000
0000
0000
0000
0100
0000
0000
0000
0000
0000
0001
0000
0000
0000
0000
,
0000
0000
0000
0000
0000
1001
0110
1001
,
0000
0000
0000
0000
0000
0010
0000
0001
0000
0000
0000
0000
0000
1001
0000
1001
,
0000
1001
0000
0000
0000
0000
0000
0000
0000
0010
0100
0000
0000
0000
0000
0001
,
0000
0000
0000
0010
0000
0000
0000
0100
1000
0000
0000
0000
0000
0000
0010
0000
,
0000
0001
0000
0000
0000
0010
0000
0000
0001
0000
0000
0000
0010
0000
0100
0000
,
0000
0000
1000
0000
0000
0000
1001
0000
0000
0000
0000
0010
0000
0000
0000
0000
,
0100
0000
0000
0001
0000
0000
0000
0000
0000
0000
0000
0000
0000
0000
0000
0000
,
0000
0110
0000
0000
0000
0000
1001
0000
0000
0000
0000
0000
0000
0110
0000
0000
,
1001
0000
0000
0000
0000
0000
0000
0110
,
0000
0000
1001
0000
0110
0000
0000
0000
0000
1001
0000
0000
0110
0000
0000
0000
,
0000
0000
0000
0000
0000
0000
0000
0000
0011
0000
0000
1100
0000
0000
0011
0000
,
1100
0000
0000
0000
0000
0011
0000
0000
0000
0000
0000
0000
0000
0011
0000
0000
,
0000
0000
0000
1001
,
0000
0000
0000
0000
0000
0010
0000
0000
0000
0000
0000
0100
0000
0000
0000
0000
,
0000
0000
0001
0000
0000
0000
0000
0010
0000
0000
0000
0100
0000
0000
0000
0000
,
1001
0000
0000
0000
0000
0000
0000
0000
0000
0000
0000
0000
0000
0000
0000
1001
,
0000
0000
0010
0000
0100
0000
0000
0000
0000
0000
1000
0000
0000
0100
0000
0000
,
0000
0000
0000
0000
0000
0000
0000
0000
0000
0001
0000
0000
0000
0000
0000
0000
,
0000
0000
1000
0000
,
0000
0000
0000
0100
0000
0000
0010
0000
,
0000
0000
1000
0000
0000
0001
0000
0000
0000
0000
0000
0000
0000
0000
0000
0000
;

//---------------dance-single - ----------------
#NOTES:
     dance-single:
     :
     Easy:
     5:
     0.480,0.702,0.000,0.000,0.908,470.000,0.000,0.000,0.000,0.000:
0000
0000
0000
0000
,
0000
0000
0000
0000
0000
0000
0000
0000
0001
0000
0000
0010
0000
0001
0000
0000
,
0001
0000
0010
0000
0000
0010
0000
0001
0000
0000
0100
0000
0001
0000
0000
0010
,
0000
0000
0000
0000
0001
0000
0000
1000
0000
0001
0000
0000
0100
0000
0010
0000
,
0000
0000
0000
1000
0000
0000
0000
0000
0000
0100
0000
0000
0000
0000
0000
0000
0000
0000
0001
0000
0000
0000
0000
0000
0000
0000
0000
0000
0000
0000
0000
0000
0000
0000
0000
0000
0001
0000
0000
0000
1000
0000
0000
0000
0000
0000
0000
0000
,
0010
0000
0000
0001
0000
0001
0000
0000
1000
0000
0001
0000
0000
1000
0000
0100
,
0000
0010
0001
0000
0001
0000
0010
0000
0100
1000
0000
0000
0001
0000
0000
0000
,
0010
0000
0000
0000
0001
0000
0000
0000
0010
0000
0000
0001
0000
0100
0000
0010
,
0000
0001
0000
1000
0000
0100
0000
0000
0001
0000
0010
0000
0100
0000
1000
0000
,
0100
0000
0010
0000
0001
0000
0010
0000
0001
0000
0010
0100
0000
0001
0000
0100
,
0000
1000
0000
0010
0000
0000
0000
0000
0000
0000
0000
0000
0000
0000
0000
0000
,
0000
0000
0000
0000
0000
0000
0000
0000
0000
0000
0000
0000
0000
0001
0000
0010
,
0000
1000
0000
0001
0000
0010
0000
0100
0000
1000
0000
0100
0000
0010
0000
0001
,
0000
0010
0000
1000
0000
0010
0000
0100
0000
1000
0000
0010
0000
0100
0000
0001
,
0000
1000
0000
0100
0000
0010
0000
0001
0000
0000
0001
0000
0000
0000
0000
0000
,
0000
0010
0000
0000
0000
0000
0000
0000
0000
0000
0000
0000
0000
0000
0000
0000
,
0000
0000
0000
0000
0001
0000
0000
0010
0000
0001
0000
0000
0010
0000
0001
0000
,
0000
0100
0000
0010
0000
0000
0010
0000
0001
0000
0000
0001
0000
0000
0000
0000
,
0100
0000
0000
0001
0000
0010
0000
0000
0001
0000
0100
0000
0000
0010
0000
0001
,
0000
0000
0000
0000
0000
0000
0001
0000
0000
0000
0000
0000
0001
0000
0000
0000
0000
0000
0000
0000
0000
0000
0000
0000
0010
0000
0000
0000
0001
0000
0000
0000
0000
0000
0000
0000
0010
0000
0000
0000
0000
0000
0000
0000
0000
0001
0000
0000
,
0000
0010
0000
0000
0001
0000
0001
0000
0000
0010
0000
0000
0000
1000
0000
0000
,
0100
0001
0001
0000
,
0001
0000
0000
0000
0000
0001
0000
0010
,
0000
0000
0001
0010
0100
1000
0100
0010
0001
0000
0000
0000
1000
0100
0010
0001
,
0010
0100
0000
0001
0010
0100
1000
0100
0010
0000
0000
0001
0010
0100
0001
0010
,
0100
1000
0001
0000
0000
0010
0000
0001
0000
0000
0000
0010
0000
0100
0001
0000
,
0010
0001
0000
1000
0000
0100
0000
0001
0000
0100
0000
1000
0000
0000
0000
1000
,
0100
0010
0001
0010
0000
1000
0000
0100
0000
0001
0000
0000
1000
0000
0100
0000
,
0010
0001
0000
0001
0010
0100
1000
0100
0010
0001
0010
0100
0001
0000
0000
0000
,
0010
0000
0000
0000
0000
0000
0000
0000
0001
0000
0000
0010
0000
0001
0000
0010
,
0000
0000
0000
0000
1000
0010
0000
0100
0001
0000
0000
0010
0100
0000
0001
0000
,
0000
0000
0000
0010
0100
0000
0001
0000
0010
0000
0001
0000
0000
0000
0010
0000
,
0000
0001
0000
0000
0000
0010
0000
0000
0000
0001
0010
0000
0100
0000
0000
0000
,
0001
1000
0000
0100
0010
0000
0000
0001
0000
0010
0000
0001
0000
0000
0000
0001
,
0000
0010
0000
0001
0000
0000
0000
0001
0000
0010
0000
0001
0000
0010
0000
0000
,
0000
0000
0001
0000
0010
0100
0000
0000
0000
0001
0000
0010
0000
0100
0000
0001
,
0000
1000
0010
0000
0100
0000
0000
0000
0001
0000
0010
0000
0100
0000
0000
0010
,
0000
0001
0000
0010
0000
0001
0000
0000
0000
0010
0000
0100
0000
0001
0000
0000
,
0000
0010
1000
0000
0001
0100
0000
0000
0010
0000
0001
0000
0000
0000
0000
0010
,
0000
0100
0000
1000
0000
0000
0000
0100
0000
0000
0010
0000
0000
0000
0010
0000
,
0000
0000
0000
0000
0000
0000
0000
0000
0000
0000
0000
0000
0000
0000
0000
0010
,
0010
0000
0001
0000
0000
0001
0001
0000
0010
0000
0000
0100
0100
0000
0001
0000
,
0000
0010
0100
0000
0001
0010
0000
0000
1000
1000
0000
0001
0000
0000
0010
0010
,
0000
0010
0000
0000
0100
0100
0000
0001
0000
0000
1000
0100
0000
0001
0010
0000
,
0000
0000
0000
0000
0000
0001
0000
0000
1000
0000
0000
0001
0000
0010
0000
0000
,
0000
0000
0001
0000
0000
0010
0000
0000
0000
0100
0000
0000
1000
0000
0000
0010
,
0000
0001
0000
0000
0000
0000
0010
0000
0000
0001
0000
0000
0000
0000
0000
0000
,
0000
0000
0000
0000
0000
0000
0000
0010
0010
0000
0001
0000
0000
0100
0100
0000
,
0100
0000
0000
1000
1000
0000
0001
0000
0000
1000
0100
0000
0010
0001
0000
0000
,
0010
0010
0000
0001
0000
0000
1000
1000
0000
0001
0000
0000
0001
0001
0000
0001
,
0000
0000
0010
1000
0000
0100
0001
0000
0000
0000
0000
0000
0000
0010
0000
0000
,
0001
0000
0000
0000
0100
0010
0000
0000
0000
0000
1000
0000
0000
0001
0000
0000
,
0000
0010
0000
0000
0001
0000
0000
0100
0000
0001
0000
0000
0000
0010
0000
0000
,
0100
0000
0000
0000
0000
0000
0000
0001
,
0000
0000
0010
0000
0100
0001
0000
0000
0000
1000
0000
0010
0000
0100
0000
0001
,
0010
0000
0100
0000
0010
0000
0000
0001
0000
0010
0000
0100
0010
0000
0001
0000
,
0100
0000
0001
0000
0100
0000
0000
0000
1000
0000
0100
0000
0001
0000
0000
0100
,
0000
1000
1000
0000
0010
0000
0100
0001
0000
1000
0000
0000
0000
0000
0001
0000
,
0100
0000
0000
0000
0010
0000
0001
0000
0010
0000
0001
0000
0000
0010
0000
0010
,
0000
0010
0000
0000
0100
0000
1000
0000
0100
1000
0000
0010
0000
0001
0000
1000
,
0000
0000
0010
0000
0010
0100
0000
0000
0000
0001
0000
0010
0000
0001
0000
0010
,
0000
0000
0000
0001
0000
0010
0100
0000
0000
0000
0001
1000
0000
0010
0000
0100
,
0000
0001
0010
0000
0100
0000
0000
0000
0010
0000
0001
1000
0100
0000
0010
0000
,
0000
0000
0000
0000
0000
0000
0001
0100
,
0001
0000
0000
0000
0000
0000
0000
0010
0000
0100
0000
0001
0000
0000
0000
0010
,
0000
0001
0000
0001
0000
0000
0000
0000
0000
0000
0000
0010
0000
0100
0000
0000
,
0000
0000
0001
0000
0000
0000
0010
0000
0000
0100
0000
0001
0000
0000
0000
0000
,
0010
0000
0000
0100
0000
0000
0000
1000
0000
0000
0000
0010
0000
0000
0001
0000
,
0010
0000
0000
0000
0000
0100
0000
0000
0000
0000
0000
0001
0000
0000
0000
0000
,
0000
0000
0000
0000
0000
0001
0010
0001
,
0000
0000
0000
0000
0000
0010
0000
0001
0000
0000
0000
0000
0000
0001
0000
0001
,
0000
0001
0000
0000
0000
0000
0000
0000
0000
0010
0100
0000
0000
0000
0000
0001
,
0000
0000
0000
0010
0000
0000
0000
0100
1000
0000
0000
0000
0000
0000
0010
0000
,
0000
0001
0000
0000
0000
0010
0000
0000
0001
0000
0000
0000
0010
0000
0100
0000
,
0000
0000
1000
0000
0000
0000
0001
0000
0000
0000
0000
0010
0000
0000
0000
0000
,
0100
0000
0000
0001
0000
0000
0000
0000
0000
0000
0000
0000
0000
0000
0000
0000
,
0000
0010
0000
0000
0000
0000
0001
0000
0000
0000
0000
0000
0000
0010
0000
0000
,
0001
0000
0000
0000
0000
0000
0000
0010
,
0000
0000
0001
0000
0010
0000
0000
0000
0000
0001
0000
0000
0010
0000
0000
0000
,
0000
0000
0000
0000
0000
0000
0000
0000
0001
0000
0000
0100
0000
0000
0001
0000
,
0100
0000
0000
0000
0000
0001
0000
0000
0000
0000
0000
0000
0000
0001
0000
0000
,
0000
0000
0000
0001
,
0000
0000
0000
0000
0000
0010
0000
0000
0000
0000
0000
0100
0000
0000
0000
0000
,
0000
0000
0001
0000
0000
0000
0000
0010
0000
0000
0000
0100
0000
0000
0000
0000
,
0001
0000
0000
0000
0000
0000
0000
0000
0000
0000
0000
0000
0000
0000
0000
0001
,
0000
0000
0010
0000
0100
0000
0000
0000
0000
0000
1000
0000
0000
0100
0000
0000
,
0000
0000
0000
0000
0000
0000
0000
0000
0000
0001
0000
0000
0000
0000
0000
0000
,
0000
0000
1000
0000
,
0000
0000
0000
0100
0000
0000
0010
0000
,
0000
0000
1000
0000
0000
0001
0000
0000
0000
0000
0000
0000
0000
0000
0000
0000
;
