#TITLE:MAX 300;
#SUBTITLE:Another;
#ARTIST:Ω;
#TITLETRANSLIT:;
#SUBTITLETRANSLIT:;
#ARTISTTRANSLIT:OMEGA;
#CREDIT:;
#BANNER:MAX 300.png;
#BACKGROUND:MAX 300-bg.png;
#LYRICSPATH:;
#CDTITLE:rr-ddr-v2.PNG;
#MUSIC:MAX 300.mp3;
#OFFSET:-0.872;
#SAMPLESTART:13.630;
#SAMPLELENGTH:12.000;
#SELECTABLE:YES;
#DISPLAYBPM:300.000;
#BPMS:0.000=300.000,286.000=200.000,287.000=150.000,288.000=125.000,288.500=100.000,289.000=75.000,289.500=50.000,290.000=300.000;
#STOPS:290.000=1.150
;
#BGCHANGES:;
// cache tags:
#FIRSTBEAT:16.000;
#LASTBEAT:430.000;
#SONGFILENAME:Songs/toune 2/MAX 300/MAX 300.sm;
#HASMUSIC:1;
#HASBANNER:1;
#MUSICLENGTH:92.035;
// end cache tags

//---------------dance-single - ----------------
#NOTES:
     dance-single:
     :
     Challenge:
     11:
     1.000,1.000,0.293,0.130,0.087,636.000,27.000,12.000,0.000,0.000:
0000
0000
0000
0000
,
0000
0000
0000
0000
,
0000
0000
0000
0000
,
0000
0000
0000
0000
,
0001
0000
0001
0010
0100
1000
0000
1000
,
0001
0000
0010
0000
0010
0001
0000
0001
,
1000
0100
1000
0100
0010
0100
0010
0100
,
1000
0001
0001
0000
,
1000
0000
0100
0000
0010
0001
0010
0001
,
0010
0000
0100
0000
0010
1000
0010
0100
,
0010
0000
0001
0000
1000
0100
0010
0001
,
0010
1000
1000
0000
,
0001
0000
1000
0100
1000
0100
1000
0100
,
1000
0001
0100
0001
0100
0001
0100
0001
,
0100
1000
0100
0000
0010
0001
0010
0000
,
0001
0100
0010
1000
0001
0100
0010
1000
,
0010
0000
1000
0000
0000
0010
0000
1000
,
0001
0000
0100
0000
0000
0001
0000
0100
,
0010
0000
1000
0000
0000
0100
0000
0010
,
0001
1000
0100
0010
,
0001
0010
0001
0010
0001
0010
0001
0010
,
0100
1000
0100
1000
0100
1000
0100
1000
,
0001
0010
0100
1000
0010
0100
0001
1000
,
0100
0010
0001
0100
0010
1000
0001
0100
,
0010
0100
0001
1000
0010
0100
0001
0100
,
0010
1000
0010
1000
0100
0010
0100
0001
,
0100
0010
0100
1000
0100
0010
1000
0001
,
1000
0010
1000
0001
0100
0001
0010
0000
,
0001
0100
0010
0100
0001
1000
0010
1000
,
0001
0010
0100
0010
0001
1000
0010
1000
,
0001
0000
0000
0000
0000
0000
0000
0000
0000
0101
0000
0000
0000
0000
0000
0000
0000
0000
0000
0000
0000
0000
1100
0000
0000
0000
0000
0000
0000
0000
0000
0000
,
0010
0100
0001
0010
0100
1000
0100
0000
,
0020
0001
0001
0001
,
0001
0031
2010
0010
,
0010
3010
0100
0010
,
0001
0010
1000
0010
,
0001
1000
0100
0010
,
0001
1000
0001
0001
,
0102
0100
0100
0100
,
0100
0103
1000
0010
,
0001
0010
1000
0010
,
2010
0010
0010
0010
,
3010
0000
0001
0100
0010
1000
0001
0100
,
0010
0010
0100
0100
,
0001
1000
0100
0010
0001
0010
1000
0010
,
0001
0010
1000
0010
0001
0100
1000
0100
,
0001
0100
1000
0100
0001
0100
0001
0010
,
0100
0010
0100
1000
0100
0010
0001
0100
,
0001
1000
0001
0010
0001
0100
0010
1000
,
0100
0010
0001
0010
0001
1000
0100
0010
,
0001
0010
0100
1000
0010
0100
0010
0100
,
0001
0100
0001
0010
0100
1000
0100
0010
,
0100
1000
0001
1000
0100
0010
0001
0100
,
0010
0100
0001
0100
1000
0100
0010
0100
,
0001
1000
0001
0100
0001
0100
0001
0100
,
0010
0000
0000
0000
0200
0302
0203
0302
,
0103
0000
1000
0100
0010
0001
0100
0001
,
1000
0001
0010
1000
0010
0001
1000
0001
,
0010
0001
0100
0001
1000
0001
1000
0001
,
1000
1100
0011
0000
,
0001
0000
0010
0001
0010
0100
0010
0001
,
0010
0100
0010
0001
0010
1000
0010
1000
,
0010
0100
1000
0100
0010
0001
0010
0100
,
1000
0101
1010
0000
,
0010
0000
1000
0001
1000
0100
1000
0001
,
0010
0100
1000
0100
0010
0100
0001
0100
,
0010
0100
1000
0100
0010
0001
0100
0010
,
1000
1100
0101
0000
,
1000
0000
0001
0010
0100
1000
0100
0010
,
0001
0000
0010
0100
1000
0100
0010
0100
,
1000
0000
0000
0000
0000
0001
0000
0000
0000
0000
1000
0000
0000
0000
0000
0000
0001
0000
0000
0000
0000
1000
0000
0000
0000
0000
0001
0000
0000
0000
0000
0000
,
0100
0000
0000
0000
0000
0010
0000
0000
0000
0000
0100
0000
0000
0000
0000
0000
2002
0000
0000
0000
0000
0000
0000
0000
0000
0000
0000
0000
0000
0000
0000
0000
,
0000
0000
0000
0000
0000
0000
0000
0000
0000
0000
0000
0000
0000
3003
0000
0000
0000
0000
1000
0000
0000
0000
0000
0000
,
0001
0000
0010
0100
1000
0001
1000
0100
,
0010
0001
1000
0001
0100
0001
0010
0100
,
1000
0100
1000
0001
1000
0100
0010
0001
,
0010
0100
1000
0100
0010
0100
1000
0100
,
1000
0001
1000
0010
1000
0001
0100
0001
,
0010
0100
1000
0100
0010
0001
0100
0001
,
0100
0010
1000
0100
0010
0100
0010
1000
,
0010
1000
0001
0000
1000
0000
0001
0100
,
0001
0100
0001
0000
1000
0100
1000
0100
,
1000
0000
0010
0100
0010
0100
0010
0000
,
1000
0001
1000
0001
1000
0000
1000
0100
,
0010
0100
1000
0000
1000
0100
0001
0100
,
1000
0000
0001
0100
1000
0100
0001
0000
,
0100
0001
1000
0010
0100
0000
0001
0010
,
0100
1000
0001
0000
1000
0100
1000
0010
,
1000
0001
1000
0010
1000
0100
0010
0100
,
1000
0001
0100
0001
1000
0010
0100
0000
,
0011
0000
0000
1100
0000
0000
0100
0010
,
1000
0001
1000
0100
0001
0000
0100
0000
,
1100
0000
0000
0011
0000
0000
0001
0010
,
0100
1000
0001
1000
0100
0010
0001
0000
,
0101
0000
0000
0011
0000
0000
0010
0100
,
1000
0001
0100
0001
1000
0100
0001
0000
,
1001
0000
0000
1001
0000
0000
0010
0100
,
0001
1000
0001
1000
0100
0010
0001
0000
,
0110
0000
0000
1001
0000
0000
0100
0010
,
0001
1000
0001
0100
0010
0000
1000
0001
,
0100
0010
0100
0001
1000
0001
0010
0100
,
0010
1000
0001
0100
0010
1000
0001
0010
,
0100
0000
0000
0000
1000
0000
0000
0000
0010
0000
0000
0000
0100
0000
0000
0000
0001
0000
0000
0000
1000
0000
0000
0000
0001
0000
0000
0000
0000
0001
0000
0000
,
0000
0000
0101
0000
0000
0000
0000
0000
0000
0000
0000
0000
0000
0000
0000
0000
0000
0000
0000
0000
0000
0000
0000
0000
1000
0000
0000
0000
0000
1000
0000
0000
,
0000
0000
1010
0000
0000
0000
0000
0000
0000
0000
0000
0000
0000
0000
0000
0000
0000
0000
0000
0000
0000
0000
0000
0000
0010
0000
0000
0000
0000
0010
0000
0000
,
0000
0000
1010
0000
0000
0000
0000
0000
0100
0000
0000
0000
0000
0100
0000
0000
0000
0000
0101
0000
0000
0000
0000
0000
2002
0000
0000
0000
0000
0000
0000
0000
,
0000
0000
0000
0000
,
0000
0000
3003
0000
;
