#TITLE:Die In Your Arms Tonight;
#SUBTITLE:;
#ARTIST:m1dlet;
#TITLETRANSLIT:;
#SUBTITLETRANSLIT:;
#ARTISTTRANSLIT:;
#CREDIT:Aoreo;
#BANNER:Bn-Died.png;
#BACKGROUND:Bg-Died.png;
#LYRICSPATH:;
#CDTITLE:;
#MUSIC:Die In Your Arms Tonight.ogg;
#OFFSET:-0.021;
#SAMPLESTART:48.998;
#SAMPLELENGTH:12.000;
#SELECTABLE:YES;
#DISPLAYBPM:250.000;
#BPMS:0.000=249.800,135.000=240.000,136.000=124.900,168.000=249.800,338.000=241.000,340.000=249.800,440.000=165.120,503.000=249.850;
#STOPS:;
#BGCHANGES:;
// cache tags:
#FIRSTBEAT:0.000;
#LASTBEAT:768.000;
#SONGFILENAME:Songs/SPEEEDCOOOORE/Die In Your Arms Tonight - [Aoreo]/Die in Your Arms Tonight.sm;
#HASMUSIC:1;
#HASBANNER:1;
#MUSICLENGTH:201.326;
// end cache tags

//---------------dance-single - J. Nero----------------
#NOTES:
     dance-single:
     J. Nero:
     Challenge:
     18:
     1.000,1.000,0.676,0.164,1.000,1431.000,136.000,33.000,18.000,0.000:

1001
0000
0001
0000
,
0100
0000
0010
0000
,
1010
0000
1000
0000
,
1100
0000
0000
0000
0000
0000
0000
0000
1001
0000
0000
0000
0001
0100
0001
0100
,
0001
0000
0100
0000
,
0000
0000
0010
0000
,
0000
0000
1000
0000
,
0000
0000
0010
0010
,
1001
0000
0100
0000
,
0000
0000
0001
0000
,
0101
0000
0100
0000
,
0110
0000
0000
0000
0000
0000
0000
0000
1010
0000
0000
0000
1000
0001
1000
0001
,
1000
0000
0001
0000
,
0101
0000
0100
0000
,
1010
0000
1100
0000
,
0110
0000
0011
0001
,
0100
0000
0000
0000
,
MMMM
0000
0000
0000
,
0001
0100
0010
1000
0010
1000
0010
0100
0001
1000
0010
0100
0010
1000
0001
1000
,
0001
0010
0100
0010
0001
1000
0100
1000
0100
0010
0001
0010
0100
1000
0001
1000
,
0010
1000
0001
0100
0001
1000
0010
0100
0001
0100
0010
1000
0001
0100
0001
1000
,
0100
1000
0001
1000
0001
0010
0100
1000
0100
1000
0001
0010
0001
1000
0100
1000
,
0001
0100
0010
0100
0001
1000
0010
1000
0001
0100
0001
0100
0010
1000
0001
1000
,
0001
0010
0100
1000
0100
0010
0001
1000
0001
0010
0100
1000
0001
1000
0001
1000
,
0010
0100
0001
0100
0001
0100
0010
1000
0010
0100
0001
1000
0001
1000
0010
0100
,
0002
0203
0320
0230
,
0301
1000
0001
1000
0100
0010
0001
1000
0100
1000
0001
0010
0001
1000
0100
1000
,
0001
0100
0010
0100
0010
1000
0001
0100
0001
1000
0010
0100
0001
0100
0001
1000
,
0100
1000
0100
0010
0001
0010
0100
1000
0100
1000
0001
0010
0100
1000
0001
1000
,
0001
0100
0010
1000
0010
0100
0001
1000
0010
0100
0010
0100
0010
1000
0001
1000
,
0100
0010
0001
0010
0100
1000
0100
1000
0001
0010
0001
0010
0100
1000
0001
0010
,
0001
1000
0010
1000
0010
0100
0010
0100
0001
1000
0001
1000
0001
0010
0100
1000
,
0001
0100
0010
0100
0001
0010
0100
1000
,
0010
0100
0001
1000
,
0020
0000
0000
0000
0030
0200
0302
2003
,
3000
0000
0200
0000
2300
0000
3200
0000
0300
0000
0000
0000
2000
0000
3020
0030
,
0210
0300
0000
0000
0000
0000
0000
0000
,
0200
0000
0302
0000
0023
0000
0230
0000
2300
0000
3020
0030
0120
0000
0230
0300
,
0101
0000
0000
0000
0000
0000
0000
0000
0000
0000
0002
0000
0023
0000
0230
0300
,
1100
0000
2000
0000
3020
0000
0230
0300
0110
0000
0000
0000
0020
0000
0230
0300
,
0202
0000
0000
0000
0000
0000
0000
0303
,
0001
0000
0100
0000
0010
0000
1000
1000
,
1MM1
0001
0110
0100
,
1010
1000
1100
0100
,
0110
0010
0011
0001
,
0101
0000
0100
0000
0110
0000
0010
1000
,
0001
0010
0110
0100
,
1010
0010
0101
0001
,
1001
1000
1010
0010
,
0110
0000
0100
0000
0101
0000
0001
0010
,
0100
1000
1100
0100
,
0110
0010
0101
0001
,
0110
0100
1010
1000
,
1010
0010
0101
0001
,
1001
1000
1100
0100
,
1100
1000
1010
0010
,
0101
0000
0001
0000
1001
0000
1000
0100
,
1000
0000
0010
0000
0110
0000
0100
0001
,
1000
0000
0000
0000
,
MMMM
0000
0000
0000
,
0001
0010
0001
0010
0100
1000
0001
0010
0100
1000
0100
0010
0001
1000
0010
1000
,
0001
0100
0010
0100
0001
1000
0100
0010
0100
1000
0100
0010
0001
1000
0010
1000
,
0001
0100
0001
1000
0010
1000
0010
0100
0001
0100
0001
1000
0010
0100
0010
0100
,
0001
1000
0100
1000
0001
1000
0001
1000
0001
0000
0010
0000
0100
0000
1000
0000
,
0010
1000
0010
1000
0001
0100
0001
0100
0010
1000
0010
0100
0001
0000
0010
0000
,
0100
1000
0100
1000
0001
0010
0001
0010
0100
1000
0100
1000
0001
1000
0001
0010
,
0100
1000
0100
1000
0004
0000
0000
0000
0103
0001
0100
0001
4000
0000
0000
0000
,
3010
0100
0010
0100
0004
0000
0000
0000
1003
0000
0001
0000
0010
0000
0100
0000
,
1000
0100
1000
0001
0010
0001
1000
0100
1000
0001
0010
0001
0010
0100
1000
0100
,
1000
0001
0100
0010
1000
0010
0100
0001
0100
0010
1000
0010
1000
0001
0100
0001
,
1000
0100
1000
0100
0010
0001
0010
0100
1000
0001
1000
0001
0100
0010
1000
0010
,
0100
0001
0100
0001
1000
0010
1000
0001
4000
0000
0000
0000
0000
0000
0000
0000
,
3001
0100
0001
0100
0010
1000
0010
1000
0001
0100
0001
1000
0001
1000
0100
1000
,
0100
0010
0001
1000
0001
1000
0100
0010
0001
0010
0100
1000
0001
0010
0001
1000
,
0100
1000
0100
0010
0001
1000
0001
1000
0010
0100
0001
1000
0001
0100
0010
0100
,
0010
1000
0001
1000
0001
0100
0010
1000
0010
0100
0001
1000
0010
1000
0010
0100
,
0001
1000
0001
0010
0100
1000
0100
0010
0001
0010
0100
1000
0100
0010
0001
1000
,
0001
1000
0001
0010
0100
0010
0100
1000
0001
0100
0001
1000
0010
1000
0001
0100
,
0001
1000
0010
1000
0010
0100
0001
0100
0001
1000
0001
1000
0100
0010
0100
0010
,
0001
1000
0100
1000
0001
0010
0001
1000
0100
0010
0001
1000
0100
1000
0001
0010
,
0001
1000
0010
0100
0010
0100
0001
1000
0010
1000
0001
1000
0004
0000
0000
0000
,
1003
0100
1000
0100
0010
0001
1000
0001
0010
0100
1000
0001
0010
0100
0010
0100
,
1000
0001
0100
0001
1000
0010
1000
0010
0100
0001
1000
0001
0100
0001
1000
0100
,
1000
0001
1000
0001
0010
0100
1000
0001
1000
0000
0010
0000
1000
0000
0001
0000
,
0010
0000
0000
0000
,
MMMM
0000
0000
0000
,
0001
0000
0100
0001
0100
0000
0001
1000
,
0001
0000
1000
0100
1000
0000
0010
1000
,
0010
0000
0100
0010
0100
0000
0001
0100
,
0001
0000
0100
0001
0100
0000
0010
1000
,
0010
0000
1000
0100
1000
0000
0100
0010
,
0100
0000
0010
0001
0010
0000
0100
1000
,
0100
0000
1000
0001
1000
0000
0010
0100
,
0010
0100
0001
0001
,
1001
1000
1100
0100
,
0110
0010
0011
0110
,
1100
1000
1010
0010
,
0101
0000
0001
0000
1001
0000
1000
0010
,
0110
0010
0110
0100
,
1001
0010
0110
1100
,
1001
0001
0101
0100
,
0110
0010
1010
1000
,
1001
0000
0110
0000
,
1010
0000
1001
0011
,
0110
0000
0110
0000
,
1001
0000
0000
0000
1100
0000
0000
0010
,
0011
0000
0101
0000
,
0110
0000
1010
1100
,
0110
0000
0011
0000
,
0110
0000
1100
0000
,
1001
0000
0000
0000
,
0000
0000
0000
0000
,
0000
0000
0000
0000
,
0000
0000
0000
0000
,
0000
0000
0000
0000
,
0000
0000
0000
0000
,
0000
0000
0000
0000
,
0000
0000
0000
0000
,
0000
0000
0000
0000
,
0000
0000
0000
0000
,
0000
0000
0000
0000
,
0000
0000
0000
0000
,
0000
0000
0000
0000
,
0000
0000
0000
0000
,
0000
0000
0000
0000
,
0000
0000
0000
MMMM
,
0000
0000
0000
0000
0001
0100
0001
0100
0010
1000
0001
1000
0010
0100
0001
1000
,
0010
0100
0001
1000
0010
0100
0001
0100
0010
0100
0010
1000
0001
0100
0010
1000
,
0001
1000
0100
0010
0001
0010
0100
1000
0100
0010
0001
1000
0001
1000
0001
0010
,
0100
1000
0100
0010
0001
1000
0001
0010
0100
1000
0100
1000
0001
0000
1000
0000
,
0001
0000
0010
0000
0100
1000
0100
1000
0001
0010
0001
0010
0100
1000
0100
1000
,
0001
0000
0100
0000
0010
0100
0010
1000
0010
0100
0001
1000
0010
0100
0010
1000
,
0001
1000
0010
1000
0001
0100
0001
0100
0040
0000
0000
0000
0130
0001
0100
0001
,
4000
0000
0000
0000
3001
0100
0001
0100
0040
0000
0000
0000
1030
0000
0001
0000
,
1000
0000
0010
0000
1000
0100
1000
0100
0010
0100
0010
0001
1000
0001
1000
0100
,
0010
0100
1000
0001
1000
0001
1000
0010
0100
0010
0100
0001
1000
0010
1000
0010
,
0100
0001
0100
0001
1000
0100
0010
0001
1000
0100
1000
0100
0010
0001
0010
0100
,
1000
0100
0010
0001
1000
0001
1000
0100
0010
0001
1000
0001
4000
0000
0000
0000
,
0000
0000
0000
0000
3001
0100
0001
0100
0010
1000
0010
1000
0001
0100
0010
1000
,
0010
0100
0001
0100
0001
1000
0010
0100
0001
0100
0010
1000
0001
0100
0001
0100
,
0001
1000
0100
1000
0100
0010
0001
0010
0100
1000
0100
0010
0001
1000
0001
1000
,
0001
0100
0010
0100
0010
1000
0001
1000
0010
0100
0001
0100
0010
1000
0001
0100
,
0001
1000
0100
0010
0001
0010
0100
1000
0100
0010
0001
1000
0010
1000
0001
1000
,
0010
0100
0010
1000
0001
1000
0010
0100
0001
0100
0001
1000
0010
1000
0010
1000
,
0001
1000
0100
0010
0001
0010
0100
1000
0001
1000
0001
0010
0001
1000
0001
1000
,
0010
0100
0001
0100
0010
1000
0010
0100
0001
0100
0001
1000
0010
0100
0001
1000
,
0001
1000
0100
0010
0001
0010
0100
1000
0100
1000
0100
1000
0001
0010
0001
0010
,
0004
0000
0000
0000
1003
0010
1000
0010
0100
0001
0100
0001
1000
0001
1000
0010
,
0100
0010
1000
0001
1000
0001
0100
0010
1000
0001
0010
0001
1000
0100
1000
0001
,
0010
0100
1000
0001
0010
0100
1000
0001
0100
0010
0100
0001
0100
0000
0010
0000
,
0100
0001
1000
0000
0000
0000
0000
0000
,
0000
1001
0000
0000
,
0000
1001
0000
0000
,
0000
1001
0000
0000
,
0000
1001
0000
0000
,
0100
1001
0000
0000
,
0000
1001
0000
0000
,
0000
1001
0000
1000
,
0000
1001
0000
0101
,
0000
1010
0000
0110
,
0110
1001
0000
1100
,
0000
0110
0000
0011
,
0000
0010
0110
0000
0000
0000
1100
0000
,
0000
1001
0000
0101
,
0101
1010
0000
1010
,
0000
0110
0000
0101
,
0000
1001
0000
1100
,
0000
0110
0000
0011
,
0011
0101
0000
0110
,
0000
1010
0000
1001
,
0000
0001
0101
0000
0000
0000
0000
0000
,
0000
1001
0000
0000
,
0000
1001
0000
1001
,
0000
1001
1001
1001
,
0001
0000
1000
0000
0001
1000
0001
1000
0100
0010
0001
1000
0100
0010
0001
1000
,
0100
1000
0001
0100
0010
0100
0010
1000
0010
1000
0001
0100
0001
1000
0010
0100
,
0001
1000
0001
1000
0100
0010
0001
0010
0100
0010
0100
1000
0001
1000
0001
0010
,
0100
1000
0001
1000
0010
1000
0010
0100
0010
0100
0001
1000
0010
0100
0001
1000
,
0001
0010
0100
1000
0001
0010
0100
1000
0100
0010
0001
1000
0001
1000
0001
0010
,
0001
1000
0010
0100
0001
1000
0010
1000
0001
0100
0001
0100
0010
1000
0010
0100
,
0001
1000
0001
0010
0100
1000
0100
0010
0001
1000
0001
0100
0010
0100
0001
1000
,
0010
1000
0001
0100
0001
0000
0000
0000
1000
0000
0000
0000
0001
0000
0000
0000
,
0100
0000
0000
0000
0001
0100
0001
1000
0010
0100
0001
0100
0010
1000
0001
1000
,
0001
0010
0100
1000
0100
0010
0001
0010
0100
1000
0001
1000
0001
0010
0100
1000
,
0001
0100
0010
1000
0010
0100
0001
1000
0010
0100
0001
1000
0001
0100
0010
0100
,
0001
1000
0100
0010
0001
0010
0001
1000
0100
1000
0001
0010
0100
1000
0001
1000
,
0001
1000
0010
0100
0010
0100
0001
0100
0001
1000
0010
1000
0010
0100
0001
1000
,
0001
0010
0100
1000
0100
0010
0001
0010
0100
1000
0001
1000
0010
0100
0001
1000
,
0001
0010
0100
1000
0001
0000
0100
0000
0010
0000
1000
0000
0001
0000
0010
0000
,
0100
1000
0010
0000
0100
0000
0010
0000
,
0200
0000
0000
0000
,
0000
0000
0000
0000
,
0300
0000
0000
0000
;
