#TITLE:Crazy Frog;
#SUBTITLE:;
#ARTIST:Axel F;
#TITLETRANSLIT:;
#SUBTITLETRANSLIT:;
#ARTISTTRANSLIT:;
#CREDIT:;
#BANNER:crazyfrog-bn.png;
#BACKGROUND:kill_the_crazy_frog-bg.jpg;
#LYRICSPATH:;
#CDTITLE:nateemboss.PNG;
#MUSIC:Crazy Frog - Axel f.mp3;
#OFFSET:0.356;
#SAMPLESTART:43.478;
#SAMPLELENGTH:12.000;
#SELECTABLE:YES;
#BPMS:0.000=138.000;
#STOPS:;
#BGCHANGES:;
// cache tags:
#FIRSTBEAT:16.000;
#LASTBEAT:383.000;
#SONGFILENAME:Songs/keyboard/Crazy Frog/Crazy Frog.sm;
#HASMUSIC:1;
#HASBANNER:1;
#MUSICLENGTH:168.260;
// end cache tags

//---------------dance-single - ----------------
#NOTES:
     dance-single:
     :
     Hard:
     10:
     0.575,0.598,0.374,0.101,0.443,597.000,63.000,17.000,0.000,2.000:

0000
0000
0000
0000
,
0000
0000
0000
0000
,
0000
0000
0000
0000
,
0000
0000
0000
0000
,
0100
0000
0000
0000
1010
0000
0000
1000
0000
0100
0010
0000
0001
0000
0100
0000
,
1000
0000
0000
0000
0101
0000
0000
0010
0000
0100
0001
0000
0010
0000
0100
0000
,
1000
0000
0001
0000
0010
0000
0100
0010
0000
0010
0100
0000
1000
0000
0002
0000
,
0000
0003
1000
1010
,
0100
0000
0000
0000
0001
0000
0000
0010
0000
0100
1000
0000
0100
0000
0001
0000
,
0100
0000
0000
0000
0010
0000
0000
0100
0000
0100
0001
0000
0010
0000
0001
0000
,
0100
0000
1000
0000
0010
0000
0100
0010
0000
0010
0100
0000
0001
0000
0100
0000
,
2000
3000
0011
0110
,
1000
0000
0100
0000
1000
0000
0001
0100
0000
0001
0010
0000
0100
0000
0010
0000
,
0001
0000
0100
0000
1000
0000
0001
0010
0000
0010
0100
0000
1000
0000
0010
0000
,
0001
0000
0001
0000
0001
0000
0100
0010
0000
0100
0010
0000
1000
0000
0002
0000
,
0000
0003
0101
1010
,
1000
0000
0001
0000
0100
0000
0001
0010
0000
0100
1000
0000
0100
0000
0010
0000
,
0001
0000
0100
0000
0001
0000
0010
0001
0000
0001
0010
0000
0001
0000
0010
0000
,
0001
0000
0100
0000
1000
0000
0010
0001
0000
0100
1000
0000
0100
0000
0020
0000
,
0000
0000
0000
0000
0000
0000
0000
0000
0030
0000
0000
0000
0000
0000
0000
0000
1001
0000
0000
0000
0000
0000
0000
0000
1001
0000
0000
0000
0000
0000
0000
1000
,
0100
0000
0000
0000
0001
0000
0000
0000
0010
0000
0000
0000
0100
0000
0000
0000
1000
0000
0000
0000
0000
0000
0000
0000
1000
0000
0000
0000
0000
0000
0000
0100
,
1000
0000
0000
0000
0001
0000
0000
0000
1000
0000
0000
0000
0100
0000
0000
0000
1000
0000
0000
0000
0010
0000
0000
0000
1000
0000
0000
0000
0000
0000
0000
0010
,
0001
0000
0000
0000
0100
0000
0000
0000
1000
0000
0000
0000
0100
0000
0000
0000
1001
0000
0000
0000
0000
0000
0000
0000
1010
0000
0000
0000
0000
0000
0000
0001
,
1000
0000
0000
0000
0000
0000
0000
0000
0000
0000
0000
0000
0000
0000
0000
0000
0000
0000
0000
0000
0000
0000
0000
0000
0100
0000
0000
0000
0000
0000
0000
0000
0000
0000
0000
0000
0000
0000
0000
0000
0000
0000
0000
0000
0000
0000
0000
0000
0010
0000
0000
0000
0000
0000
0000
0000
0000
0000
0000
0000
0000
0000
0000
0000
0000
0000
0000
0000
0000
0000
0000
0000
0100
0000
0000
0000
0000
0000
0000
0000
0000
0000
0000
0000
0000
0000
0000
0000
0000
0000
0000
0000
0000
0000
0000
0000
0001
0000
0000
0000
0000
0000
0000
0000
0010
0000
0000
0000
0000
0000
0000
0000
0000
0000
0000
0000
0000
0000
0000
0000
0000
0000
0000
0000
0000
0000
0000
0000
0000
0000
0000
0000
0000
0000
0000
0000
0000
0000
0000
0000
0000
0000
0000
0000
1000
0000
0000
0000
0000
0000
0000
0000
0100
0000
0000
0000
0000
0000
0000
0000
0000
0000
0000
0000
0000
0000
0000
0000
0000
0000
0000
0000
0000
0000
0000
0000
0000
0000
0000
0000
0000
0000
0000
0000
0000
0000
0001
0000
0000
0000
0000
0000
,
0100
0000
0000
0000
0001
0000
0000
0000
1000
0000
0000
0000
0100
0000
0000
0000
0011
0000
0000
0000
0000
0000
0000
0000
1100
0000
0000
0000
0000
0000
0000
0100
,
0010
0000
0000
0000
0001
0000
0000
0000
0010
0000
0000
0000
0100
0000
0000
0000
0010
0000
0000
0000
0001
0000
0000
0000
0100
0000
0000
0000
0000
0000
0000
0010
,
1000
0000
0000
0000
0000
0000
0010
0000
0000
0000
0000
0000
1000
0000
0000
0000
0000
0000
0010
0000
0000
0000
0000
0000
1001
0000
0000
0000
0000
0000
0000
0000
0000
0000
0000
0100
1000
0000
0000
0000
0000
0000
0000
0000
0000
0200
0000
0000
,
0000
0000
0000
0000
0000
0000
1000
0000
1000
1300
0010
0000
0001
0000
0000
0000
,
0011
0000
0000
0000
1000
0000
0000
1000
0000
1000
0100
0000
0010
0000
0100
0000
,
0001
0000
0000
0000
0011
0000
0000
0001
0000
0001
1000
0000
0100
0000
0001
0000
,
0010
0000
1000
0000
0010
0000
0100
0001
0000
1000
0010
0000
0100
0000
2000
0000
,
0000
3000
0110
0110
,
1100
0000
0000
0000
1000
0000
0000
1000
0000
1000
0001
0000
0010
0000
0100
0000
,
1000
0000
0000
0000
0110
0000
0000
0001
0000
0100
1000
0000
0100
0000
0001
0000
,
1000
0000
0001
0000
0010
0000
0001
0010
0000
0100
1000
0000
0100
0000
0001
0000
,
0000
0000
0100
0010
0001
0000
0100
1000
0001
0000
0100
0000
0010
0000
1000
0000
,
0100
0000
0000
0000
1100
0000
0000
0010
0000
0010
0010
0000
0100
0000
1000
0000
,
0100
0000
0000
0000
1001
0000
0000
1000
0000
1000
1000
0000
0001
0000
0001
0000
,
1000
0000
0100
0000
0001
0000
1000
1000
0000
0001
0001
0000
0100
0000
0100
0000
,
0100
0000
1100
1100
,
0011
0000
0000
0000
0011
0000
0000
0010
0000
0100
0010
0000
1000
0000
0100
0000
,
1000
0000
0000
0000
0101
0000
0000
1000
0000
0100
0010
0000
0001
0000
0100
0000
,
1000
0000
0100
0000
0001
0000
0010
1000
0000
1000
0010
0000
0100
0000
1000
0000
,
0000
0000
0002
1000
0100
0000
0100
0000
0000
0000
0100
0000
0100
0000
0000
0100
,
0000
0000
0000
0000
0000
0000
0000
0000
0000
0000
0000
0000
0000
0000
0000
0000
0003
0000
0000
0000
0000
0000
0000
0200
0000
0000
0000
0000
0000
0000
0000
0000
0000
0000
0000
0000
0000
0000
0000
0000
0000
0000
0000
0000
0000
0000
0000
0000
0000
0000
0000
0000
0000
0000
0000
0000
0000
0000
0000
0000
0000
0000
0000
0000
,
0000
0000
0000
0000
,
0000
0000
0000
0000
0000
0000
0000
0000
0000
0000
0000
0000
0000
0000
0000
0000
0000
0000
0000
0000
0000
0000
0000
0000
0000
0000
0000
0000
0000
1300
0000
0000
0000
0000
0000
1000
0000
0000
0000
0000
0000
0000
0000
1000
0000
0000
0000
0000
0000
0000
0000
0000
0000
0000
0000
0200
0000
0000
0000
0000
0000
0000
0000
0000
,
0000
0000
0000
2300
0000
0000
0000
0000
0000
0000
0000
0000
0000
0000
0000
0000
0000
0000
0000
0000
0000
3200
0000
0000
0000
0000
0000
0000
0000
0000
0000
0000
0000
0000
0000
0000
0000
0000
0000
0000
0000
0000
0000
0000
0000
0000
0000
0000
0000
0000
0000
0000
0000
0000
0000
0000
0000
0000
0000
0000
0000
0000
0000
0000
,
0000
0000
0000
0000
,
0000
0000
0000
0000
,
0000
0000
0000
0000
,
0000
0000
0000
0000
,
1300
0000
0010
0000
0001
0000
1000
0010
0000
0100
0000
0010
0001
0000
1000
0000
,
0000
0000
1000
0000
0001
0000
0100
0001
0000
1000
0001
0000
0100
0000
0000
0000
,
0000
0000
1000
0000
0100
0000
1000
0000
0100
0010
0000
0010
0000
0010
0000
0100
,
0010
0000
0001
0000
1000
0000
0100
0000
0001
0010
0000
0010
1000
0000
0100
0000
,
0000
0000
1000
0000
0100
0000
0001
0010
0000
0010
0000
0010
0001
0000
1000
0000
,
0000
0000
1000
0000
0010
0000
1000
0100
0000
0100
1000
0000
0010
0000
0000
0000
,
0000
0000
0100
0000
0010
0000
0100
0000
0001
0010
0000
0010
0000
0010
0000
0010
,
1000
0000
0100
0000
0010
0000
0100
0000
0010
0001
0000
1000
0001
0000
0000
0000
,
1100
0000
0000
0000
0110
0000
0000
0001
0000
0001
0100
0000
0010
0000
0100
0000
,
0010
0000
0000
0000
0101
0000
0000
0001
0000
0010
0100
0000
1000
0000
0001
0000
,
0010
0000
0100
0000
1000
0000
0100
0001
0000
0100
0010
0000
0001
0000
2000
0000
,
0000
3000
1100
1001
,
0110
0000
0000
0000
1010
0000
0000
0100
0000
0001
0010
0000
0100
0000
0100
0000
,
0010
0000
0000
0000
0101
0000
0000
1000
0000
0001
0010
0000
0100
0000
0001
0000
,
0010
0000
0010
0000
0010
0000
1000
0100
0000
0001
0100
0000
0100
0000
0200
0000
,
0000
0000
0000
0000
0000
0000
0000
0000
0000
0000
0000
0000
0300
0000
0000
0000
0100
0000
0000
0000
0000
0000
0000
0000
1001
0000
0000
0000
0000
0000
0000
0001
,
0100
0000
0000
0000
0010
0000
0000
0000
0100
0000
0000
0000
0010
0000
0000
0000
0100
0000
0000
0000
0000
0000
0000
0000
0110
0000
0000
0000
0000
0000
0000
0001
,
0100
0000
0000
0000
1000
0000
0000
0000
0001
0000
0000
0000
0010
0000
0000
0000
1100
0000
0000
0000
0011
0000
0000
0000
1100
0000
0000
0000
0000
0000
0000
1000
,
0010
0000
0000
0000
0001
0000
0000
0000
0010
0000
0000
0000
0100
0000
0000
0000
0011
0000
0000
0000
0000
0000
0000
0000
1100
0000
0000
0000
0000
0000
0000
1000
,
0010
0000
0000
0000
0000
0000
0000
0000
0000
0000
0000
0000
0000
0000
0000
0000
0000
0000
0000
0000
0000
0000
0000
0000
0001
0000
0000
0000
0000
0000
0000
0000
0000
0000
0000
0000
0000
0000
0000
0000
0000
0000
0000
0000
0000
0000
0000
0000
1000
0000
0000
0000
0000
0000
0000
0000
0000
0000
0000
0000
0000
0000
0000
0000
0000
0000
0000
0000
0000
0000
0000
0000
0001
0000
0000
0000
0000
0000
0000
0000
0000
0000
0000
0000
0000
0000
0000
0000
0000
0000
0000
0000
0000
0000
0000
0000
0100
0000
0000
0000
0000
0000
0000
0000
0010
0000
0000
0000
0000
0000
0000
0000
0000
0000
0000
0000
0000
0000
0000
0000
0000
0000
0000
0000
0000
0000
0000
0000
0000
0000
0000
0000
0000
0000
0000
0000
0000
0000
0000
0000
0000
0000
0000
0000
1000
0000
0000
0000
0000
0000
0000
0000
0100
0000
0000
0000
0000
0000
0000
0000
0000
0000
0000
0000
0000
0000
0000
0000
0000
0000
0000
0000
0000
0000
0000
0000
0000
0000
0000
0000
0000
0000
0000
0000
0000
0000
0001
0000
0000
0000
0000
0000
,
0100
0000
0000
0000
0100
0000
0000
0000
0001
0000
0000
0000
0001
0000
0000
0000
1100
0000
0000
0000
0000
0000
0000
0000
0101
0000
0000
0000
0000
0000
0000
1000
,
0010
0000
0000
0000
1000
0000
0000
0000
1000
0000
0000
0000
1000
0000
0000
0000
0011
0000
0000
0000
0011
0000
0000
0000
0011
0000
0000
0000
0000
0000
0000
0001
,
1000
0000
0000
0000
0000
0000
0010
0000
0000
0000
0000
0000
1000
0000
0000
0000
0000
0000
0010
0000
0000
0000
0000
0000
1001
0000
0000
0000
0000
0000
0000
0000
0000
0000
0000
0100
1000
0000
0000
0000
0000
0000
0000
0000
0000
0200
0000
0000
,
0000
0000
0000
0000
0000
0000
1000
0000
0010
0301
1000
0000
0010
0000
0000
0000
,
1100
0000
0000
0000
1000
0000
0000
0001
0000
0001
0100
0000
0010
0000
0100
0000
,
0001
0000
0000
0000
1100
0000
0000
0001
0000
0100
1000
0000
0100
0000
0001
0000
,
0010
0000
1000
0000
0001
0000
0100
0010
0000
0010
0001
0000
0100
0000
2200
0000
,
0000
3300
0101
0110
,
1100
0000
0000
0000
1000
0000
0000
0010
0000
0010
0001
0000
0010
0000
0100
0000
,
1000
0000
0000
0000
0110
0000
0000
0001
0000
0100
1000
0000
0100
0000
0001
0000
,
1000
0000
0001
0000
0010
0000
0001
0010
0000
0100
1000
0000
0100
0000
0001
0000
,
0000
0000
0100
0010
0001
0000
0100
1000
0001
0000
0100
0000
0010
0000
1000
0000
,
0100
0000
0000
0000
1100
0000
0000
0010
0000
0010
0010
0000
0100
0000
1000
0000
,
0100
0000
0000
0000
1001
0000
0000
1000
0000
1000
1000
0000
0001
0000
0001
0000
,
1000
0000
0100
0000
0001
0000
1000
1000
0000
0001
0001
0000
0100
0000
0100
0000
,
0100
0000
1100
1100
,
0010
0000
0000
0000
0001
0000
0000
1000
0000
0010
0100
0000
0001
0000
0100
0000
,
0010
0000
0000
0000
0100
0000
0000
0001
0000
0001
0100
0000
1000
0000
0001
0000
,
0010
0000
0100
0000
0001
0000
0010
0100
0000
0001
1000
0000
0001
0000
0100
0000
,
0010
0000
1001
0110
,
1000
0000
0000
0000
0100
0000
0000
0010
0000
0010
1000
0000
0100
0000
1000
0000
,
0001
0000
0000
0000
0010
0000
0000
0100
0000
0100
0001
0000
0010
0000
0001
0000
,
0100
0000
1000
0000
0100
0000
0001
0010
0000
1000
0010
0000
0001
0000
0020
0000
,
0000
0000
1100
1130
;

//---------------dance-single - 64ths = D----------------
#NOTES:
     dance-single:
     64ths = D:
     Challenge:
     14:
     0.679,1.000,0.446,0.095,0.692,709.000,75.000,16.000,0.000,2.000:

0000
0000
0000
0000
,
0000
0000
0000
0000
,
0000
0000
0000
0000
,
0000
0000
0000
0000
,
0100
0000
0000
0000
1010
0000
0000
1000
0000
0100
0010
0000
0001
0000
0100
0000
,
1000
0000
0000
0000
0101
0000
0000
0010
0000
0100
0001
0000
0010
0000
0100
0000
,
1000
0000
0001
0000
0010
0000
0100
0010
0000
0010
0100
0000
1000
0000
0002
0000
,
0000
0003
1000
1010
,
0100
0000
0000
0000
0001
0000
0000
0010
0000
0100
1000
0000
0100
0000
0001
0000
,
0100
0000
0000
0000
0010
0000
0000
0100
0000
0100
0001
0000
0010
0000
0001
0000
,
0100
0000
1000
0000
0010
0000
0100
0010
0000
0010
0100
0000
0001
0000
0100
0000
,
2000
3000
0011
0110
,
1100
0000
0100
0000
1001
0000
0001
0100
0000
0001
0010
0000
0100
0000
0010
0000
,
0011
0000
0100
0000
1010
0000
0001
0010
0000
0010
0100
0000
1000
0000
0010
0000
,
0001
0000
0001
0000
0001
0000
0100
0010
0000
0100
0010
0000
1000
0000
0002
0000
,
0000
0003
0101
1010
,
1100
0000
0001
0000
0110
0000
0001
0010
0000
0100
1000
0000
0100
0000
0010
0000
,
0101
0000
0100
0000
1001
0000
0010
0001
0000
0001
0010
0000
0001
0000
0010
0000
,
0101
0000
0100
0000
1100
0000
0010
0001
0000
0100
1000
0000
0100
0000
0020
0000
,
0000
0000
0000
0000
0000
0000
0000
0000
0000
0000
0000
0000
0000
0000
0000
0000
0030
0000
0000
0000
0000
0000
0000
0000
0000
0000
0000
0000
0000
0000
0000
0000
1001
0000
0000
0000
0000
0000
0000
0000
0000
0000
0000
0000
0000
0000
0000
0000
1001
0000
0000
0000
0000
0000
0000
0000
0000
0000
0000
0000
0000
0000
0100
0010
,
0100
0000
0000
0000
0000
0000
0000
0000
0001
0000
0000
0000
0000
0000
0000
0000
0010
0000
0000
0000
0000
0000
0000
0000
0100
0000
0000
0000
0000
0000
0000
0000
1000
0000
0000
0000
0000
0000
0000
0000
0000
0000
0000
0000
0000
0000
0000
0000
1000
0000
0000
0000
0000
0000
0000
0000
0000
0000
0000
0000
0000
0000
1000
0100
,
1000
0000
0000
0000
0000
0000
0000
0000
0001
0000
0000
0000
0000
0000
0000
0000
1000
0000
0000
0000
0000
0000
0000
0000
0100
0000
0000
0000
0000
0000
0000
0000
1000
0000
0000
0000
0000
0000
0000
0000
0010
0000
0000
0000
0000
0000
0000
0000
1000
0000
0000
0000
0000
0000
0000
0000
0000
0000
0000
0000
0000
0000
0001
0010
,
0001
0000
0000
0000
0000
0000
0000
0000
0100
0000
0000
0000
0000
0000
0000
0000
1000
0000
0000
0000
0000
0000
0000
0000
0100
0000
0000
0000
0000
0000
0000
0000
1001
0000
0000
0000
0000
0000
0000
0000
0000
0000
0000
0000
0000
0000
0000
0000
1010
0000
0000
0000
0000
0000
0000
0000
0000
0000
0000
0000
0000
0000
1000
0001
,
1000
0000
0000
0000
0000
0000
0000
0000
0000
0000
0000
0000
0000
0000
0000
0000
0000
0000
0000
0000
0000
0000
0000
0000
0100
0000
0000
0000
0000
0000
0000
0000
0000
0000
0000
0000
0000
0000
0000
0000
0000
0000
0000
0000
0000
0000
0000
0000
0010
0000
0000
0000
0000
0000
0000
0000
0000
0000
0000
0000
0000
0000
0000
0000
0000
0000
0000
0000
0000
0000
0000
0000
0100
0000
0000
0000
0000
0000
0000
0000
0000
0000
0000
0000
0000
0000
0000
0000
0000
0000
0000
0000
0000
0000
0000
0000
0001
0000
0000
0000
0000
0000
0000
0000
0010
0000
0000
0000
0000
0000
0000
0000
0000
0000
0000
0000
0000
0000
0000
0000
0000
0000
0000
0000
0000
0000
0000
0000
0000
0000
0000
0000
0000
0000
0000
0000
0000
0000
0000
0000
0000
0000
0000
0000
1000
0000
0000
0000
0000
0000
0000
0000
0100
0000
0000
0000
0000
0000
0000
0000
0000
0000
0000
0000
0000
0000
0000
0000
0000
0000
0000
0000
0000
0000
0000
0000
0000
0000
0000
0000
0000
0000
0000
0000
0000
0000
0001
0000
0000
0010
0000
0000
,
0100
0000
0000
0000
0000
0000
0000
0000
0001
0000
0000
0000
0000
0000
0000
0000
1000
0000
0000
0000
0000
0000
0000
0000
0100
0000
0000
0000
0000
0000
0000
0000
0011
0000
0000
0000
0000
0000
0000
0000
0000
0000
0000
0000
0000
0000
0000
0000
1100
0000
0000
0000
0000
0000
0000
0000
0000
0000
0000
0000
0000
0000
0100
0001
,
0010
0000
0000
0000
0000
0000
0000
0000
0001
0000
0000
0000
0000
0000
0000
0000
0010
0000
0000
0000
0000
0000
0000
0000
0100
0000
0000
0000
0000
0000
0000
0000
0010
0000
0000
0000
0000
0000
0000
0000
0001
0000
0000
0000
0000
0000
0000
0000
0100
0000
0000
0000
0000
0000
0000
0000
0000
0000
0000
0000
0000
0000
0010
0001
,
1000
0000
0000
0000
0000
0000
0000
0000
0000
0000
0000
0000
0000
0000
0000
0000
0000
0000
0000
0000
0000
0000
0000
0000
0010
0000
0000
0000
0000
0000
0000
0000
0000
0000
0000
0000
0000
0000
0000
0000
0000
0000
0000
0000
0000
0000
0000
0000
1000
0000
0000
0000
0000
0000
0000
0000
0000
0000
0000
0000
0000
0000
0000
0000
0000
0000
0000
0000
0000
0000
0000
0000
0010
0000
0000
0000
0000
0000
0000
0000
0000
0000
0000
0000
0000
0000
0000
0000
0000
0000
0000
0000
0000
0000
0000
0000
1001
0000
0000
0000
0000
0000
0000
0000
0000
0000
0000
0000
0000
0000
0000
0000
0000
0000
0000
0000
0000
0000
0000
0000
0000
0000
0000
0000
0000
0000
0000
0000
0000
0000
0000
0000
0000
0000
0000
0000
0000
0000
0000
0000
0100
0000
0000
0000
1000
0000
0000
0000
0000
0000
0000
0000
0000
0000
0000
0000
0000
0000
0000
0000
0000
0000
0000
0000
0000
0000
0000
0000
0000
0000
0000
0000
0000
0000
0000
0000
0000
0000
0000
0000
1000
0000
0000
0010
0000
0000
0001
0000
0000
0100
0000
0000
,
0010
0001
0010
0200
0000
0000
0000
0000
0000
0000
0000
0000
0000
0000
0000
0000
0000
0000
0000
0000
0000
0000
0000
0000
1300
0000
0000
0000
0000
0000
0000
0000
1000
0000
0000
0000
1000
0000
0000
0000
0010
0000
0000
0000
0000
0000
0000
0000
0001
0000
0000
0000
0000
0000
0000
0000
0000
0000
0000
0000
0000
0000
0000
0000
,
0011
0000
0000
0000
1000
0000
0000
1000
0000
1000
0100
0000
0010
0000
0100
0000
,
0001
0000
0000
0000
0011
0000
0000
0001
0000
0001
1000
0000
0100
0000
0001
0000
,
0010
0000
1000
0000
0010
0000
0100
0001
0000
1000
0010
0000
0100
0000
2000
0000
,
0000
3000
0110
0110
,
1100
0000
0000
0000
1000
0000
0000
1000
0000
1000
0001
0000
0010
0000
0100
0000
,
1000
0000
0000
0000
0110
0000
0000
0001
0000
0100
1000
0000
0100
0000
0001
0000
,
1000
0000
0001
0000
0010
0000
0001
0010
0000
0100
1000
0000
0100
0000
0001
0000
,
0000
0000
0100
0010
0001
0000
0100
1000
0001
0000
0100
0000
0010
0000
1000
0000
,
0100
0000
0000
0000
1100
0000
0000
0010
0000
0010
0010
0000
0100
0000
1000
0000
,
0100
0000
0000
0000
1001
0000
0000
1000
0000
1000
1000
0000
0001
0000
0001
0000
,
1000
0000
0100
0000
0001
0000
1000
1000
0000
0001
0001
0000
0110
0000
1100
0000
,
0101
0000
1100
1100
,
0011
0000
0000
0000
0011
0000
0000
0010
0000
0100
0010
0000
1000
0000
0100
0000
,
1000
0000
0000
0000
0101
0000
0000
1000
0000
0100
0010
0000
0001
0000
0100
0000
,
1000
0000
0100
0000
0001
0000
0010
1000
0000
1000
0010
0000
0100
0000
1000
0000
,
0000
0000
0002
1000
0100
0000
0100
0000
0000
0000
0100
0000
0100
0000
0000
0100
,
0000
0000
0000
0000
0000
0000
0000
0000
0000
0000
0000
0000
0000
0000
0000
0000
0003
0000
0000
0000
0000
0000
0000
1000
0000
0000
0000
0000
0000
0000
0000
1000
0000
0000
0000
0000
0000
0000
0000
1000
0000
0000
0000
0000
0000
0000
0000
0000
1000
0000
0000
0000
0000
0100
0010
0100
0000
0000
0000
0000
0000
0000
1000
0000
,
0000
0000
0100
0000
0010
0000
0001
0000
0010
0000
0100
0000
0000
0000
1000
0000
0000
0000
0000
0000
0000
0000
0100
0010
0100
0010
0100
0010
0100
0010
0000
0000
0000
0000
0000
0010
0100
0010
0100
0010
0100
0010
0100
0010
0000
0000
0000
0000
0000
0000
0010
0100
0010
0100
0010
0100
0010
0100
0010
0100
0010
0100
0010
0000
,
0000
0000
0000
0000
0000
0000
0000
0000
0010
0100
0010
0100
0010
0100
0010
0100
0010
0200
0000
0000
0000
0000
0000
0000
0000
0000
0000
0000
0000
1300
0000
0000
0000
0000
0000
1000
0000
0000
0000
0000
0000
0000
0000
1000
0000
0000
0000
0000
0000
0000
0000
0000
0000
0000
0000
0200
0000
0000
0000
0000
0000
0000
0000
0000
,
0000
0000
0000
2300
0000
0000
0000
0000
0000
0000
0000
0000
0000
0000
0000
0000
0000
0000
0000
0000
0000
3200
0000
0000
0000
0000
0000
0000
0000
0000
0000
0000
0000
0000
0000
0000
0000
0000
0000
0000
0000
0000
0000
0000
0000
0000
0000
0000
0000
0000
0000
0000
0000
0000
0000
0000
0000
0000
0000
0000
0000
0000
0000
0000
,
0000
0000
1000
0000
1000
0000
1000
1000
0000
1000
0000
1000
1000
0000
1000
0000
,
0000
0000
1000
0000
1000
0000
1000
1000
0000
1000
1000
0000
1000
0000
0000
0000
,
0000
0000
1000
0000
1000
0000
1000
0000
1000
1000
0000
1000
0000
1000
0000
1000
,
1000
0000
1000
0000
1000
0000
1000
0000
1000
1000
0000
1000
0000
0000
0000
0000
,
0001
0000
0000
0000
0000
0000
0000
0000
0010
0000
0000
0000
0000
0000
0000
0000
0001
0000
0000
0000
0000
0300
0000
0000
0001
0000
0000
0000
0010
0000
0000
0000
0000
0000
0000
0000
0010
0000
0000
0000
0000
0000
0000
0000
0010
0000
0000
0000
0100
0000
0000
0000
0000
0000
0000
0000
1000
0000
0000
0000
0000
0000
0000
0000
,
0000
0000
1000
0000
0001
0000
0100
0010
0000
1000
0001
0000
0100
0000
0000
0000
,
0000
0000
1000
0000
0100
0000
1000
0000
0100
0010
0000
0001
0000
0001
0000
0100
,
0010
0000
0100
0000
1000
0000
0100
0000
0001
0010
0000
0100
1000
0000
0100
0000
,
0000
0000
1000
0000
0100
0000
0001
0010
0000
0100
0000
0010
0001
0000
0100
0000
,
0000
0000
0100
0000
0010
0000
1000
0100
0000
0100
1000
0000
0010
0000
0000
0000
,
0000
0000
0100
0000
1000
0000
0100
0000
0001
0010
0000
0100
0000
0010
0000
0100
,
1000
0000
0100
0000
0010
0000
0100
0000
0010
0100
0000
1000
0001
0000
0000
0000
,
1100
0000
0000
0000
0110
0000
0000
1000
0000
0001
0100
0000
0010
0000
0100
0000
,
0010
0000
0000
0000
0101
0000
0000
0010
0000
0010
0100
0000
1000
0000
0001
0000
,
0010
0000
0100
0000
1000
0000
0100
0100
0000
0010
0010
0000
0001
0000
2000
0000
,
0000
3000
1100
1001
,
0110
0000
0000
0000
1010
0000
0000
0100
0000
0001
0010
0000
0100
0000
0100
0000
,
0010
0000
0000
0000
0101
0000
0000
1000
0000
0001
0010
0000
0100
0000
0001
0000
,
0010
0000
0010
0000
0010
0000
1000
0100
0000
0001
0100
0000
0100
0000
0200
0000
,
0000
0000
0000
0000
0000
0000
0000
0000
0000
0000
0000
0000
0000
0000
0000
0000
0000
0000
0000
0000
0000
0000
0000
0000
0300
0000
0000
0000
0000
0000
0000
0000
0100
0000
0000
0000
0000
0000
0000
0000
0000
0000
0000
0000
0000
0000
0000
0000
1001
0000
0000
0000
0000
0000
0000
0000
0000
0000
0000
0000
0000
0000
0001
1000
,
0100
0000
0000
0000
0000
0000
0000
0000
0010
0000
0000
0000
0000
0000
0000
0000
0100
0000
0000
0000
0000
0000
0000
0000
0010
0000
0000
0000
0000
0000
0000
0000
0100
0000
0000
0000
0000
0000
0000
0000
0000
0000
0000
0000
0000
0000
0000
0000
0110
0000
0000
0000
0000
0000
0000
0000
0000
0000
0000
0000
0000
0000
0000
0010
,
0100
0010
0000
0000
0000
0000
0000
0000
1000
0000
0000
0000
0000
0000
0000
0000
0001
0000
0000
0000
0000
0000
0000
0000
0010
0000
0000
0000
0000
0000
0000
0000
1100
0000
0000
0000
0000
0000
0000
0000
0011
0000
0000
0000
0000
0000
0000
0000
1100
0000
0000
0000
0000
0000
0000
0000
0000
0000
0000
0000
0000
0000
1000
0100
,
0010
0001
0000
0000
0000
0000
0000
0000
0001
0000
0000
0000
0000
0000
0000
0000
0010
0000
0000
0000
0000
0000
0000
0000
0100
0000
0000
0000
0000
0000
0000
0000
0011
0000
0000
0000
0000
0000
0000
0000
0000
0000
0000
0000
0000
0000
0000
0000
1100
0000
0000
0000
0000
0000
0000
0000
0000
0000
0000
0000
0000
0000
1000
0100
,
0010
0000
0000
0000
0000
0000
0000
0000
0000
0000
0000
0000
0000
0000
0000
0000
0000
0000
0000
0000
0000
0000
0000
0000
0001
0000
0000
0000
0000
0000
0000
0000
0000
0000
0000
0000
0000
0000
0000
0000
0000
0000
0000
0000
0000
0000
0000
0000
1000
0000
0000
0000
0000
0000
0000
0000
0000
0000
0000
0000
0000
0000
0000
0000
0000
0000
0000
0000
0000
0000
0000
0000
0001
0000
0000
0000
0000
0000
0000
0000
0000
0000
0000
0000
0000
0000
0000
0000
0000
0000
0000
0000
0000
0000
0000
0000
0100
0000
0000
0000
0000
0000
0000
0000
0010
0000
0000
0000
0000
0000
0000
0000
0000
0000
0000
0000
0000
0000
0000
0000
0000
0000
0000
0000
0000
0000
0000
0000
0000
0000
0000
0000
0000
0000
0000
0000
0000
0000
0000
0000
0000
0000
0000
0000
1000
0000
0000
0000
0000
0000
0000
0000
0100
0000
0000
0000
0000
0000
0000
0000
0000
0000
0000
0000
0000
0000
0000
0000
0000
0000
0000
0000
0000
0000
0000
0000
0000
0000
0000
0000
0000
0000
0000
0000
0000
0000
0001
0000
0000
0010
0000
0000
,
0100
0000
0000
0000
0000
0000
0000
0000
0100
0000
0000
0000
0000
0000
0000
0000
0001
0000
0000
0000
0000
0000
0000
0000
0001
0000
0000
0000
0000
0000
0000
0000
1100
0000
0000
0000
0000
0000
0000
0000
0000
0000
0000
0000
0000
0000
0000
0000
0101
0000
0000
0000
0000
0000
0000
0000
0000
0000
0000
0000
0000
0000
1000
0100
,
0010
0000
0000
0000
0000
0000
0000
0000
1000
0000
0000
0000
0000
0000
0000
0000
1000
0000
0000
0000
0000
0000
0000
0000
1000
0000
0000
0000
0000
0000
0000
0000
0011
0000
0000
0000
0000
0000
0000
0000
0011
0000
0000
0000
0000
0000
0000
0000
0011
0000
0000
0000
0000
0000
0000
0000
0000
0000
0000
0000
0000
0000
1000
0001
,
1000
0000
0000
0000
0000
0000
0000
0000
0000
0000
0000
0000
0000
0000
0000
0000
0000
0000
0000
0000
0000
0000
0000
0000
0010
0000
0000
0000
0000
0000
0000
0000
0000
0000
0000
0000
0000
0000
0000
0000
0000
0000
0000
0000
0000
0000
0000
0000
1000
0000
0000
0000
0000
0000
0000
0000
0000
0000
0000
0000
0000
0000
0000
0000
0000
0000
0000
0000
0000
0000
0000
0000
0010
0000
0000
0000
0000
0000
0000
0000
0000
0000
0000
0000
0000
0000
0000
0000
0000
0000
0000
0000
0000
0000
0000
0000
1001
0000
0000
0000
0000
0000
0000
0000
0000
0000
0000
0000
0000
0000
0000
0000
0000
0000
0000
0000
0000
0000
0000
0000
0000
0000
0000
0000
0000
0000
0000
0000
0000
0000
0000
0000
0000
0000
0000
0000
0000
0000
0000
0000
0100
0000
0000
0000
1000
0000
0000
0000
0000
0000
0000
0000
0000
0000
0000
0000
0000
0000
0000
0000
0000
0000
0000
0000
0000
0000
0000
0000
0000
0000
0000
0000
0000
0000
0000
0000
0000
0000
0000
0000
1000
0000
0000
0010
0000
0000
0001
0000
0000
0100
0000
0000
,
0010
0001
0010
0200
0000
0000
0000
0000
0000
0000
0000
0000
0000
0000
0000
0000
0000
0000
0000
0000
0000
0000
0000
0000
1300
0000
0000
0000
0000
0000
0000
0000
1000
0000
0000
0000
1000
0000
0000
0000
0010
0000
0000
0000
0000
0000
0000
0000
0001
0000
0000
0000
0000
0000
0000
0000
0000
0000
0000
0000
0000
0000
0000
0000
,
0011
0000
0000
0000
1000
0000
0000
1000
0000
1000
0100
0000
0010
0000
0100
0000
,
0001
0000
0000
0000
0011
0000
0000
0001
0000
0001
1000
0000
0100
0000
0001
0000
,
0010
0000
1000
0000
0010
0000
0100
0001
0000
1000
0010
0000
0100
0000
2000
0000
,
0000
3000
0110
0110
,
1100
0000
0000
0000
1000
0000
0000
1000
0000
1000
0001
0000
0010
0000
0100
0000
,
1000
0000
0000
0000
0110
0000
0000
0001
0000
0100
1000
0000
0100
0000
0001
0000
,
1000
0000
0001
0000
0010
0000
0001
0010
0000
0100
1000
0000
0100
0000
0001
0000
,
0000
0000
0100
0010
0001
0000
0100
1000
0001
0000
0100
0000
0010
0000
1000
0000
,
0100
0000
0000
0000
1100
0000
0000
0010
0000
0010
0010
0000
0100
0000
1000
0000
,
0100
0000
0000
0000
1001
0000
0000
1000
0000
1000
1000
0000
0001
0000
0001
0000
,
1000
0000
0100
0000
0001
0000
1000
1000
0000
0001
0001
0000
0100
0000
0100
0000
,
0100
0000
1100
1100
,
0010
0000
0000
0000
0001
0000
0000
1000
0000
0010
0100
0000
0001
0000
0100
0000
,
0010
0000
0000
0000
0100
0000
0000
0001
0000
0001
0100
0000
1000
0000
0001
0000
,
0010
0000
0100
0000
0001
0000
0010
0100
0000
0001
1000
0000
0001
0000
0100
0000
,
0010
0000
1001
0110
,
1000
0000
0000
0000
1000
0000
0000
1000
0000
1000
1000
0000
1000
0000
1000
0000
,
0001
0000
0000
0000
0001
0000
0000
0001
0000
0001
0001
0000
0001
0000
0001
0000
,
0100
0000
1000
0000
0100
0000
0001
0010
0000
1000
0010
0000
0001
0000
0020
0000
,
0000
0000
1100
1130
;
