#TITLE:A Little Problem;
#SUBTITLE:;
#ARTIST:40oz. To Life;
#TITLETRANSLIT:;
#SUBTITLETRANSLIT:;
#ARTISTTRANSLIT:;
#CREDIT:The Cosmic Pope;
#BANNER:Bn-Problem.png;
#BACKGROUND:Bg-Problem.png;
#LYRICSPATH:;
#CDTITLE:;
#MUSIC:A Little Problem.ogg;
#OFFSET:-0.041;
#SAMPLESTART:38.447;
#SAMPLELENGTH:19.200;
#SELECTABLE:YES;
#BPMS:0.000=200.000;
#STOPS:;
#BGCHANGES:;
// cache tags:
#FIRSTBEAT:31.000;
#LASTBEAT:449.000;
#SONGFILENAME:Songs/Speedcore Rejects/A Little Problem - [Pope]/A Little Problem.sm;
#HASMUSIC:1;
#HASBANNER:1;
#MUSICLENGTH:136.533;
// end cache tags

//---------------dance-single - B. Abear----------------
#NOTES:
     dance-single:
     B. Abear:
     Challenge:
     13:
     1.000,1.000,0.132,0.645,0.817,858.000,18.000,88.000,43.000,0.000:

0000
0000
0000
0000
,
0000
0000
0000
0000
,
0000
0000
0000
0000
,
0000
0000
0000
0000
,
0000
0000
0000
0000
,
0000
0000
0000
0000
,
0000
0000
0000
0000
,
0000
0000
0000
0000
0000
0000
0000
0000
0000
0000
0000
0000
0000
0000
0000
0000
0000
0000
0000
0000
0000
0000
0000
0000
0M00
0M00
0M00
0M00
0M00
0M00
0M00
0M00
,
2020
3030
0000
0000
0000
0000
0000
0000
0000
0000
0000
0000
0000
0000
0000
0000
,
0000
0000
0000
0000
,
0000
0000
0000
0000
,
0000
0000
0000
0000
,
0000
0000
0000
0000
,
0000
0000
0000
0000
,
0000
0000
0000
0000
,
0000
0000
0000
0000
,
1001
1000
0100
0100
0100
0100
0000
0000
,
0000
0000
0000
0000
,
0110
0010
0001
0010
0100
1000
0000
0000
,
0000
0000
0000
0000
,
1100
0100
0010
0001
1000
1000
0000
0000
,
0000
0000
0000
0000
,
1001
0001
0100
0100
0010
1000
0000
0000
,
1000
0000
0010
0000
0100
0000
0100
0000
0001
0000
1000
0001
1000
0001
0010
0000
,
0001
0000
0100
M0M0
0100
0000
1000
0000
0001
0000
0100
0000
0020
0000
0130
0000
,
0001
0000
0100
M0M0
0100
0000
1000
0000
0001
0000
1000
0100
0010
0001
1000
0000
,
0001
0000
0010
0M0M
0010
0000
1000
0000
0001
0000
0010
0000
0200
0000
0310
0000
,
0001
0000
0010
0M0M
0010
0000
1000
0000
0001
0000
1000
0100
0010
0001
1000
0000
,
0001
0000
0100
M0M0
0100
0000
1000
0000
0001
0000
0010
0000
0200
0000
0310
0000
,
0001
0000
0100
M0M0
0100
0000
1000
0000
0001
0000
1000
0010
0100
0001
1000
0000
,
0001
0000
0010
0M0M
0010
0000
1000
0000
0001
0000
0100
0000
0020
0000
0130
0000
,
0001
0000
0010
0M0M
0010
0000
1000
0000
0001
0000
1000
0010
0100
0001
1000
0000
,
0001
0010
0100
1000
0001
0000
0010
0001
0010
0001
1000
0000
0001
0100
0010
1000
,
0001
0100
0010
1000
0001
0000
1000
0100
0010
0100
1000
0100
0010
0001
1000
0010
,
1000
0100
0010
0001
1000
0000
0100
1000
0100
1000
0001
0000
1000
0010
0100
0001
,
1000
0010
0100
0010
1000
0010
0100
0010
1000
0010
0100
0001
1000
0100
0010
0000
,
0001
0100
0010
1000
0001
0000
1000
0010
1000
0010
0100
0000
0001
0010
0100
1000
,
0001
0100
0010
1000
0001
0000
1000
0010
0100
0010
1000
0010
0100
0001
1000
0100
,
1000
0010
0100
0001
1000
0000
0010
0100
0010
0100
0001
0000
1000
0100
0010
0001
,
1000
0100
0010
0100
1000
0100
0010
0100
1000
0001
1000
0100
0010
0001
0100
0000
,
0001
0010
0100
1000
0001
0000
0010
0001
0010
0001
1000
0000
0001
0100
0010
1000
,
0001
0100
0010
1000
0001
0000
1000
0100
0010
0100
1000
0100
0010
0001
1000
0010
,
1000
0100
0010
0001
1000
0000
0100
1000
0100
1000
0001
0000
1000
0010
0100
0001
,
1000
0010
0100
0010
1000
0010
0100
0010
1000
0010
0100
0001
1000
0100
0010
0000
,
0001
0100
0010
1000
0001
0000
1000
0010
1000
0010
0100
0000
0001
0010
0100
1000
,
0001
0100
0010
1000
0001
0000
1000
0010
0100
0010
1000
0010
0100
0001
1000
0100
,
1000
0010
0100
0001
1000
0000
0010
0100
0010
0100
0001
0000
1000
0100
0010
0001
,
1000
0100
0010
0100
1000
0100
0010
0100
1000
0001
1000
0100
0010
0001
1000
0010
,
0100
0100
0001
0001
0001
0001
0000
0000
,
0000
0000
0000
0000
,
0101
0100
0010
1000
0001
0010
0000
0000
,
0000
0000
0000
0000
,
0011
0001
1000
0100
0010
0010
0000
0000
,
0000
0000
0000
0000
,
0011
0001
1000
1000
0010
0100
0000
0000
,
0001
0000
0010
0000
0100
0000
0100
0000
1000
0000
0010
1000
0010
1000
0001
0000
,
1002
0003
1000
0000
0002
0003
1000
0000
0002
0003
1000
0000
0020
0030
0200
0300
,
0001
0000
2000
3000
0001
0000
2000
3000
0001
0000
2000
3000
0001
0000
0020
0030
,
0200
0300
0010
0000
0002
0003
1000
0000
0020
0030
0200
0300
0002
0003
0020
0030
,
0100
0000
0020
0030
0002
0003
1000
0000
0020
0030
0100
0000
0020
0030
2000
3000
,
0002
0003
0100
0000
0020
0030
0100
0000
2000
3000
0100
0000
0002
0003
1000
0000
,
0200
0300
0020
0030
0200
0300
0002
0003
0100
0000
2000
3000
0002
0003
0100
0000
,
0002
0003
0100
0000
0002
0003
2000
3000
0002
0003
0100
0000
0020
0030
2000
3000
,
0010
0000
2000
3000
0001
0000
0020
0030
0200
0300
1000
0000
0002
0003
0020
0030
,
0M02
0003
1000
0000
0002
0003
1000
0000
0002
0003
1000
0000
0200
0300
0020
0030
,
0001
0000
2000
3000
0001
0000
2000
3000
0001
0000
2000
3000
0001
0000
0200
0300
,
0020
0030
0200
0300
0002
0003
1000
0000
0200
0300
0020
0030
0002
0003
0200
0300
,
0010
0000
0200
0300
0002
0003
1000
0000
0020
0030
0100
0000
0020
0030
2000
3000
,
0002
0003
0010
0000
0200
0300
0010
0000
2000
3000
0010
0000
0002
0003
1000
0000
,
0020
0030
0200
0300
0020
0030
0002
0003
0010
0000
2000
3000
0002
0003
0010
0000
,
0002
0003
0010
0000
0001
0000
0100
0000
0010
0000
1000
0000
0001
0000
1000
0000
,
0010
0000
1000
0001
0100
0000
0001
1000
0100
0010
0001
1000
0001
0010
0100
1000
,
0001
0100
0001
0010
0100
1000
0002
0103
,
0010
0000
0100
0000
0001
0000
1000
0000
0100
0000
0010
0001
1000
0001
0100
0000
,
0010
0100
0001
1000
0100
1000
0002
0013
,
0100
0000
1000
0000
0001
0000
1000
0000
0010
0000
0100
0001
1000
0100
1000
0000
,
0100
0010
0001
1000
0010
0100
0002
1003
,
0100
0000
1000
0000
0001
0000
0010
0000
0100
0000
0010
0001
1000
0001
0100
0000
,
0010
0100
0001
1000
0001
0010
0200
1300
,
0001
0000
0100
0000
0010
0000
0100
0000
0001
0000
1000
0001
1000
0100
0010
0000
,
0001
0000
0100
M0M0
0100
0000
1000
0000
0001
0000
0100
0000
0020
0000
0130
0000
,
0001
0000
0100
M0M0
0100
0000
1000
0000
0001
0000
1000
0100
0010
0001
1000
0000
,
0001
0000
0010
0M0M
0010
0000
1000
0000
0001
0000
0010
0000
0200
0000
0310
0000
,
0001
0000
0010
0M0M
0010
0000
1000
0000
0001
0000
1000
0010
0100
0001
1000
0000
,
0001
0000
0100
M0M0
0100
0000
1000
0000
0001
0000
0010
0000
0200
0000
0310
0000
,
0001
0000
0100
M0M0
0100
0000
1000
0000
0001
0000
1000
0100
0010
0001
1000
0000
,
0001
0000
0010
0M0M
0010
0000
1000
0000
0001
0000
0100
0000
0020
0000
0130
0000
,
0001
0010
0100
1000
0001
1000
0010
0100
0010
1000
0001
1000
0100
0010
0001
1000
,
0001
0010
0100
1000
0000
0001
0000
0001
,
0000
0001
0000
0001
0100
0001
0100
0000
,
0101
0001
1001
1000
0000
0100
0000
0100
,
0010
0000
0000
0000
0001
0000
0000
0000
1000
0000
0000
0000
0010
0000
0000
0010
0000
0000
0010
0000
0000
0010
0000
0000
,
1010
1000
1001
0001
0000
1000
0000
1000
,
0000
1000
0000
1000
0100
1000
0100
0000
,
1100
0000
1000
0000
0001
0000
0100
M0M0
0100
0000
1000
0000
0010
0000
0100
0000
,
0000
0100
0000
0010
1000
1000
1000
0001
,
1000
0100
0010
0001
1000
0000
0100
1000
0100
1000
0001
0000
1000
0010
0100
0001
,
1000
0010
0100
0001
1000
0000
0001
0010
0100
0010
0001
0010
0100
1000
0001
0100
,
0001
0010
0100
1000
0001
0000
0010
0001
0010
0001
1000
0000
0001
0100
0010
1000
,
0001
0100
0010
0100
0001
0100
0010
0100
0001
0100
0010
1000
0001
0010
0100
0000
,
1000
0010
0100
0001
1000
0000
0001
0100
0001
0100
0010
0000
1000
0100
0010
0001
,
1000
0010
0100
0001
1000
0000
0001
0100
0010
0100
0001
0100
0010
1000
0001
0010
,
0001
0100
0010
1000
0001
0000
0100
0010
0100
0010
1000
0000
0001
0010
0100
1000
,
0001
0010
0100
0010
0001
0010
0100
0010
0001
1000
0001
0010
0100
1000
0010
0000
,
1010
1000
0001
0001
0001
0001
0000
0000
,
0000
0000
0000
0000
,
1001
1000
0100
0010
0001
0100
0000
0000
,
0000
0000
0000
0000
,
0101
0001
0010
0100
1000
1000
0000
0000
,
0000
0000
0000
0000
,
1100
0100
0010
0010
0001
1000
0000
0000
,
0001
0000
0100
0000
0010
0000
0010
0000
1000
0000
0001
1000
0001
1000
0100
0000
,
M02M
0030
0000
0000
;
