#TITLE:Total Fatanity;
#SUBTITLE:;
#ARTIST:DJ Sharpnel;
#TITLETRANSLIT:;
#SUBTITLETRANSLIT:;
#ARTISTTRANSLIT:;
#CREDIT:;
#BANNER:total bn.png;
#BACKGROUND:total bg.png;
#LYRICSPATH:;
#CDTITLE:;
#MUSIC:Total Fatanity.ogg;
#OFFSET:0.307;
#SAMPLESTART:152.295;
#SAMPLELENGTH:18.962;
#SELECTABLE:YES;
#DISPLAYBPM:203.000;
#BPMS:0.000=202.500;
#STOPS:;
#BGCHANGES:;
// cache tags:
#FIRSTBEAT:64.000;
#LASTBEAT:810.000;
#SONGFILENAME:Songs/SHARPNELSTREAMZ v2/Total Fatanity/Total Fatanity.sm;
#HASMUSIC:1;
#HASBANNER:1;
#MUSICLENGTH:240.922;
// end cache tags

//---------------dance-single - 17- (Aoreo)----------------
#NOTES:
     dance-single:
     17- (Aoreo):
     Challenge:
     17:
     1.000,1.000,0.042,0.232,1.000,2500.000,10.000,56.000,10.000,0.000:
0000
0000
0000
0000
,
0000
0000
0000
0000
,
0000
0000
0000
0000
,
0000
0000
0000
0000
,
0000
0000
0000
0000
,
0000
0000
0000
0000
,
0000
0000
0000
0000
,
0000
0000
0000
0000
,
0000
0000
0000
0000
,
0000
0000
0000
0000
,
0000
0000
0000
0000
,
0000
0000
0000
0000
,
0000
0000
0000
0000
,
0000
0000
0000
0000
,
0000
0000
0000
0000
,
0000
0000
0000
0000
,
1000
0000
1000
0000
0001
0010
0100
0000
,
1000
0001
0100
0010
0100
0001
1000
0001
0100
0010
0100
0001
1000
0001
0010
0100
,
1000
0001
0010
0001
1000
0100
0010
0100
1000
0001
1000
0010
0100
0001
1000
0001
,
0010
0100
1000
0001
1000
0010
0100
0001
1000
0001
0010
0100
1000
0001
0100
0010
,
0100
0001
1000
0100
0010
0001
1000
0001
0100
0010
0100
0001
1000
0001
0100
0001
,
0010
0100
1000
0010
0100
0001
1000
0100
1000
0001
0100
0001
1000
0010
0100
0010
,
1000
0001
0100
0001
1000
0100
0010
0100
1000
0001
0010
0100
1000
0001
1000
0010
,
0100
0001
1000
0001
0010
0100
1000
0001
1000
0100
1000
0001
0100
0010
0100
0001
,
1000
1000
0010
0100
0001
0001
0010
0010
,
0100
1000
0001
0100
0010
0100
0001
1000
0001
0010
0100
1000
0001
1000
0010
0100
,
0001
0100
0010
1000
0001
1000
0100
1000
0001
0100
0001
1000
0100
0010
0001
1000
,
0100
1000
0001
0100
0010
0100
0001
1000
0001
0100
0010
0100
0001
1000
0100
0010
,
0001
1000
0100
1000
0001
0100
0010
0100
0001
1000
0001
0010
0100
1000
0001
0100
,
0001
0010
0100
1000
0010
0100
0001
1000
0100
1000
0001
0100
0001
1000
0100
0010
,
0001
1000
0001
0100
0010
0100
0001
1000
0100
0010
0001
1000
0001
0100
0010
0100
,
0001
1000
0100
1000
0001
0010
0100
1000
0001
0100
0010
0100
0001
1000
0100
0010
,
0001
0000
1000
0010
0100
0000
0001
0000
0010
0000
0100
0000
1000
0100
0010
0001
,
1000
0001
0100
0010
0100
0001
1000
0001
0010
0100
1000
0001
0100
0001
1000
0010
,
0100
0010
1000
0001
0010
0100
1000
0001
0100
0010
0100
0001
1000
0100
0010
0001
,
1000
0100
1000
0001
0100
0010
0100
0001
1000
0001
0010
0100
1000
0001
1000
0010
,
0100
0001
1000
0100
1000
0010
0100
0001
0010
0100
1000
0010
0100
0001
0010
0100
,
1000
0001
0100
0001
1000
0010
0100
0010
1000
0001
0010
0001
1000
0100
1000
0001
,
0100
0010
0100
0001
1000
0001
0010
0100
1000
0001
0100
0001
1000
0001
0010
0100
,
1000
0001
0100
0010
0100
0001
1000
0100
0010
0001
1000
0100
1000
0001
0100
0010
,
1000
0000
0001
0000
1000
0000
1000
0000
0100
0000
1000
0100
0010
0000
0000
0000
,
0001
0100
0010
0100
0001
1000
0100
0010
0001
1000
0001
0100
0010
0100
0001
1000
,
0100
0010
0100
1000
0001
0100
0010
0100
0001
1000
0100
0010
0001
1000
0001
0100
,
0010
0100
0001
1000
0001
0010
0100
1000
0001
0100
0001
1000
0010
0100
0010
1000
,
0001
0010
0100
1000
0010
0100
0001
0010
0100
1000
0010
0100
0001
0010
0100
1000
,
0001
1000
0010
0100
0001
0100
0001
1000
0100
0010
0100
1000
0001
0100
0010
0100
,
0001
1000
0100
0010
0001
1000
0001
0100
0010
0100
0001
1000
0100
1000
0001
1000
,
0010
0100
0001
1000
0100
0010
0001
1000
0010
0100
0001
1000
0001
0010
0100
1000
,
0002
0023
0230
2300
3020
0230
0302
2003
,
3100
0010
0001
1000
0001
0100
0010
0100
0001
1000
0100
0010
0100
1000
0001
0100
,
0001
1000
0100
0010
0001
1000
0100
1000
0001
0100
0001
1000
0001
0100
0010
0100
,
0001
1000
0100
0010
0100
1000
0001
1000
0010
0100
0001
1000
0001
0010
0100
0010
,
0001
1000
0001
0100
0010
0100
0001
1000
0100
0010
0100
1000
0001
0100
0010
1000
,
0100
1000
0001
0100
0010
0100
0001
1000
0001
0010
0100
1000
0001
0100
0010
0100
,
0001
1000
0100
0010
0001
1000
0100
1000
0001
0100
0010
0100
0001
1000
0001
0010
,
0100
1000
0001
0100
0010
0100
0001
1000
0100
1000
0001
1000
0010
0100
0001
1000
,
0001
0100
0001
0001
0020
0000
0230
0300
,
1000
0010
0100
0001
1000
0001
0010
0100
1000
0001
0100
0010
0100
0001
1000
0100
,
0010
0001
1000
0001
0100
0010
0100
0001
1000
0100
0010
0001
1000
0001
0100
0010
,
0100
0001
1000
0001
0010
0100
1000
0001
0100
0010
0100
0001
1000
0100
0010
0100
,
1000
0001
0100
0001
1000
0010
0100
0010
1000
0001
0100
0001
1000
0100
0010
0001
,
0100
0001
1000
0010
0100
0010
1000
0001
0010
0100
1000
0001
0100
0010
0100
0001
,
1000
0100
0010
0100
1000
0001
0100
0010
1000
0001
1000
0100
1000
0001
0100
0010
,
0100
0001
1000
0001
0010
0100
0010
0001
1000
0010
0100
0010
1000
0001
0010
0100
,
2000
3000
0001
0100
0040
0030
2000
3000
,
0001
0100
0001
1000
0010
0100
0001
1000
0100
0010
0100
1000
0001
0100
0010
0100
,
0001
0010
0100
1000
0010
0100
0010
1000
0001
1000
0100
0010
0001
0100
0010
1000
,
0100
0010
0001
1000
0001
0100
0001
1000
0100
0010
0100
1000
0010
0100
0001
0010
,
0100
1000
0001
0100
0001
1000
0010
0100
0010
1000
0001
1000
0001
0010
0100
1000
,
0010
0100
0010
1000
0001
0100
0001
1000
0001
0010
0100
1000
0001
0100
0010
0100
,
0001
0010
0100
1000
0010
0100
0001
1000
0001
0100
0010
0100
0001
0010
0100
1000
,
0010
0100
0010
1000
0001
0100
0001
1000
0100
0010
0100
1000
0001
0100
0010
0100
,
0001
1000
0001
0100
0010
0100
0001
1000
0100
0010
0001
1000
0100
1000
0001
0100
,
0001
1000
0010
0100
0001
1000
0001
0010
0100
1000
0001
1000
0010
1000
0001
0100
,
0010
1000
0100
0010
0001
0100
0001
1000
0001
0100
0010
1000
0100
1000
0001
0100
,
0001
0010
0100
1000
0001
0100
0010
0100
0001
1000
0100
1000
0010
0100
0001
0010
,
0100
1000
0001
1000
0010
0100
0001
1000
0001
0010
0100
1000
0001
0100
0010
1000
,
0100
0010
0001
1000
0001
0100
0001
1000
0010
0100
0001
0100
0010
1000
0001
0010
,
0100
1000
0010
0100
0001
0010
0100
1000
0001
0100
0010
1000
0100
0010
0001
0100
,
0001
1000
0100
1000
0001
1000
0010
0100
0001
1000
0100
0010
0100
1000
0010
0100
,
0001
0010
0001
1000
0100
0010
0001
1000
0010
0100
0001
1000
0001
0010
0100
1000
,
0001
1000
0000
0000
1100
0000
0000
0000
,
1000
0001
0000
0000
0101
0000
0000
0000
,
0100
0010
0000
0000
1010
0000
0000
0000
,
1000
0100
0000
0000
0110
0000
0000
0000
,
0010
0001
0000
0000
1001
0000
0000
0000
,
1000
0001
0000
0000
0101
0000
0000
0000
,
0100
0010
0000
0000
1010
0000
0000
0000
,
1000
0001
0000
0000
0011
0000
0000
0000
,
0010
0000
0010
0000
0100
1000
0001
0100
,
0001
0000
0001
0000
1000
0100
0010
0100
,
1000
0000
1000
0000
0001
0100
0010
0100
,
0001
0000
0001
0000
1000
0100
1000
0000
,
0001
0100
0001
0100
0010
1000
0100
0010
,
0001
1000
0001
1000
0100
0010
0100
1000
,
0010
0100
0010
0100
0001
0010
0100
1000
,
0001
0100
0001
0100
0010
1000
0100
0010
,
0001
1000
0001
0100
0010
0100
0001
1000
0001
0100
0010
0100
0001
1000
0001
1000
,
0100
0010
0001
1000
0100
1000
0001
0010
0100
0010
0001
1000
0100
0010
0001
1000
,
0001
0100
0010
0100
0001
1000
0010
0100
0001
1000
0010
1000
0001
0100
0010
0100
,
0001
1000
0100
1000
0001
1000
0100
0010
0001
1000
0100
1000
0001
0010
0100
0010
,
0001
1000
0001
0100
0010
0100
0001
1000
0001
0100
0001
1000
0010
0100
0010
1000
,
0001
0010
0100
0010
0001
1000
0100
0010
0001
1000
0100
1000
0001
0010
0001
1000
,
0001
0100
0010
0100
0001
1000
0010
1000
0001
0100
0010
0100
0001
1000
0001
0100
,
0001
0000
2000
3000
0001
0010
0400
0300
,
1000
0100
1000
0001
0100
0010
0100
0001
1000
0001
0010
0100
1000
0001
1000
0010
,
0100
0001
1000
0010
0100
0010
1000
0001
1000
0100
0010
0001
1000
0001
0100
0010
,
0100
0001
1000
0001
0010
0100
1000
0001
1000
0100
1000
0001
0100
0010
0100
0001
,
1000
0001
0100
0001
1000
0100
0010
0001
1000
0001
0100
0010
0100
0001
1000
0001
,
0010
0100
1000
0001
0100
0010
0100
0001
1000
0100
0010
0001
1000
0001
0100
0010
,
0100
0001
1000
0001
0010
0100
1000
0001
0100
0010
0100
0001
1000
0100
0010
0001
,
1000
0100
1000
0001
0100
0010
0100
0001
1000
0001
0010
0100
1000
0001
0100
0010
,
2000
0000
0000
0000
3000
0000
0000
0000
00M0
00M0
00M0
00M0
00M0
00M0
00M0
00M0
,
0001
0100
0001
1000
0010
0100
0001
1000
0100
1000
0001
0010
0100
1000
0001
0100
,
0010
0100
0001
1000
0100
0010
0001
0010
0100
1000
0001
1000
0010
0100
0001
1000
,
0001
0100
0010
1000
0001
1000
0100
0010
0100
1000
0001
1000
0010
0100
0001
1000
,
0100
1000
0001
0010
0100
0010
0001
1000
0001
0100
0010
0100
0001
1000
0100
1000
,
0010
0100
0001
1000
0100
0010
0100
1000
0001
0100
0001
1000
0100
0010
0100
1000
,
0001
1000
0100
1000
0001
0100
0010
1000
0001
0010
0100
0010
0001
1000
0100
0010
,
0100
1000
0001
0100
0010
1000
0001
0100
0001
1000
0100
0010
0100
1000
0001
0100
,
0001
1000
0100
0010
0002
0000
1003
1000
,
0010
0100
0010
1000
0001
1000
0100
0010
0001
1000
0010
0100
0010
1000
0001
0010
,
0100
0010
0001
1000
0010
0100
0010
1000
0001
0010
0100
1000
0001
1000
0010
0100
,
0001
0100
0010
1000
0001
1000
0100
0010
0100
1000
0001
0100
0010
0100
0001
1000
,
0100
0010
0001
1000
0001
0010
0001
1000
0010
0100
0010
1000
0001
1000
0010
1000
,
0200
0300
0020
0000
0030
0000
0001
0000
2000
3000
0010
0000
0000
0000
1000
0000
,
0000
0100
0000
0010
0000
0001
0000
1000
,
0020
0030
0200
0000
0300
0000
0001
0000
0020
0030
0100
0000
0000
0000
1000
0000
,
1001
0000
0000
0000
0001
0000
0100
0000
0020
0000
0000
0030
1000
0000
1000
0000
,
0001
0100
0001
1000
0100
0010
0001
1000
0010
0100
0010
1000
0001
0010
0100
1000
,
0001
1000
0100
1000
0001
0100
0010
0100
0001
1000
0100
1000
0010
0100
0001
0010
,
0100
1000
0010
0100
0001
1000
0001
0010
0100
1000
0001
0100
0001
1000
0100
0010
,
0001
1000
0100
1000
0001
0100
0010
0100
0001
1000
0100
0010
0100
1000
0010
0100
,
0001
0010
0100
1000
0001
0100
0010
0100
0001
1000
0100
0010
0001
1000
0100
1000
,
0001
0100
0010
0100
0001
1000
0001
0010
0100
1000
0001
0100
0010
0100
0001
1000
,
0001
0010
0100
1000
0010
0100
0001
0010
0100
1000
0010
0100
0001
0010
0100
1000
,
0001
0000
0100
0001
0010
0000
0100
0000
2000
0000
3000
0000
0001
0000
0001
0000
,
1000
0100
1000
0001
0100
0010
0100
0001
1000
0001
0010
0100
1000
0001
1000
0010
,
0100
0010
1000
0001
0010
0100
0010
0001
1000
0001
0100
0010
0100
0001
0010
0100
,
1000
0010
0100
0001
1000
0100
0010
0100
1000
0001
0100
0001
1000
0010
0100
0010
,
1000
0001
0100
0001
1000
0100
0010
0001
1000
0100
1000
0001
0010
0100
1000
0010
,
0100
0010
1000
0001
0100
0001
1000
0100
0010
0100
1000
0001
0100
0010
0100
0001
,
1000
0100
0010
0001
1000
0001
0100
0010
0100
0001
1000
0001
0010
0100
1000
0001
,
1000
0100
0010
0001
0100
0010
1000
0100
0010
0001
1000
0100
0010
0001
0100
0010
,
1000
0000
1000
0010
0100
0001
0010
0100
,
1000
0100
1000
0001
0100
0010
1000
0001
0010
0100
0010
0001
1000
0010
0100
0001
,
1000
0001
0100
0001
1000
0100
0010
0100
1000
0001
0100
0001
0010
0100
1000
0010
,
0100
0001
0010
0100
1000
0001
1000
0010
0100
0001
1000
0100
1000
0001
0100
0010
,
1000
0001
0100
0001
1000
0100
0010
0100
1000
0001
0100
0010
0100
0001
0010
0100
,
1000
0010
0100
0001
1000
0100
0010
0100
1000
0001
0100
0010
1000
0001
0100
0001
,
1000
0100
0010
0100
1000
0001
1000
0010
0100
0001
1000
0100
0010
0100
1000
0001
,
1000
0100
0010
0001
0100
0010
1000
0100
0010
0001
0100
0010
1000
0100
0010
0001
,
1000
0000
0001
1000
0010
0000
0100
0000
0002
0000
0003
0000
1000
0000
1000
0000
,
0001
0100
0001
1000
0100
0010
0100
1000
0001
1000
0010
0100
0001
1000
0001
0010
,
0100
0010
0001
1000
0010
0100
0010
1000
0001
1000
0100
0010
0100
1000
0010
0100
,
0001
0010
0100
1000
0001
0100
0010
0100
0001
1000
0100
1000
0001
0010
0100
0010
,
0001
1000
0100
1000
0001
0100
0010
1000
0001
0100
0001
1000
0010
0100
0001
0010
,
0100
0010
0001
1000
0100
1000
0001
0100
0010
0100
0001
1000
0100
0010
0100
1000
,
0001
0100
0010
1000
0001
1000
0100
0010
0100
1000
0001
1000
0010
0100
0001
1000
,
0001
0010
0100
1000
0010
0100
0001
0010
0100
1000
0010
0100
0001
0010
0100
1000
,
0001
0100
0001
1000
0100
0010
0001
1000
0010
0100
0010
1000
0001
0010
0100
1000
,
0001
0000
0001
0010
0100
0000
4000
0000
,
3001
0010
0100
1000
0001
0100
0010
0100
0001
1000
0100
0010
0100
1000
0001
0100
,
0001
1000
0100
0010
0001
1000
0100
1000
0001
0100
0001
1000
0001
0100
0010
0100
,
0001
1000
0100
0010
0100
1000
0001
1000
0010
0100
0001
1000
0001
0010
0100
0010
,
0001
1000
0001
0100
0010
0100
0001
1000
0100
0010
0100
1000
0001
0100
0010
1000
,
0100
1000
0001
0100
0010
0100
0001
1000
0001
0010
0100
1000
0001
0100
0010
0100
,
0001
1000
0100
0010
0001
1000
0100
1000
0001
0100
0010
0100
0001
1000
0001
0010
,
0100
1000
0001
0100
0010
0100
0001
1000
0100
1000
0001
1000
0010
0100
0001
1000
,
0001
0100
0001
0001
0020
0000
0230
0300
,
1000
0010
0100
0001
1000
0001
0010
0100
1000
0001
0100
0010
0100
0001
1000
0100
,
0010
0001
1000
0001
0100
0010
0100
0001
1000
0100
0010
0001
1000
0001
0100
0010
,
0100
0001
1000
0001
0010
0100
1000
0001
0100
0010
0100
0001
1000
0100
0010
0100
,
1000
0001
0100
0001
1000
0010
0100
0010
1000
0001
0100
0001
1000
0100
0010
0001
,
0100
0001
1000
0010
0100
0010
1000
0001
0010
0100
1000
0001
0100
0010
0100
0001
,
1000
0100
0010
0100
1000
0001
0100
0010
1000
0001
1000
0100
1000
0001
0100
0010
,
0100
0001
1000
0001
0010
0100
0010
0001
1000
0010
0100
0010
1000
0001
0010
0100
,
2000
3000
0001
0100
0040
0030
2000
3000
,
0001
0100
0001
1000
0010
0100
0001
1000
0100
0010
0100
1000
0001
0100
0010
0100
,
0001
0010
0100
1000
0010
0100
0010
1000
0001
1000
0100
0010
0001
0100
0010
1000
,
0100
0010
0001
1000
0001
0100
0001
1000
0100
0010
0100
1000
0010
0100
0001
0010
,
0100
1000
0001
0100
0001
1000
0010
0100
0010
1000
0001
1000
0001
0010
0100
1000
,
0010
0100
0010
1000
0001
0100
0001
1000
0001
0010
0100
1000
0001
0100
0010
0100
,
0001
0010
0100
1000
0010
0100
0001
1000
0001
0100
0010
0100
0001
0010
0100
1000
,
0010
0100
0010
1000
0001
0100
0001
1000
0100
0010
0100
1000
0001
0100
0010
0100
,
0001
1000
0001
0100
0010
0100
0001
1000
0100
0010
0001
1000
0100
1000
0001
0100
,
0001
1000
0010
0100
0001
1000
0001
0010
0100
1000
0001
1000
0010
1000
0001
0100
,
0010
1000
0100
0010
0001
0100
0001
1000
0001
0100
0010
1000
0100
1000
0001
0100
,
0001
0010
0100
1000
0001
0100
0010
0100
0001
1000
0100
1000
0010
0100
0001
0010
,
0100
1000
0001
1000
0010
0100
0001
1000
0001
0010
0100
1000
0001
0100
0010
1000
,
0100
0010
0001
1000
0001
0100
0001
1000
0010
0100
0001
0100
0010
1000
0001
0010
,
0100
1000
0010
0100
0001
0010
0100
1000
0001
0100
0010
1000
0100
0010
0001
0100
,
0001
1000
0100
1000
0001
1000
0010
0100
0001
1000
0100
0010
0100
1000
0010
0100
,
0001
0010
0001
1000
0100
0010
0001
1000
0010
0100
0001
1000
0001
0010
0100
1000
,
0002
0000
0000
0000
,
0023
0230
2300
0000
0000
3020
0230
0000
,
0302
0000
0000
0000
0000
0023
0230
2300
,
3002
0000
0000
0000
0000
2003
3200
2300
,
3020
0000
0000
0000
,
0230
0302
0023
0000
0000
0230
2300
0000
,
3002
0000
0000
0000
0000
2003
3200
0320
,
0032
0000
0000
0000
0000
2003
3200
0320
,
003M
0000
000M
0000
;

//---------------dance-single - 15+ (Aoreo)----------------
#NOTES:
     dance-single:
     15+ (Aoreo):
     Hard:
     15:
     1.000,1.000,0.042,1.000,1.000,2072.000,10.000,260.000,12.000,0.000:
0000
0000
0000
0000
,
0000
0000
0000
0000
,
0000
0000
0000
0000
,
0000
0000
0000
0000
,
0000
0000
0000
0000
,
0000
0000
0000
0000
,
0000
0000
0000
0000
,
0000
0000
0000
0000
,
0000
0000
0000
0000
,
0000
0000
0000
0000
,
0000
0000
0000
0000
,
0000
0000
0000
0000
,
0000
0000
0000
0000
,
0000
0000
0000
0000
,
0000
0000
0000
0000
,
0000
0000
0000
0000
,
1000
0000
1000
0000
0001
0010
0100
0000
,
1000
0001
0010
0100
1000
0001
0100
0010
,
0100
0001
1000
0100
0010
0001
1000
1000
,
0010
0100
0010
1000
0001
0010
0100
1000
,
0001
0000
0100
0000
0010
0000
0100
0000
0001
0000
1000
0000
0100
0000
0100
1000
,
0010
0100
0001
0010
0100
0010
0001
1000
,
0100
1000
0001
0100
0010
0100
0001
0001
,
0010
0100
1000
0001
0100
0010
0100
0001
,
1000
1000
0010
0100
0001
0001
0010
0010
,
0100
1000
0001
0100
0010
0100
0001
1000
,
0001
0010
0100
1000
0001
0100
0010
0010
,
1000
0100
0010
0100
1000
0001
0100
0010
,
0100
0000
0001
0000
1000
0000
0001
0000
0010
0000
0100
0000
1000
0000
1000
0001
,
0100
0010
0100
0001
0010
0100
1000
0001
,
0100
0010
0100
0001
1000
0100
0010
0010
,
0100
1000
0001
0100
0010
0100
0001
1000
,
0100
0000
1000
0010
0100
0000
0001
0000
0010
0000
0100
0000
1000
0100
0010
0001
,
1000
0001
0100
0010
0100
0001
1000
0001
0010
0100
1000
0001
0100
0001
1000
0010
,
0100
0010
1000
0001
0010
0100
1000
0001
0100
0010
0100
0001
1000
0100
0010
0001
,
1000
0100
1000
0001
0100
0010
0100
0001
1000
0001
0010
0100
1000
0001
1000
0010
,
0100
0001
1000
0100
1000
0010
0100
0001
0010
0100
1000
0010
0100
0001
0010
0100
,
1000
0001
0100
0001
1000
0010
0100
0010
1000
0001
0010
0001
1000
0100
1000
0001
,
0100
0010
0100
0001
1000
0001
0010
0100
1000
0001
0100
0001
1000
0001
0010
0100
,
1000
0001
0100
0010
0100
0001
1000
0100
0010
0001
1000
0100
1000
0001
0100
0010
,
1000
0000
0001
0000
1000
0000
1000
0000
0100
0000
1000
0100
0010
0000
0000
0000
,
0001
0100
0010
0100
0001
1000
0100
0010
0001
1000
0001
0100
0010
0100
0001
1000
,
0100
0010
0100
1000
0001
0100
0010
0100
0001
1000
0100
0010
0001
1000
0001
0100
,
0010
0100
0001
1000
0001
0010
0100
1000
0001
0100
0001
1000
0010
0100
0010
1000
,
0001
0010
0100
1000
0010
0100
0001
0010
0100
1000
0010
0100
0001
0010
0100
1000
,
0001
1000
0010
0100
0001
0100
0001
1000
0100
0010
0100
1000
0001
0100
0010
0100
,
0001
1000
0100
0010
0001
1000
0001
0100
0010
0100
0001
1000
0100
1000
0001
1000
,
0010
0100
0001
1000
0100
0010
0001
1000
0010
0100
0001
1000
0001
0010
0100
1000
,
0002
0023
0230
2300
3020
0230
0302
2003
,
3200
0000
0300
0000
0020
0000
0030
0000
0200
0000
0300
0000
2000
0000
0000
0000
0001
0000
0000
3000
0200
0000
0300
0000
0020
0000
0030
0000
0200
0000
0300
0000
,
0002
0000
0003
0000
2000
0000
3000
0000
0002
0000
0003
0000
0020
0000
0000
0000
0100
0000
0000
0030
2000
0000
3000
0000
0002
0000
0003
0000
0200
0000
0300
0000
,
0020
0000
0030
0000
0200
0000
0300
0000
0002
0000
0003
0000
2000
0000
0000
0000
0001
0000
0000
3000
0200
0000
0300
0000
0020
0000
0030
0000
0200
0000
0300
0000
,
0002
0000
0003
0000
2000
0000
3000
0000
0200
0000
0300
0000
0020
0000
0000
0000
0100
0000
0000
0030
2000
0000
3000
0000
0002
0000
0003
0000
0200
0000
0301
0000
,
0020
0000
0030
0000
0200
0000
0300
0000
2000
0000
3000
0000
0020
0000
0000
0000
1000
0000
0000
0030
0200
0000
0300
0000
0020
0000
0030
0000
0200
0000
0300
0000
,
2000
0000
3000
0000
0020
0000
0030
0000
0200
0000
0300
0000
0002
0000
0000
0000
0010
0000
0000
0003
0200
0000
0300
0000
2000
0000
3000
0000
0020
0000
0030
0000
,
0200
0000
0300
0000
0002
0000
0003
0000
0200
0000
0300
0000
0020
0000
0000
0000
1000
0000
0000
0030
0200
0000
0300
0000
0020
0000
0030
0000
0200
0000
0300
0000
,
2000
0000
3000
0000
0020
0000
0030
0000
0200
0000
0300
0000
0002
0000
0000
0000
1000
0000
0000
0003
0200
0000
0300
0000
0020
0000
0030
0000
0200
0000
0300
0000
,
20M0
0000
3000
0000
0002
0000
0003
0000
0200
0000
0300
0000
0020
0000
0000
0000
0100
0000
0000
0030
0002
0000
0003
0000
2000
0000
3000
0000
0200
0000
0300
0000
,
0020
0000
0030
0000
0002
0000
0003
0000
2000
0000
3000
0000
0200
0000
0000
0000
1000
0000
0000
0300
0002
0000
0003
0000
0200
0000
0300
0000
0020
0000
0030
0000
,
0200
0000
0300
0000
0002
0000
0003
0000
2000
0000
3000
0000
0002
0000
0000
0000
0010
0000
0000
0003
0200
0000
0300
0000
2000
0000
3000
0000
0002
0000
0003
0000
,
0200
0000
0300
0000
0020
0000
0030
0000
0100
0000
0000
0000
0002
0000
0000
0000
1000
0000
0000
0003
0200
0000
0300
0000
0020
0000
0030
0000
0200
0000
1300
0000
,
0020
0000
0030
0000
0200
0000
0300
0000
0002
0000
0003
0000
2000
0000
0000
0000
0100
0000
0000
3000
0020
0000
0030
0000
0002
0000
0003
0000
2000
0000
3000
0000
,
0020
0000
0030
0000
0200
0000
0300
0000
0002
0000
0003
0000
0020
0000
0000
0000
0100
0000
0000
0030
2000
0000
3000
0000
0002
0000
0003
0000
0200
0000
0300
0000
,
0020
0000
0030
0000
0200
0000
0300
0000
0002
0000
0003
0000
2000
0000
0000
0000
0100
0000
0000
3000
0020
0000
0030
0000
0200
0000
0300
0000
2000
0000
3000
0000
,
0002
0003
0001
0100
0040
0030
2000
3000
,
0001
0100
0001
1000
0010
0100
0001
1000
0100
0010
0100
1000
0001
0100
0010
0100
,
0001
0010
0100
1000
0010
0100
0010
1000
0001
1000
0100
0010
0001
0100
0010
1000
,
0100
0010
0001
1000
0001
0100
0001
1000
0100
0010
0100
1000
0010
0100
0001
0010
,
0100
1000
0001
0100
0001
1000
0010
0100
0010
1000
0001
1000
0001
0010
0100
1000
,
0010
0100
0010
1000
0001
0100
0001
1000
0001
0010
0100
1000
0001
0100
0010
0100
,
0001
0010
0100
1000
0010
0100
0001
1000
0001
0100
0010
0100
0001
0010
0100
1000
,
0010
0100
0010
1000
0001
0100
0001
1000
0100
0010
0100
1000
0001
0100
0010
0100
,
0001
1000
0001
0100
0010
0100
0001
1000
0100
0010
0001
1000
0100
1000
0001
0100
,
0001
1000
0010
0100
0001
1000
0001
0010
0100
1000
0001
1000
0010
1000
0001
0100
,
0010
1000
0100
0010
0001
0100
0001
1000
0001
0100
0010
1000
0100
1000
0001
0100
,
0001
0010
0100
1000
0001
0100
0010
0100
0001
1000
0100
1000
0010
0100
0001
0010
,
0100
1000
0001
1000
0010
0100
0001
1000
0001
0010
0100
1000
0001
0100
0010
1000
,
0100
0010
0001
1000
0001
0100
0001
1000
0010
0100
0001
0100
0010
1000
0001
0010
,
0100
1000
0010
0100
0001
0010
0100
1000
0001
0100
0010
1000
0100
0010
0001
0100
,
0001
1000
0100
1000
0001
1000
0010
0100
0001
1000
0100
0010
0100
1000
0010
0100
,
0001
0010
0001
1000
0100
0010
0001
1000
0010
0100
0001
1000
0001
0010
0100
1000
,
0001
1000
0000
0000
1100
0000
0000
0000
,
1000
0001
0000
0000
0101
0000
0000
0000
,
0100
0010
0000
0000
1010
0000
0000
0000
,
1000
0100
0000
0000
0110
0000
0000
0000
,
0010
0001
0000
0000
1001
0000
0000
0000
,
1000
0001
0000
0000
0101
0000
0000
0000
,
0100
0010
0000
0000
1010
0000
0000
0000
,
1000
0001
0000
0000
0011
0000
0000
0000
,
0010
0000
0010
0000
0100
1000
0001
0100
,
0001
0000
0001
0000
1000
0100
0010
0100
,
1000
0000
1000
0000
0001
0100
0010
0100
,
0001
0000
0001
0000
1000
0100
1000
0000
,
0001
0100
0001
0100
0010
1000
0100
0010
,
0001
1000
0001
1000
0100
0010
0100
1000
,
0010
0100
0010
0100
0001
0010
0100
1000
,
0001
0100
0001
0100
0010
1000
0100
0010
,
0001
0100
0001
0010
0100
1000
0001
0100
,
0010
0100
0001
1000
0100
0010
0001
1000
,
0100
1000
0001
0100
0010
0100
0001
1000
,
0001
0010
0100
1000
0001
0100
0010
0100
,
0001
1000
0100
0010
0001
1000
0100
1000
,
0001
0100
0010
0100
0001
1000
0001
0010
,
0100
1000
0001
1000
0010
0100
0010
1000
,
0001
0000
2000
3000
0001
0010
0400
0300
,
1000
0100
1000
0001
0100
0010
0100
0001
1000
0001
0010
0100
1000
0001
1000
0010
,
0100
0001
1000
0010
0100
0010
1000
0001
1000
0100
0010
0001
1000
0001
0100
0010
,
0100
0001
1000
0001
0010
0100
1000
0001
1000
0100
1000
0001
0100
0010
0100
0001
,
1000
0001
0100
0001
1000
0100
0010
0001
1000
0001
0100
0010
0100
0001
1000
0001
,
0010
0100
1000
0001
0100
0010
0100
0001
1000
0100
0010
0001
1000
0001
0100
0010
,
0100
0001
1000
0001
0010
0100
1000
0001
0100
0010
0100
0001
1000
0100
0010
0001
,
1000
0100
1000
0001
0100
0010
0100
0001
1000
0001
0010
0100
1000
0001
0100
0010
,
2000
0000
0000
0000
3000
0000
0000
0000
00M0
00M0
00M0
00M0
00M0
00M0
00M0
00M0
,
0001
0000
1000
0100
0010
0000
0100
1000
0001
0000
0100
0010
0100
0000
0001
1000
,
0100
0000
0010
0001
1000
0000
0001
0100
0010
0000
1000
0001
0100
0000
0100
0000
,
0001
0000
1000
0100
1000
0000
0001
0100
0010
0000
1000
0001
0100
0000
0001
0010
,
0100
0000
0000
0000
0000
0000
1000
0000
0000
0001
0000
0000
1000
0000
0000
0000
0000
0000
0010
0000
0000
1000
0000
0000
0001
0000
0000
0000
0000
0000
0100
0000
0000
0000
0000
0000
0001
0000
0000
0000
0000
0000
1000
0000
0100
0000
1000
0000
,
0100
0000
1000
0001
0100
0000
0001
1000
0001
0000
1000
0010
0100
0000
0001
1000
,
0001
0000
0010
0100
1000
0000
0001
0100
0001
0000
0100
0001
1000
0000
0001
0010
,
0100
0000
1000
0001
1000
0000
0010
0100
0001
0000
1000
0100
0010
0000
0001
1000
,
0001
1000
0100
0010
0002
0000
1003
1000
,
0010
0000
0100
0001
1000
0000
0001
0010
0100
0000
1000
0001
1000
0000
0010
0100
,
0001
0000
1000
0001
1000
0000
0010
0100
0001
0000
1000
0100
0010
0000
0010
0000
,
0001
0000
1000
0010
0100
0000
0010
1000
0001
0000
0010
0100
1000
0000
0001
0100
,
0001
0000
0000
0000
0000
0000
1000
0000
0000
0010
0000
0000
0100
0000
0000
0000
0000
0000
0001
0000
0000
1000
0000
0000
0001
0000
0000
0000
0000
0000
0010
0000
0000
0100
0000
0000
1000
0000
0000
0000
0000
0000
0001
0000
0100
0000
0001
0000
,
0200
0300
0002
0000
0003
0000
1000
0000
0200
0300
0010
0000
0000
0000
0001
0000
,
0000
1000
0000
0010
0000
0100
0000
0001
,
0020
0030
0200
0000
0300
0000
1000
0000
0020
0030
0100
0000
0000
0000
0000
0000
,
1001
0000
0000
0000
0001
0000
0100
0000
0020
0000
0000
0030
1000
0000
1000
0000
,
0001
0100
0001
1000
0100
0010
0001
1000
0010
0100
0010
1000
0001
0010
0100
1000
,
0001
1000
0100
1000
0001
0100
0010
0100
0001
1000
0100
1000
0010
0100
0001
0010
,
0100
1000
0010
0100
0001
1000
0001
0010
0100
1000
0001
0100
0001
1000
0100
0010
,
0001
1000
0100
1000
0001
0100
0010
0100
0001
1000
0100
0010
0100
1000
0010
0100
,
0001
0010
0100
1000
0001
0100
0010
0100
0001
1000
0100
0010
0001
1000
0100
1000
,
0001
0100
0010
0100
0001
1000
0001
0010
0100
1000
0001
0100
0010
0100
0001
1000
,
0001
0010
0100
1000
0010
0100
0001
0010
0100
1000
0010
0100
0001
0010
0100
1000
,
0001
0000
0100
0001
0010
0000
0100
0000
2000
0000
3000
0000
0001
0000
0001
0000
,
1000
0100
1000
0001
0100
0010
0100
0001
1000
0001
0010
0100
1000
0001
1000
0010
,
0100
0010
1000
0001
0010
0100
0010
0001
1000
0001
0100
0010
0100
0001
0010
0100
,
1000
0010
0100
0001
1000
0100
0010
0100
1000
0001
0100
0001
1000
0010
0100
0010
,
1000
0001
0100
0001
1000
0100
0010
0001
1000
0100
1000
0001
0010
0100
1000
0010
,
0100
0010
1000
0001
0100
0001
1000
0100
0010
0100
1000
0001
0100
0010
0100
0001
,
1000
0100
0010
0001
1000
0001
0100
0010
0100
0001
1000
0001
0010
0100
1000
0001
,
1000
0100
0010
0001
0100
0010
1000
0100
0010
0001
1000
0100
0010
0001
0100
0010
,
1000
0000
1000
0010
0100
0001
0010
0100
,
1000
0100
1000
0001
0100
0010
1000
0001
0010
0100
0010
0001
1000
0010
0100
0001
,
1000
0001
0100
0001
1000
0100
0010
0100
1000
0001
0100
0001
0010
0100
1000
0010
,
0100
0001
0010
0100
1000
0001
1000
0010
0100
0001
1000
0100
1000
0001
0100
0010
,
1000
0001
0100
0001
1000
0100
0010
0100
1000
0001
0100
0010
0100
0001
0010
0100
,
1000
0010
0100
0001
1000
0100
0010
0100
1000
0001
0100
0010
1000
0001
0100
0001
,
1000
0100
0010
0100
1000
0001
1000
0010
0100
0001
1000
0100
0010
0100
1000
0001
,
1000
0100
0010
0001
0100
0010
1000
0100
0010
0001
0100
0010
1000
0100
0010
0001
,
1000
0000
0001
1000
0010
0000
0100
0000
0002
0000
0003
0000
1000
0000
1000
0000
,
0001
0100
0001
1000
0100
0010
0100
1000
0001
1000
0010
0100
0001
1000
0001
0010
,
0100
0010
0001
1000
0010
0100
0010
1000
0001
1000
0100
0010
0100
1000
0010
0100
,
0001
0010
0100
1000
0001
0100
0010
0100
0001
1000
0100
1000
0001
0010
0100
0010
,
0001
1000
0100
1000
0001
0100
0010
1000
0001
0100
0001
1000
0010
0100
0001
0010
,
0100
0010
0001
1000
0100
1000
0001
0100
0010
0100
0001
1000
0100
0010
0100
1000
,
0001
0100
0010
1000
0001
1000
0100
0010
0100
1000
0001
1000
0010
0100
0001
1000
,
0001
0010
0100
1000
0010
0100
0001
0010
0100
1000
0010
0100
0001
0010
0100
1000
,
0001
0100
0001
1000
0100
0010
0001
1000
0010
0100
0010
1000
0001
0010
0100
1000
,
0001
0000
0001
0010
0100
0000
4000
0000
,
3200
0000
0300
0000
0020
0000
0030
0000
0200
0000
0300
0000
2000
0000
0000
0000
0001
0000
0000
3000
0200
0000
0300
0000
0020
0000
0030
0000
0200
0000
0300
0000
,
0002
0000
0003
0000
2000
0000
3000
0000
0002
0000
0003
0000
0020
0000
0000
0000
0100
0000
0000
0030
2000
0000
3000
0000
0002
0000
0003
0000
0200
0000
0300
0000
,
0020
0000
0030
0000
0200
0000
0300
0000
0002
0000
0003
0000
2000
0000
0000
0000
0001
0000
0000
3000
0200
0000
0300
0000
0020
0000
0030
0000
0200
0000
0300
0000
,
0002
0000
0003
0000
2000
0000
3000
0000
0200
0000
0300
0000
0020
0000
0000
0000
0100
0000
0000
0030
2000
0000
3000
0000
0002
0000
0003
0000
0200
0000
0301
0000
,
0020
0000
0030
0000
0200
0000
0300
0000
2000
0000
3000
0000
0020
0000
0000
0000
1000
0000
0000
0030
0200
0000
0300
0000
0020
0000
0030
0000
0200
0000
0300
0000
,
2000
0000
3000
0000
0020
0000
0030
0000
0200
0000
0300
0000
0002
0000
0000
0000
0010
0000
0000
0003
0200
0000
0300
0000
2000
0000
3000
0000
0020
0000
0030
0000
,
0200
0000
0300
0000
0002
0000
0003
0000
0200
0000
0300
0000
0020
0000
0000
0000
1000
0000
0000
0030
0200
0000
0300
0000
0020
0000
0030
0000
0200
0000
0300
0000
,
2000
0000
3000
0000
0020
0000
0030
0000
0200
0000
0300
0000
0002
0000
0000
0000
1000
0000
0000
0003
0200
0000
0300
0000
0020
0000
0030
0000
0200
0000
0300
0000
,
20M0
0000
3000
0000
0002
0000
0003
0000
0200
0000
0300
0000
0020
0000
0000
0000
0100
0000
0000
0030
0002
0000
0003
0000
2000
0000
3000
0000
0200
0000
0300
0000
,
0020
0000
0030
0000
0002
0000
0003
0000
2000
0000
3000
0000
0200
0000
0000
0000
1000
0000
0000
0300
0002
0000
0003
0000
0200
0000
0300
0000
0020
0000
0030
0000
,
0200
0000
0300
0000
0002
0000
0003
0000
2000
0000
3000
0000
0002
0000
0000
0000
0010
0000
0000
0003
0200
0000
0300
0000
2000
0000
3000
0000
0002
0000
0003
0000
,
0200
0000
0300
0000
0020
0000
0030
0000
0100
0000
0000
0000
0002
0000
0000
0000
1000
0000
0000
0003
0200
0000
0300
0000
0020
0000
0030
0000
0200
0000
1300
0000
,
0020
0000
0030
0000
0200
0000
0300
0000
0002
0000
0003
0000
2000
0000
0000
0000
0100
0000
0000
3000
0020
0000
0030
0000
0002
0000
0003
0000
2000
0000
3000
0000
,
0020
0000
0030
0000
0200
0000
0300
0000
0002
0000
0003
0000
0020
0000
0000
0000
0100
0000
0000
0030
2000
0000
3000
0000
0002
0000
0003
0000
0200
0000
0300
0000
,
0020
0000
0030
0000
0200
0000
0300
0000
0002
0000
0003
0000
2000
0000
0000
0000
0100
0000
0000
3000
0020
0000
0030
0000
0200
0000
0300
0000
2000
0000
3000
0000
,
0002
0003
0001
0100
0040
0030
2000
3000
,
0001
0100
0001
1000
0010
0100
0001
1000
0100
0010
0100
1000
0001
0100
0010
0100
,
0001
0010
0100
1000
0010
0100
0010
1000
0001
1000
0100
0010
0001
0100
0010
1000
,
0100
0010
0001
1000
0001
0100
0001
1000
0100
0010
0100
1000
0010
0100
0001
0010
,
0100
1000
0001
0100
0001
1000
0010
0100
0010
1000
0001
1000
0001
0010
0100
1000
,
0010
0100
0010
1000
0001
0100
0001
1000
0001
0010
0100
1000
0001
0100
0010
0100
,
0001
0010
0100
1000
0010
0100
0001
1000
0001
0100
0010
0100
0001
0010
0100
1000
,
0010
0100
0010
1000
0001
0100
0001
1000
0100
0010
0100
1000
0001
0100
0010
0100
,
0001
1000
0001
0100
0010
0100
0001
1000
0100
0010
0001
1000
0100
1000
0001
0100
,
0001
1000
0010
0100
0001
1000
0001
0010
0100
1000
0001
1000
0010
1000
0001
0100
,
0010
1000
0100
0010
0001
0100
0001
1000
0001
0100
0010
1000
0100
1000
0001
0100
,
0001
0010
0100
1000
0001
0100
0010
0100
0001
1000
0100
1000
0010
0100
0001
0010
,
0100
1000
0001
1000
0010
0100
0001
1000
0001
0010
0100
1000
0001
0100
0010
1000
,
0100
0010
0001
1000
0001
0100
0001
1000
0010
0100
0001
0100
0010
1000
0001
0010
,
0100
1000
0010
0100
0001
0010
0100
1000
0001
0100
0010
1000
0100
0010
0001
0100
,
0001
1000
0100
1000
0001
1000
0010
0100
0001
1000
0100
0010
0100
1000
0010
0100
,
0001
0010
0001
1000
0100
0010
0001
1000
0010
0100
0001
1000
0001
0010
0100
1000
,
0002
0000
0000
0000
,
0023
0230
2300
0000
0000
3020
0230
0000
,
0302
0000
0000
0000
0000
0023
0230
2300
,
3002
0000
0000
0000
0000
2003
3200
2300
,
3020
0000
0000
0000
,
0230
0302
0023
0000
0000
0230
2300
0000
,
3002
0000
0000
0000
0000
2003
3200
0320
,
0032
0000
0000
0000
0000
2003
3200
0320
,
003M
0000
000M
0000
;
