#TITLE:300;
#SUBTITLE:Beastiality Violation;
#ARTIST:Detach M-Style;
#TITLETRANSLIT:;
#SUBTITLETRANSLIT:;
#ARTISTTRANSLIT:;
#CREDIT:;
#BANNER:../BV - ban.png;
#BACKGROUND:../BV - bg.png;
#LYRICSPATH:;
#CDTITLE:;
#MUSIC:300.ogg;
#OFFSET:-0.023;
#SAMPLESTART:86.980;
#SAMPLELENGTH:14.520;
#SELECTABLE:YES;
#DISPLAYBPM:300.000;
#BPMS:0.000=140.000,48.000=150.000,80.000=160.000,112.000=170.000,144.000=180.000,176.000=190.000,208.000=200.000,240.000=210.000,272.000=220.000,304.000=230.000,320.000=240.000,336.000=250.000,352.000=260.000,368.000=270.000,384.000=280.000,400.000=290.000,416.000=300.000,464.000=35.000;
#STOPS:;
#BGCHANGES:;
// cache tags:
#FIRSTBEAT:16.000;
#LASTBEAT:467.875;
#SONGFILENAME:Songs/Beastiality Violation/300 - [Aoreo]/300.sm;
#HASMUSIC:1;
#HASBANNER:1;
#MUSICLENGTH:149.054;
// end cache tags

//---------------dance-single - ----------------
#NOTES:
     dance-single:
     :
     Challenge:
     18:
     1.000,1.000,0.248,1.000,1.000,1232.000,37.000,150.000,16.000,0.000:
0000
0000
0000
0000
,
0000
0000
0000
0000
,
0000
0000
0000
0000
,
0000
0000
0000
0000
,
1001
0101
0110
1010
,
1100
0000
0000
0000
1001
0000
0000
0000
0101
0000
0000
0000
1001
0000
1000
0100
,
0010
0110
1100
1001
,
0101
0000
0000
0000
0110
0000
0000
0000
1010
0000
0000
0000
1000
0001
0100
0001
,
1000
0000
0000
0000
1100
0000
0000
0000
0110
0000
0000
0000
0010
0001
0010
0100
,
1000
0000
0000
0000
0000
0000
0000
0000
1001
0000
0000
0000
0000
0000
0000
0000
0110
0000
0000
0000
0000
0000
0000
0000
0100
0001
0100
0001
0100
0000
0000
0000
,
0101
0000
0000
0000
0000
0000
0000
0000
0001
1000
0001
1000
0001
0000
0000
0000
1001
0000
0000
0000
0000
0000
0000
0000
1000
0100
1000
0100
1000
0000
0000
0000
,
0100
0000
1000
0000
0001
0000
0100
0000
0010
0000
0100
0000
0001
0000
1000
0000
0100
0000
1000
0000
0001
0100
0001
0100
0001
0000
0000
0000
0000
0000
0000
0000
,
0100
0001
1000
0000
1100
0000
0100
1000
0010
0100
0001
0000
0101
0000
0100
0010
,
1000
0100
1000
0000
1100
0000
0100
0010
0001
0010
0100
0000
1100
0000
1010
0000
,
0010
0100
0001
0000
0101
0000
0100
0010
1000
0100
1000
0000
1100
0000
0100
0010
,
0001
0100
0010
0000
0110
0000
0100
0000
0101
0000
0000
0001
1000
0000
0100
0000
,
1000
0100
0010
0000
0011
0000
0000
0000
0001
0100
0010
0000
1010
0000
1000
0000
,
0001
0100
0010
0000
0110
0000
0000
0000
0100
0001
1000
0000
1001
0000
1100
0000
,
0100
1000
0001
0000
0101
0000
0000
0000
0100
0001
1000
0000
1001
0000
0001
0000
,
0010
0100
1000
0000
1100
0000
0000
0000
0100
1000
0000
0001
1000
0000
0010
0000
,
1000
0100
1000
0001
0010
0100
1000
0001
,
0100
0010
0100
0001
0010
0100
1000
1000
,
0001
0010
0100
1000
0010
0100
0001
1000
,
0100
0000
1000
0000
0001
0000
0100
0000
0001
0000
0000
1000
0100
0000
0100
0000
,
0010
0000
0001
0100
0000
0100
0010
0000
0100
0000
0001
0010
0000
0010
0100
0000
,
2000
0000
0000
3002
0000
0000
0023
0000
0230
0000
0000
2300
0000
0000
3002
0000
,
0013
0000
0100
1000
0000
1000
0001
0000
0100
0000
0010
0100
0000
0100
0001
0000
,
2000
0000
0000
3200
0000
0000
0320
0000
0031
0000
0000
1000
0010
0000
0100
0000
,
0001
0100
0001
0000
0100
0010
1000
0000
0001
0010
0100
0000
1000
0001
1000
0000
,
0001
0100
0010
0000
0100
0001
1000
0000
0001
0010
0100
0000
1000
0000
1000
0000
,
0001
0100
0010
0000
1000
0001
0010
0000
0100
1000
0001
0000
0100
0010
0100
0000
,
0001
0010
0100
0000
1000
0001
1000
0000
0001
0000
0000
0100
0010
0000
0010
0000
,
1000
0100
1000
0001
0010
0100
1000
0001
1000
0010
0100
0001
1000
0100
0010
0100
,
1000
0001
0100
0010
1000
0001
1000
0010
0100
0001
1000
0100
0010
0001
0100
0010
,
1000
0001
0100
0010
0100
0001
1000
0001
0010
0100
1000
0001
1000
0100
1000
0001
,
0100
0010
0100
0001
1000
0001
0010
0100
0010
0001
1000
0100
1000
0001
0100
0010
,
1000
0001
0100
0001
,
1000
0000
0000
0000
0001
0100
0001
0100
0010
1000
0010
0100
0001
1000
0001
1000
,
0010
0100
0001
1000
0100
1000
0100
0010
0100
0010
0001
1000
0100
1000
0100
0010
,
0001
1000
0001
0100
0010
0100
0010
1000
0001
1000
0010
0100
0001
0100
0010
1000
,
0001
1000
0100
0010
0001
0100
0001
1000
0100
1000
0001
0100
0010
0100
0001
1000
,
0100
0010
0001
1000
0001
0100
0010
1000
0001
0100
0001
1000
0100
0010
0001
1000
,
0010
1000
0001
0010
0100
1000
0001
0100
0010
1000
0001
0010
0100
1000
0001
1000
,
0010
0100
0001
1000
0100
1000
0001
0100
0010
0100
0001
1000
0100
0010
0001
1000
,
0001
0100
0001
0000
0100
0000
0001
0000
,
1000
0100
0100
0001
0010
0010
1000
0100
0100
0001
0100
0100
1000
0100
0100
0001
,
1000
0000
0001
0010
000M
0010
1000
0000
0010
0000
1000
0100
M000
0100
0001
0000
,
1000
0000
0001
0010
000M
0010
1000
0000
0100
0000
1000
0100
M000
0100
0001
0000
,
1000
0001
0100
0010
0100
0001
1000
0001
0010
0100
1000
0001
1000
0100
1000
0001
,
0100
0001
0100
0010
1000
0001
1000
0001
0100
0001
0100
0010
1000
0001
0100
0010
,
0100
0001
1000
0001
0010
0100
1000
0001
1000
0100
1000
0001
0100
0010
0100
0001
,
1000
0001
0010
0100
1000
0001
1000
0100
1000
0001
0010
0100
1000
0001
0100
0010
,
1000
0001
0100
0001
,
1000
0000
0001
0000
0100
0000
0001
0001
,
0010
0100
1000
0001
,
0100
0000
0000
0000
0010
0000
0000
0000
1000
0000
0000
0001
0010
0000
0010
0000
,
0100
1000
0001
0100
0010
0100
0001
0010
,
0100
1000
0010
0100
0001
1000
0100
0100
,
0010
0001
1000
0010
0100
0001
0010
0100
,
1000
0000
0010
0000
0100
0000
0001
0000
1000
0000
0000
0010
0100
0000
0100
0000
,
0001
0100
0001
1000
0010
0100
0010
1000
0001
1000
0010
0100
0001
1000
0001
1000
,
0100
0010
0100
1000
0001
0010
0100
1000
0001
1000
0100
1000
0001
0010
0100
1000
,
0001
1000
0010
0100
0001
0100
0010
1000
0001
0100
0010
1000
0001
0100
0001
1000
,
0010
0100
0010
1000
0001
0010
0100
0010
0001
1000
0100
0010
0001
1000
0001
0100
,
0010
0100
0001
1000
0010
0100
0001
1000
0010
0100
0010
1000
0001
0010
0100
1000
,
0001
0100
0010
0100
0001
1000
0100
0010
0001
1000
0010
0100
0001
0100
0010
1000
,
0001
1000
0100
0010
0001
1000
0001
0100
0010
0100
0001
1000
0001
0010
0100
1000
,
0001
1000
0010
0100
0010
1000
0001
0010
0100
1000
0001
1000
0010
0100
0010
1000
,
0002
0000
0003
2000
0000
3000
0200
0000
0320
0000
0030
0002
0000
0003
0200
0000
,
0302
0000
0003
2000
0000
3000
0020
0000
0230
0000
0300
0020
0000
0030
2000
0000
,
3002
0000
0003
0020
0000
0030
0200
0000
2300
0000
3000
0020
0000
0030
2000
0000
,
3200
0000
0300
0020
0000
0030
0002
0000
2003
0000
3010
0100
0010
0000
2000
0000
,
3002
0000
0003
0020
0000
0030
0002
0000
0203
0000
0300
0020
0000
0030
2000
0000
,
3200
0000
0300
0020
0000
0030
0002
0000
0203
0000
0300
0020
0000
0030
2000
0000
,
3002
0000
0003
0200
0000
0300
0020
0000
2030
0000
3000
0200
0000
0300
0020
0000
,
0032
0000
0003
2000
0000
3000
0020
0000
0230
0000
0301
1000
0001
0000
0100
0000
,
0001
0100
0001
1000
0010
0100
0010
1000
0001
0100
0001
1000
0010
0100
0010
1000
,
0001
1000
0100
0010
0100
1000
0001
0010
0100
1000
0001
1000
0001
0100
0010
1000
,
0001
0010
0100
1000
0001
1000
0100
0010
0100
1000
0001
1000
0001
0100
0010
0100
,
0001
1000
0001
0100
0010
0100
0001
1000
0100
1000
0001
0010
0100
1000
0001
1000
,
0002
0000
0003
2000
0000
3000
0200
0000
0320
0000
0030
0002
0000
0003
0200
0000
,
0302
0000
0003
2000
0000
3000
0020
0000
0230
0000
0300
0020
0000
0030
2000
0000
,
3002
0000
0003
0020
0000
0030
0200
0000
2300
0000
3000
0020
0000
0030
2000
0000
,
3200
0000
0300
0020
0000
0030
0002
0000
2003
0000
3010
0100
0010
0000
1000
0000
,
0001
0100
0001
0100
0010
1000
0010
0100
0001
1000
0010
0100
0010
1000
0001
1000
,
0001
0010
0001
1000
0100
1000
0001
0010
0100
1000
0001
0010
0100
1000
0001
1000
,
0001
0100
0010
0100
0001
1000
0001
0100
0001
1000
0010
0100
0010
1000
0001
0100
,
0001
1000
0100
1000
0001
0010
0100
1000
0001
0010
0100
1000
0001
1000
0100
0010
,
0002
0000
0003
2000
0000
3000
0020
0000
0230
0000
0300
0020
0000
0030
2000
0000
,
3002
0000
0003
0020
0000
0030
0200
0000
2300
0000
3000
0020
0000
0030
2000
0000
,
3200
0000
0300
0020
0000
0030
0002
0000
2003
0000
3000
0020
0000
0030
0200
0000
,
0302
0000
0003
2000
0000
3000
0020
0000
2030
0000
3001
0100
0001
0000
1000
0000
,
0001
0100
0001
1000
0010
0100
0001
1000
0010
0100
0001
0100
0010
1000
0010
0100
,
0001
1000
0010
0100
0001
1000
0001
0100
0010
1000
0001
0100
0010
0100
0001
1000
,
0001
1000
0100
1000
0001
0010
0100
0010
0001
1000
0100
0010
0001
1000
0100
0010
,
0001
1000
0100
0010
0100
1000
0001
0010
0100
0010
0001
1000
0100
0010
0001
1000
,
0002
0000
0003
2000
0000
3000
0020
0000
0230
0000
0300
0020
0000
0030
2000
0000
,
3002
0000
0003
0020
0000
0030
0002
0000
0203
0000
0300
0020
0000
0030
2000
0000
,
3200
0000
0300
0020
0000
0030
0002
0000
2003
0000
3000
0020
0000
0030
0200
0000
,
0302
0000
0003
2000
0000
3000
0020
0000
2030
0000
3100
0010
0001
0000
1000
0000
,
0001
0100
0010
1000
0001
1000
0001
0100
0010
0100
0001
1000
0001
1000
0010
0100
,
0010
1000
0001
1000
0001
0100
0010
0100
0001
1000
0001
0100
0010
1000
0001
0100
,
0010
0100
0001
1000
0001
0100
0010
0100
0001
1000
0001
0100
0010
0100
0001
1000
,
0010
0000
0000
0000
0100
0000
0000
0000
0001
0000
0000
0000
1000
0000
0000
0000
0010
0000
0000
0000
0100
0000
0000
0000
0010
0000
0000
0000
0100
0000
0000
0000
0002
0003
0000
0000
2000
3000
0000
0000
0002
0003
0000
0000
2000
3000
0000
0000
0002
0003
0000
0000
2000
3000
0000
0000
0002
0003
0000
0000
2000
3000
0000
0000
,
0002
0000
0003
2000
0000
3000
0020
0000
0230
0000
0300
0020
0000
0030
2000
0000
,
3002
0000
0003
0020
0000
0030
0002
0000
0203
0000
0300
0020
0000
0030
2000
0000
,
3200
0000
0300
0020
0000
0030
0002
0000
2003
0000
3000
0002
0000
0003
0200
0000
,
0320
0000
0030
2000
0000
3000
0020
0000
1030
0001
1000
0001
1000
0001
1000
0001
,
1000
0000
0000
0000
0000
0010
0000
0000
0000
0000
1000
0000
0000
0000
0000
0001
0000
0000
0000
0000
0100
0000
0000
0000
0000
0010
0000
0000
0000
0000
0100
0000
0000
0000
0000
0001
0000
0000
0000
0000
0010
0000
0000
0000
0000
0100
0000
0000
0000
0000
0010
0000
0000
0000
0000
0001
0000
0000
0000
0000
1000
0000
0000
0000
,
0000
0100
0000
0000
0000
0000
0010
0000
0000
0000
0000
0001
0000
0000
0000
0000
1000
0000
0000
0000
0000
0001
0000
0000
0000
0000
0100
0000
0000
0000
0000
0010
0000
0000
0000
0000
0100
0000
0000
0000
0000
0001
0000
0000
0000
0000
1000
0000
0000
0000
0000
0001
0000
0000
0000
0000
1000
0000
0000
0000
0000
0100
0000
0000
,
0000
0000
0010
0000
0000
0000
0000
0001
0000
0000
0000
0000
1000
0000
0000
0000
0000
0001
0000
0000
0000
0000
0100
0000
0000
0000
0000
0010
0000
0000
0000
0000
0100
0000
0000
0000
0000
0001
0000
0000
0000
0000
1000
0000
0000
0000
0000
0001
0000
0000
0000
0000
0100
0000
0000
0000
0000
0010
0000
0000
0000
0000
1000
0000
,
0000
0000
0000
0001
0000
0000
0000
0000
1000
0000
0000
0000
0000
0001
0000
0000
0000
0000
0010
0000
0000
0000
0000
0100
0000
0000
0000
0000
1000
0000
0000
0000
0000
0001
0000
0000
0000
0000
0010
0000
0000
0000
0000
0001
0000
0000
0000
0000
1000
0000
0000
0000
0000
0100
0000
0000
0000
0000
1000
0000
0000
0000
0000
0001
,
0000
0000
0000
0000
0100
0000
0000
0000
0000
0001
0000
0000
0000
0000
1000
0000
0000
0000
0000
0010
0000
0000
0000
0000
0100
0000
0000
0000
0000
0010
0000
0000
0000
0000
1000
0000
0000
0000
0000
0001
0000
0000
0000
0000
1000
0000
0000
0000
0000
0010
0000
0000
0000
0000
0100
0000
0000
0000
0000
0001
0000
0000
0000
0000
,
1000
0000
0000
0000
0000
0001
0000
0000
0000
0000
0010
0000
0000
0000
0000
0100
0000
0000
0000
0000
1000
0000
0000
0000
0000
0001
0000
0000
0000
0000
0010
0000
0000
0000
0000
0100
0000
0000
0000
0000
0010
0000
0000
0000
0000
0001
0000
0000
0000
0000
1000
0000
0000
0000
0000
0100
0000
0000
0000
0000
1000
0000
0000
0000
,
0000
0001
0000
0000
0000
0000
0100
0000
0000
0000
0000
0010
0000
0000
0000
0000
0100
0000
0000
0000
0000
0001
0000
0000
0000
0000
1000
0000
0000
0000
0000
0010
0000
0000
0000
0000
0100
0000
0000
0000
0000
0001
0000
0000
0000
0000
1000
0000
0000
0000
0000
0100
0000
0000
0000
0000
0010
0000
0000
0000
0000
0001
0000
0000
,
0000
0000
1000
0000
0000
0000
0000
0100
0000
0000
0000
0000
1000
0000
0000
0000
0000
0001
0000
0000
0000
0000
0010
0000
0000
0000
0000
0001
0000
0000
0000
0000
1000
0000
0000
0000
0000
0100
0000
0000
0000
0000
0010
0000
0000
0000
0000
0001
0000
0000
0000
0000
1000
0000
0000
0000
0000
0001
0000
0000
0000
0000
2000
0000
,
0000
0000
0000
0000
0000
0000
0000
0000
0000
0000
0000
0000
0000
0000
0000
0000
0000
0000
0000
0000
0000
0000
0000
0000
0000
0000
0000
0000
0000
0000
0000
0000
30M0
0000
0000
00M0
0000
0000
00M0
0000
00M0
0000
0000
00M0
0000
0000
00M0
0000
00M0
0000
0000
00M0
0000
0000
00M0
0000
00M0
0000
0000
00M0
0000
0000
00M0
0000
;
