#TITLE:Virgin's High!;
#SUBTITLE:Sky Girls OP theme;
#ARTIST:MELL;
#TITLETRANSLIT:;
#SUBTITLETRANSLIT:;
#ARTISTTRANSLIT:;
#CREDIT:ALICE_;
#BANNER:Virgin's High.png;
#BACKGROUND:Virgin's High.jpg;
#LYRICSPATH:;
#CDTITLE:cdtitle.png;
#MUSIC:Virgin's High.mp3;
#OFFSET:0.775;
#SAMPLESTART:54.340;
#SAMPLELENGTH:12.000;
#SELECTABLE:YES;
#BPMS:0.000=177.000;
#STOPS:;
#BGCHANGES:2.250=Virgin's High.avi=1.000=0=0=1,
267.500=Virgin's High.jpg=1.000=1=0=1,
99999=-nosongbg-=1.000=0=0=0 // don't automatically add -songbackground-
;
// cache tags:
#FIRSTBEAT:4.000;
#LASTBEAT:268.000;
#SONGFILENAME:Songs/alice 4th complete step/Virgin's High/Virgin's High.sm;
#HASMUSIC:1;
#HASBANNER:1;
#MUSICLENGTH:90.052;
// end cache tags

//---------------dance-single - ----------------
#NOTES:
     dance-single:
     :
     Hard:
     8:
     0.693,0.631,0.355,0.111,0.006,395.000,32.000,10.000,0.000,0.000:
0000
0000
0000
0000
,
1000
0100
0000
0100
0000
0010
1000
0010
,
0000
0100
0000
0100
1000
0010
0200
0300
,
0001
0100
0000
0100
0000
0010
0001
0010
,
0000
0100
0010
0100
0001
2000
0000
3000
,
0001
0100
0010
1000
0100
0100
0010
0000
,
1000
0010
0100
0001
0010
0010
0100
0000
,
1000
0001
0100
0001
0010
0010
0100
0000
,
1000
0000
0000
1000
0000
0000
1000
0000
0010
0000
0100
0000
0001
0000
0010
0000
,
1001
0001
0100
0001
0000
0001
1000
0001
,
0100
1000
0100
0001
1000
0100
0020
0030
,
1001
1000
0100
1000
0000
1000
0001
1000
,
0100
0001
0100
1000
0020
0200
0000
0330
,
1001
0001
0010
0001
0000
1000
0001
1000
,
0010
0001
0010
1000
0001
0010
0200
0300
,
1001
1000
0010
1000
0000
0001
1000
0001
,
0010
1000
0010
0001
0200
0020
0000
0300
,
0030
1000
1000
1000
,
0001
1000
0001
0100
,
1000
0000
0001
0010
0000
0000
0001
0100
,
0000
0000
1000
0010
0000
1000
0001
0000
,
1000
0001
0001
0001
,
1000
0001
1000
0010
,
0001
0000
1000
0100
0000
0000
1000
0001
,
0000
1000
0010
0100
0001
1001
0000
0100
,
1000
1000
0001
0000
1000
0100
0001
0000
,
0100
1000
0010
0000
0001
0010
0100
0000
,
0001
0001
1000
0000
0001
0100
1000
0000
,
0100
0001
0010
0000
1000
0010
0100
0000
,
1000
1000
0001
0000
0010
0001
0100
0000
,
1000
0100
0001
0000
0010
0100
1000
0000
,
0001
0001
0100
0001
1000
0010
0100
0000
,
0001
1000
0100
0010
0001
1000
0001
1000
,
0010
0100
0000
0001
0100
0000
0010
0100
,
0000
0001
1000
0000
0100
0010
0100
0010
,
1000
0100
0000
1000
0010
0000
1000
0100
,
0000
1000
0010
0000
0100
0001
1000
0000
,
1001
0000
1100
0001
1000
0001
0100
0000
,
1001
0000
0101
1000
0100
1000
0010
0000
,
0100
0001
0010
0100
0001
0100
0010
0001
,
2000
0000
0000
3000
,
1010
0000
0101
0000
1000
0010
0100
0010
,
1000
0001
0100
0001
1000
0010
0100
0010
,
1000
0100
1000
0100
0001
0100
0001
0100
,
1000
0010
0001
0010
1000
0001
0010
0001
,
0100
1010
1100
1010
,
0100
0001
0010
0001
1000
0001
0010
0001
,
0100
0011
0110
0011
,
1000
0000
0101
0000
1000
0100
1000
0010
,
0100
0001
0010
0001
1000
0010
0100
0010
,
1000
0100
0001
0100
1000
0001
0100
0001
,
1000
0010
1000
0010
0100
0010
0100
0010
,
1000
0001
0010
0001
1000
0100
0001
0100
,
1000
0011
0110
0011
,
1000
0010
0100
0001
1000
0100
0010
0001
,
1000
0110
0101
0011
,
0100
1000
0001
0100
1000
0001
0000
0000
,
0010
1000
0100
0000
1100
1000
0000
0000
,
1000
0100
0010
0000
0101
0001
0000
0000
,
0001
0100
0010
0000
1100
1000
0000
0000
,
0010
0100
0010
0000
1001
0001
0000
0000
,
1000
0100
1000
0000
1001
0100
0000
0000
,
0001
0010
0001
0000
1001
0010
0000
0000
,
0100
0000
0101
1000
0010
0100
0001
0000
,
0010
0000
1100
0001
1000
0010
0100
0000
,
0001
1000
0010
1000
0100
1000
0010
0100
,
0001
0010
0001
0010
0002
0000
0000
0003
;

//---------------dance-single - ----------------
#NOTES:
     dance-single:
     :
     Medium:
     7:
     0.581,0.631,0.200,0.167,0.000,333.000,18.000,15.000,0.000,0.000:
0000
0000
0000
0000
,
1000
1000
0001
0001
,
1000
1000
0100
0010
,
0001
0001
1000
1000
,
0010
0000
0100
0000
0001
1000
0000
0000
,
0010
0100
0001
0001
,
0010
0100
1000
1000
,
0000
0000
0010
0000
0100
0000
0001
2000
,
0000
0000
0000
3000
,
0001
0100
0001
0100
0010
1000
0100
0000
,
0010
0001
0010
0000
0001
0100
0001
0000
,
1000
0010
1000
0010
0100
0001
0010
0000
,
0100
1000
0100
0000
0010
0001
0010
0000
,
0100
1000
0100
1000
0001
0100
0010
0000
,
1000
0100
0001
0000
0001
0100
1000
0000
,
0010
0100
0010
0100
0001
0010
0100
0000
,
1000
0001
0010
0001
0100
0020
0000
0000
,
1030
0001
1000
0001
,
0100
0010
1000
0100
,
0010
0001
1000
0001
,
0100
0010
1000
0001
,
0100
1000
0001
1000
,
0010
0100
0001
1000
,
0010
0100
1000
0100
,
0010
0001
1000
0010
,
0100
0000
0100
0000
0001
0010
1000
0000
,
0010
0000
0010
0000
0001
0100
1000
0000
,
0100
0000
0001
0000
0010
0001
0100
0000
,
0010
0000
1000
0000
0100
1000
0010
0000
,
1000
0000
1000
0000
0001
0100
1000
0000
,
0010
0000
0010
0000
1000
0100
0001
0000
,
2100
3010
0102
0013
,
2100
0000
3002
0003
0020
0000
0230
0000
,
1300
0001
0000
0010
0001
0000
1000
0001
,
0000
0010
0001
0000
0100
0010
1000
0000
,
0001
0010
0000
0001
1000
0000
0001
0010
,
0000
0001
1000
0000
0010
0100
0001
0000
,
1000
1000
0010
0100
,
0001
0001
0010
0100
,
1000
0001
1000
0001
1000
0001
1000
0001
,
0020
0000
0000
0030
,
0100
1000
0100
1000
0001
0100
0001
0100
,
0010
1000
0100
1000
0010
0100
0001
0100
,
0010
1000
0100
0010
0001
0100
0010
0000
,
2100
3001
0102
1003
,
0010
0101
0011
0100
,
1000
0000
0010
0100
0001
0100
0010
0000
,
1000
1100
0110
0001
,
1000
0010
0100
0000
0001
0010
1000
0010
,
0001
0100
0001
0100
0010
1000
0010
1000
,
0100
0010
0001
0010
0100
1000
0010
0100
,
0001
1000
0100
1000
0010
0001
0010
0000
,
2010
3100
0012
0103
,
1000
0110
0101
0010
,
0100
1000
0001
0100
0001
0010
0001
0100
,
0010
1100
0110
2002
,
0000
3003
0010
0000
1000
0001
0000
0000
,
0100
0100
0000
0000
0001
0010
0000
0000
,
0100
0100
0000
0000
1000
0010
0000
0000
,
0100
0100
0000
0000
0001
1000
0000
0000
,
0010
0010
0000
0000
0100
0001
0000
0000
,
1000
1000
0000
0000
0001
0010
0000
0000
,
0001
0001
0000
0000
1000
0010
0000
0000
,
0100
0000
0101
0000
0100
0001
0010
0000
,
0100
0000
1001
0000
0100
1000
0010
0000
,
0100
0001
0100
0001
1000
0001
1000
0001
,
0010
0100
0010
0100
0010
0100
0010
0100
;

//---------------dance-single - ----------------
#NOTES:
     dance-single:
     :
     Easy:
     3:
     0.330,0.335,0.100,0.067,0.000,193.000,9.000,6.000,0.000,0.000:
0000
0000
0000
0000
,
1000
0100
1000
0000
,
0100
1000
0010
0000
,
0001
0100
0001
0000
,
0100
0001
0010
0000
,
1000
0001
0100
0000
,
0001
1000
0100
0000
,
0010
0100
0001
1000
,
0200
0000
0300
0000
,
1000
0100
1000
0000
,
0001
0000
1001
0000
,
0001
0100
0001
0000
,
1000
0000
1001
0000
,
0010
0100
0010
0000
,
0001
0000
1100
0000
,
0010
0100
0010
0000
,
1000
0000
0101
0000
,
0000
1000
1000
1000
,
0010
0100
0001
1000
,
0000
0001
0000
1000
,
0000
0010
0000
0110
,
0000
0001
0001
0001
,
1000
0001
0100
0010
,
0000
1000
0000
0001
,
0000
0100
0000
0010
,
1000
0100
1000
1000
,
0010
0100
0010
1000
,
0001
0100
1000
0001
,
1000
0100
0001
1000
,
0001
0100
0001
0001
,
0010
0100
0010
0001
,
1000
0000
0100
0000
,
0002
0000
0003
0000
,
1000
0100
0010
0000
,
0010
0100
1000
0000
,
0001
0100
0010
0000
,
0010
0100
0001
0000
,
1000
0100
0001
0010
,
0001
0100
1000
0010
,
0200
0000
0000
0300
,
0010
0000
0000
0000
,
1000
1000
0001
0001
,
1000
0001
1000
0001
,
1000
0100
0010
0002
,
0000
0000
0003
0000
,
0001
0100
0010
1000
,
0000
0100
0010
0100
,
1000
0010
0100
0001
,
0000
0010
0100
0010
,
0001
0001
1000
1000
,
0001
1000
0001
1000
,
0001
0100
0010
2000
,
0000
0000
3000
0000
,
1000
0010
0100
0001
,
0000
0010
0100
0010
,
0001
0100
0010
1000
,
0000
0100
0010
0100
,
1000
0000
1100
0000
,
0001
0000
0101
0000
,
1000
0000
1010
0000
,
0001
0000
0011
0000
,
1000
0100
0010
0000
,
0001
0100
0010
0000
,
1000
0001
0100
0010
,
1000
0001
0100
0010
,
1000
1000
1000
1000
,
2000
0000
0000
0000
,
3000
0000
0000
0000
;

//---------------dance-single - ----------------
#NOTES:
     dance-single:
     :
     Challenge:
     15:
     1.000,1.000,1.000,0.366,0.855,650.000,255.000,33.000,0.000,40.000:
0000
0000
0000
0000
,
0011
0100
0000
0100
1010
0100
0001
1000
,
0011
0110
0000
0100
1001
0100
0020
0030
,
1100
0000
0001
0000
0000
0000
0001
0000
0110
0000
0001
0000
1000
0000
0010
0100
,
0001
1000
0010
0100
0011
2002
3003
0000
,
0110
0000
0010
0000
1001
0000
0100
0001
1010
0001
0100
0010
1001
0000
0000
0000
,
0110
0000
0100
1000
0011
0000
0000
0000
0010
1000
0001
0000
0110
0000
0000
0000
,
1101
0000
0010
0001
1100
0010
1000
0100
1001
0010
0100
0000
0110
0000
0000
0000
,
2101
0000
0000
0101
0000
0000
3101
0000
0010
0100
0001
1000
0010
0100
0001
1000
,
0011
0000
0101
0000
1000
0000
0101
0000
0010
1000
0100
1000
0011
0000
0100
0000
,
1001
0000
1010
0000
0100
0000
1001
0000
0011
0100
0010
1000
0011
0100
0001
1000
,
0010
0100
1000
0100
0011
0000
0100
0000
1000
0010
0001
0010
0101
0000
0010
0000
,
1100
0010
0001
0010
0101
0000
0010
0000
0100
0001
1100
0010
1000
0001
1100
0010
,
1001
0000
1000
0000
0101
0000
0010
0000
1000
0100
1000
0000
0101
0000
0010
0000
,
1001
0000
0101
0000
1000
0000
0011
0000
1100
0010
1000
0001
1100
0010
1000
0001
,
0100
0010
1000
0100
1001
0000
0010
0000
0100
0000
0110
0000
1001
0000
0100
0000
,
0011
0100
0001
1000
0101
1000
0010
0100
0001
0010
1001
0010
0100
0010
1001
0010
,
0100
0001
1010
0001
1100
0010
1001
0010
,
1100
0001
1010
0001
0110
1000
0101
0010
,
1000
0000
1000
0000
0101
0000
1000
0010
0100
0000
1001
0000
0220
0000
0330
0000
,
0001
0000
0001
0000
1010
0000
0001
0100
0010
0000
1001
0000
0010
0100
0010
0100
,
0001
1000
0011
1000
0101
0010
1001
0100
,
0011
1000
0101
1000
0110
0001
1010
0100
,
0001
0000
0001
0000
1010
0000
0001
0100
0010
0000
1001
0000
0220
0000
0330
0000
,
1010
0000
0010
0000
0101
0000
1000
0010
0100
0000
2002
0000
3003
0000
0010
0100
,
0011
0000
0011
0000
1010
0000
0001
0010
1000
0100
0010
0100
1001
0000
0010
0000
,
1100
0000
1100
0000
0101
0000
1000
0010
0001
0010
0100
0010
1001
0000
0100
0000
,
1001
0000
1001
0000
1010
0000
0101
1000
0010
0100
0001
0010
1001
0000
0100
0000
,
1010
1010
2001
3010
0101
0101
1002
0013
,
1100
0000
1100
0000
1001
0000
0011
1000
0010
0100
0001
0010
0101
0000
0010
0000
,
0101
0000
0101
0000
1001
0000
1010
0001
0100
0010
1000
0100
0011
0000
0100
0000
,
2011
0000
0001
0000
0110
0000
0001
3100
2010
0100
0001
0000
0101
0000
3010
0000
,
0110
1000
0011
0100
0010
1001
0100
1001
,
1100
1110
0000
0011
0111
0000
1010
1110
,
0000
0000
0101
0000
0111
0000
0000
0000
1001
0010
0100
0000
1001
0010
0001
0010
,
1100
1101
0000
0011
1011
0000
1010
1101
,
0000
0000
0101
0000
1011
0000
0000
0000
1100
0010
1000
0001
0110
0000
0000
0000
,
1011
0000
0001
0000
0101
0000
0010
1000
0101
1000
0110
0000
1001
0000
0010
0000
,
1101
0000
1000
0000
1010
0000
0100
0001
1010
0001
0110
0000
1001
0000
0010
0000
,
0101
0000
1001
0000
0111
0000
1001
0000
1010
0100
1001
0000
1110
0000
1001
0000
,
0010
1000
0010
1000
0100
1000
0100
1000
0001
0100
0001
0100
0001
0010
0001
0010
,
0101
0000
1000
0000
0011
0100
0010
0000
1100
0000
0001
0000
1010
0100
0010
0000
,
1000
0011
1110
0101
1000
0110
1011
1100
,
1002
0110
1010
0103
2010
0011
0110
3001
,
1200
0000
0011
0000
1010
0000
0301
0000
0120
0000
1031
0000
0010
0100
0001
0010
,
1000
0100
0010
0001
1000
0100
0010
0001
1000
0010
0100
0001
1000
0010
0100
0001
,
1000
0010
0001
0010
0101
0000
0010
0000
0001
0100
1000
0100
1010
0000
0100
0000
,
0001
0010
0100
1000
0001
0010
0100
1000
0001
0100
0010
1000
0001
0100
0010
1000
,
0101
0000
1010
0000
0111
0000
1010
0000
0100
0000
1001
0010
0100
0001
0010
0001
,
1100
0000
0001
0000
1010
0100
0010
0000
0101
0000
1000
0000
0011
0100
0010
0000
,
1001
0000
0100
0000
1010
0100
0001
0000
0111
0000
1000
0000
1001
0010
0100
0000
,
2002
3013
0022
0133
2020
3130
2200
3310
,
0101
0000
0010
0000
1101
0000
0110
0000
1000
0000
0011
0000
1110
0000
0101
0010
,
1000
0001
0100
0001
1010
0001
0100
0001
1000
0100
0010
0001
0100
1000
0010
0001
,
1000
0100
0010
0100
1001
0100
0010
0100
0001
0010
0100
1000
0010
0001
0100
1000
,
0110
1000
0101
0001
1010
0100
1001
0010
,
1000
0011
1100
0010
1001
2112
0000
3003
,
1100
0000
2100
0000
3010
0000
0000
0000
0101
0010
0101
0000
1000
0000
0010
0000
,
0101
0000
0102
0000
0013
0000
0000
0000
1010
0100
1010
0000
0001
0000
1000
0000
,
0110
0000
0120
0000
1031
0000
0000
0000
1100
0010
1100
0000
0001
0000
1000
0000
,
0011
0100
0001
1000
0110
0000
0000
0000
1001
0010
1001
0000
0100
0000
0011
0000
,
1100
0000
2100
0000
3011
0000
0000
0000
1010
0100
1010
0000
0001
0000
1000
0000
,
0011
0000
0012
0000
1103
0000
0000
0000
0101
0010
0101
0000
1000
0000
0001
0000
,
1100
0000
0100
0000
0110
0000
0100
0010
1100
0000
0011
0000
0100
0000
1010
0000
,
0101
0000
0010
0000
0011
0000
0010
1000
0101
0000
1010
0000
0100
0000
1001
0000
,
0110
0101
0110
0101
1010
1100
1001
0110
,
1000
0001
1000
0001
0100
0001
0010
0001
1000
0010
0001
0010
0100
0010
0001
0010
;
