#TITLE:BE PRINCESS;
#SUBTITLE:(Shortened);
#ARTIST:DJ Sharpnel;
#TITLETRANSLIT:;
#SUBTITLETRANSLIT:;
#ARTISTTRANSLIT:;
#CREDIT:Seoul Plaer;
#BANNER:;
#BACKGROUND:;
#LYRICSPATH:;
#CDTITLE:;
#MUSIC:Be Princess.ogg;
#OFFSET:-0.140;
#SAMPLESTART:31.719;
#SAMPLELENGTH:16.000;
#SELECTABLE:YES;
#BPMS:0.000=190.000;
#STOPS:159.750=1.300
;
#BGCHANGES:;
// cache tags:
#FIRSTBEAT:12.000;
#LASTBEAT:453.500;
#SONGFILENAME:Songs/toune 2/BE PRINCESS - Seoul Plaer/Be Princess.sm;
#HASMUSIC:1;
#HASBANNER:0;
#MUSICLENGTH:105.000;
// end cache tags

//---------------dance-single - Blank----------------
#NOTES:
     dance-single:
     Blank:
     Hard:
     11:
     1.000,1.000,1.000,0.114,1.000,991.000,138.000,12.000,16.000,0.000:

0000
0000
0000
0000
,
0000
0000
0000
0000
,
0000
0000
0000
0000
,
0110
0000
0000
0000
1000
1000
1000
1000
,
1000
0000
0100
1000
0100
0000
0010
0000
0001
0000
0100
0000
0010
1000
0010
0000
,
1001
0000
0000
0000
0010
0010
0010
0000
,
0001
0000
0100
0001
0100
0000
0010
0000
1000
0000
0100
0000
0010
0100
0010
0000
,
1001
0000
0010
0000
0100
0100
0100
0000
,
0110
0110
0000
1001
0000
0011
0000
1100
,
0000
0101
0000
1010
0000
0110
0000
1100
,
0000
1100
0000
1100
0000
0000
0011
0000
0000
0000
0110
0000
0000
0000
1100
0000
,
0000
1010
0000
0101
0000
0011
0000
0110
,
0000
0110
0000
0110
0000
0000
1100
0000
0000
0000
0110
0000
0000
0000
0011
0000
,
1100
0000
0000
0000
1100
0000
0000
0000
0001
0010
0001
0010
0001
0010
0001
0010
,
0100
0010
0100
0010
0100
0010
0100
0010
0100
1000
0100
1000
0100
1000
0100
1000
,
0110
0110
0110
0110
,
1001
1001
1001
1001
,
1010
0000
0000
0000
1010
0000
0000
0000
0001
0100
0010
1000
0010
0100
0001
1000
,
0001
0101
0101
0101
,
0011
0000
0011
0000
0011
0010
0110
0100
,
1100
1100
1100
1100
,
1001
0000
0000
0000
1001
0000
0000
0000
1000
0100
0010
0001
1000
0010
0100
0001
,
0100
0110
0110
0110
,
0101
0100
0001
0100
0101
0001
0100
0001
,
0101
0101
0101
0101
,
1100
0000
0000
0000
1100
0000
0000
0000
0010
0100
0001
1000
0100
0010
0001
0100
,
1000
1001
1001
1001
,
0110
0000
0110
0000
0110
0010
0011
0100
,
1100
1100
1100
1100
,
0101
0000
0000
0000
0101
0000
0000
0000
0010
0100
0001
1000
0100
0010
0001
0100
,
0001
0011
0011
0011
,
1001
0001
1000
0001
1001
1000
0001
1000
,
1001
1001
1001
1001
,
1010
0000
0000
0000
1010
0000
0000
0000
0100
0001
1000
0010
0100
0010
1000
0001
,
0010
0110
0110
0110
,
0011
0000
0011
0000
0011
0001
0101
0010
,
1010
1010
1010
1010
,
0110
0100
0110
0010
1001
0001
1001
1000
,
0100
1000
0100
1000
0100
1000
0100
1000
0001
0010
0001
0010
0001
0010
0001
0010
,
0001
1000
0001
1000
0001
1000
0001
1000
0010
0100
0010
0100
0010
0100
0010
0100
,
1001
1000
0100
1000
0100
1000
0100
1000
,
1001
1000
0100
1000
0100
1000
0100
1000
,
1001
0001
0010
0001
0010
0001
0010
0001
,
1001
0000
0001
0000
0010
0000
0001
0000
0010
0000
0001
0000
0001
0010
0100
1000
,
0010
0100
0001
0100
0001
0100
0001
0100
,
0110
0100
0001
0100
0001
0100
0001
0100
,
0110
0010
1000
0010
1000
0010
1000
0010
,
0110
0000
0010
0000
1000
0000
0010
0000
1000
0000
0010
0000
0010
0100
0001
1000
,
0100
0100
0010
0100
0010
0100
0010
0100
,
0101
0100
0010
0100
0010
0100
0010
0100
,
1100
0100
1000
0100
1000
0100
1000
0100
,
1100
0000
0100
0000
1000
0000
0100
0000
1000
0000
0100
0000
0100
0010
0001
1000
,
0010
1000
0100
1000
0100
1000
0100
1000
,
1010
1000
0100
1000
0100
1000
0100
1000
,
1000
0100
1000
0100
1000
0100
1000
0100
0010
0001
0010
0001
0010
0001
0010
0001
,
0100
0001
0100
0001
0100
0010
0100
0010
1000
0010
1000
0010
1000
0001
1000
0001
,
1000
0000
0000
0000
0000
0000
0000
0000
1000
0010
0100
0001
0010
0000
1001
0000
,
0110
0000
1000
0000
0001
0000
1000
0100
0010
0001
0010
0100
1000
0000
0001
0000
,
0110
0000
0001
0000
1000
0000
0001
0010
0100
1000
0100
0010
0002
0000
0003
0000
,
1001
0000
0010
0000
0100
0000
0010
1000
0010
0100
0001
0100
0010
0000
0100
0000
,
1001
0000
0100
0000
0010
0000
0100
0001
1000
0010
0100
0001
0020
0000
0030
0000
,
0110
0000
0001
0000
1000
0000
0001
0010
0100
1000
0100
0010
0001
0000
1000
0000
,
0110
0000
1000
0000
0001
0000
1000
0100
0010
0001
0010
0100
2000
0000
3000
0000
,
1001
0000
0100
0000
0010
0000
0100
0001
0100
0010
1000
0010
0100
0000
0010
0000
,
1001
0000
0010
0000
0100
0000
0010
1000
0001
0100
0010
1000
0200
0000
0300
0000
,
1001
0000
0010
0000
0100
0000
0010
1000
0001
0100
0001
1000
0010
0000
0100
0000
,
1001
0000
0100
0000
0010
0000
0100
0001
1000
0010
1000
0001
0200
0000
0300
0000
,
0110
0000
0001
0000
1000
0000
0001
0010
0001
1000
0100
1000
0001
0000
0100
0000
,
0110
0000
1000
0000
0001
0000
1000
0100
0010
0001
1000
0010
0200
0000
0300
0000
,
1001
0000
0100
0000
0010
0000
0100
0001
1000
0010
1000
0001
0100
0000
0010
0000
,
1001
0000
0010
0000
0100
0000
0010
1000
0001
0100
0001
1000
0020
0000
0030
0000
,
0110
0000
1000
0000
0001
0000
1000
0100
1000
0001
0010
0001
1000
0000
0010
0000
,
1001
0000
1000
0100
0010
0000
0010
0000
0001
0100
0010
0000
1001
0000
0000
0000
,
0010
0100
0001
1000
0100
0001
0100
1000
,
0010
0000
0100
0000
0001
0000
1000
0000
0010
0000
0100
0000
1000
0000
0100
1000
,
0100
0010
0100
1000
0100
0001
0010
0100
,
1000
0000
0010
0000
0100
0000
0001
0000
0010
0000
0100
0000
1000
0000
0100
0010
,
0001
1000
0001
0010
0100
1000
0001
0010
,
0100
0000
0010
0000
0100
0000
1000
0000
0010
0000
0100
0000
0010
0000
1000
0010
,
0100
0001
0100
0001
0100
0010
1000
0001
,
1000
0000
0001
0000
0010
0000
0100
0000
0010
0000
0100
0000
1000
0000
0100
1000
,
0010
0100
0001
0100
0001
0100
0010
0100
,
1000
0000
0100
0000
0010
0000
0100
0000
0001
0000
0100
0000
0010
0000
0100
0010
,
1000
0100
0010
0001
0100
0010
1000
0100
,
0011
MMMM
0110
MMMM
1100
MMMM
1001
MMMM
,
1010
0000
0100
0001
0100
0000
0010
0000
0100
0000
0001
0100
0001
0000
1000
0000
,
0100
0000
0010
0001
0010
0000
0001
0000
0100
0000
0001
0100
0001
0000
1000
0000
,
0011
0000
1000
0100
1000
0000
0001
0000
1000
0000
0100
1000
0100
0000
0010
0000
,
1000
0000
0001
0100
0001
0000
0010
0000
0100
0000
1000
0100
1000
0000
0010
0000
,
1001
0000
0001
0010
0001
0000
1000
0000
0001
0000
0010
0001
0010
0000
0001
0000
,
0100
0000
0010
1000
0010
0000
1000
0000
0100
0000
0010
0001
0010
0000
0200
0000
,
0000
0000
1000
0000
1000
0000
1000
0300
,
1000
0100
0010
0001
0010
0100
1000
0000
0001
0010
0100
1000
0100
0010
0001
0000
,
1000
0100
0001
1000
0010
0001
1000
0100
,
0001
1000
0010
0001
1000
0100
0001
0001
,
0001
0100
1000
0001
0010
1000
0001
0100
,
1000
0001
0010
1000
0001
0100
1000
0000
,
0001
0010
0100
1000
0001
0010
0100
1000
0001
0010
0100
1000
0001
0010
0100
1000
,
0001
0100
0010
1000
0001
0100
0010
1000
0001
0100
0010
1000
0001
0100
0010
1000
,
0010
0100
0001
1000
0010
0100
0001
1000
0010
0100
0001
1000
0010
0100
0001
1000
,
0100
0010
0001
1000
0100
0010
0001
1000
0100
0010
0001
1000
0100
0010
0001
1000
,
0100
0010
0001
0100
0010
0001
0100
0010
,
0001
0100
0010
0001
0001
0001
0001
0001
,
1000
0100
0010
1000
0010
0100
1000
0100
,
0010
1000
0010
0100
0100
0100
0100
0100
,
0010
0100
0001
1000
0010
0100
0001
1000
0010
0100
0001
1000
0010
0100
0001
1000
,
0100
0010
0001
1000
0100
0010
0001
1000
0100
0010
0001
1000
0100
0010
0001
1000
,
0001
0010
0100
1000
0001
0010
0100
1000
0001
0010
0100
1000
0001
0010
0100
1000
,
0001
0100
0010
1000
0001
0100
0010
1000
0001
0100
0010
1000
0001
0100
0010
1000
,
0010
0100
0001
1000
0100
0010
0001
0010
0100
1000
0010
0100
0001
1000
0200
0000
,
0000
0000
0320
0000
0000
0000
0030
0000
1000
0001
1000
0000
0100
1000
0100
0000
,
0010
0100
0010
0000
0001
0100
0001
0000
0010
0100
0010
0000
1000
0100
1000
0000
,
0001
0000
1000
0100
0010
0001
0010
0100
1000
0100
0010
0001
1000
0000
0220
0000
,
0000
0000
0000
0330
0000
0000
0000
0000
;
