#TITLE:Ready, Steady, Go!;
#SUBTITLE:;
#ARTIST:L'arc en Ciel;
#TITLETRANSLIT:;
#SUBTITLETRANSLIT:;
#ARTISTTRANSLIT:;
#CREDIT:;
#BANNER:RSG-bn.png;
#BACKGROUND:RSG-bg.png;
#LYRICSPATH:;
#CDTITLE:!cdtitle.png;
#MUSIC:Ready Steady Go.mp3;
#OFFSET:1.067;
#SAMPLESTART:59.301;
#SAMPLELENGTH:15.000;
#SELECTABLE:YES;
#BPMS:0.000=144.020;
#STOPS:;
#BGCHANGES:;
// cache tags:
#FIRSTBEAT:4.000;
#LASTBEAT:539.750;
#SONGFILENAME:Songs/Keyboard Collaboration II/Bahamut-X - Ready Steady Go/RSG.sm;
#HASMUSIC:1;
#HASBANNER:1;
#MUSICLENGTH:229.546;
// end cache tags

//---------------dance-single - ----------------
#NOTES:
     dance-single:
     :
     Hard:
     13:
     1.000,1.000,1.000,0.200,1.000,1452.000,452.000,46.000,0.000,4.000:  // measure 1
0000
0000
0000
0000
,  // measure 2
1001
0000
0101
0010
0000
0010
1001
0000
1000
0100
0010
0001
0010
0100
2000
0000
,  // measure 3
3101
0000
1010
0100
0000
0100
1001
0000
0001
0010
0100
1000
0100
0010
0002
0000
,  // measure 4
1013
0000
1001
0100
0000
0100
0011
0000
1000
0100
0010
0100
1000
0100
0020
0000
,  // measure 5
1031
0000
0101
0000
0012
0000
1003
0100
1000
0000
0001
0010
0001
0000
0100
0010
,  // measure 6
1000
0100
1000
0100
0001
0100
0001
0100
0010
0100
0010
0100
0010
1000
0010
1000
,  // measure 7
0100
1000
0100
1000
0100
0001
0100
0001
0010
0001
0010
0001
0100
1000
0100
1000
,  // measure 8
0001
1000
0001
1000
0010
0100
0010
0100
0001
0100
0001
0100
1000
0100
1000
0100
,  // measure 9
0010
0100
0010
0100
0001
1000
0001
1000
0001
0100
0001
0100
0010
1000
0010
1000
,  // measure 10
0001
1000
0001
1000
0010
0100
0010
0100
0001
1000
0001
1000
0100
1000
0100
1000
,  // measure 11
0001
0010
0001
0010
0100
1000
0100
1000
0001
0100
0001
0100
0010
0100
0010
0100
,  // measure 12
1000
0100
1000
0100
1000
0001
1000
0001
0100
0001
0100
0001
0010
1000
0010
1000
,  // measure 13
0022
0000
0000
0000
0000
0000
0000
0000
0000
0000
0000
0000
0000
0000
0000
0033
,  // measure 14
1001
0000
0010
0000
1100
0000
0101
0010
0000
0010
0000
0010
1001
0000
1100
0000
,  // measure 15
0101
0000
1000
0000
0110
0000
1001
0010
0000
0010
0000
0010
1100
0000
0010
0000
,  // measure 16
1001
0000
0010
0000
1100
0000
0011
0100
0000
0100
0000
0100
1010
0000
0001
0000
,  // measure 17
1100
0000
0010
0000
0101
0000
1010
0100
0000
0100
0000
0100
0011
0000
1000
0000
,  // measure 18
0101
0000
0010
0000
0011
0000
1100
0010
0000
0010
0000
0010
0101
0000
0100
0000
,  // measure 19
1010
0000
1000
0000
1001
0000
0101
0010
0000
0010
0000
0010
1001
0000
0100
0000
,  // measure 20
0011
0000
1000
0000
0101
0000
0110
1000
0000
1000
0000
1000
0101
0000
0010
0000
,  // measure 21
2200
0000
0000
0000
3301
0000
1010
0100
0000
0100
0000
0100
0011
0000
1000
0000
,  // measure 22
0101
1001
1010
0100
1001
0010
0101
1010
,  // measure 23
0100
0000
0011
0000
1000
0000
0100
0000
0010
0000
0001
0000
1000
0100
1000
0000
,  // measure 24
0011
0101
0011
1001
1100
0001
0110
1001
,  // measure 25
0100
0000
1001
0000
0010
0100
0010
0000
0001
0000
1100
0000
1010
0000
1001
0000
,  // measure 26
0101
0000
0010
0000
0001
0000
1100
0000
0101
0000
0000
0011
0000
0000
1010
0000
,  // measure 27
0100
0000
0001
0000
1000
0100
0001
0000
0010
0000
1100
0000
0011
0000
0101
0000
,  // measure 28
1001
0101
1010
1000
1100
0101
1001
0101
,  // measure 29
1001
0000
0100
0000
1010
0000
0001
0000
0100
0000
0010
0000
0001
0010
0100
1000
,  // measure 30
0011
1010
1100
1010
0101
1000
0011
0101
,  // measure 31
0010
0000
1001
0000
0100
0000
1000
0000
0010
0000
0100
0000
1000
0100
1000
0000
,  // measure 32
0101
0010
1001
0101
0011
0100
1100
1010
,  // measure 33
0010
0000
0101
0000
0100
1000
0100
0000
0010
0000
1001
0000
0110
0000
0101
0000
,  // measure 34
1010
0000
0100
0000
0010
0000
1001
0000
1100
0000
0000
0101
0000
0000
1001
0000
,  // measure 35
0100
0000
0010
0000
1000
0001
1000
0000
0010
0000
1100
0000
1001
0000
0101
0000
,  // measure 36
1100
0000
1001
0000
0110
0000
1000
0000
0001
0010
0001
1000
0001
1000
0001
1000
,  // measure 37
0101
1100
1010
1001
,  // measure 38
1000
0100
0011
0100
1000
0001
1010
0100
1000
0100
0011
0100
1000
0010
1001
0100
,  // measure 39
0010
0001
1100
0001
0010
0100
1001
0100
0010
0100
1001
0010
0001
0010
0101
1000
,  // measure 40
0100
0010
1001
0100
0010
0100
1001
0010
0100
0010
1001
0100
0010
0001
1100
0010
,  // measure 41
1000
0010
1100
0001
0010
1000
0101
0010
0001
0100
1010
0001
0010
0100
1001
0100
,  // measure 42
1001
0000
0010
0000
1000
0100
1000
0000
1001
0000
0010
0000
0100
0010
1000
0000
,  // measure 43
0101
0000
0010
0000
0001
1000
0100
0000
1010
0000
0100
0000
0010
1000
0100
0000
,  // measure 44
1001
0000
0000
0101
0000
0000
0110
0000
1000
0100
1000
0001
1000
0001
1000
0001
,  // measure 45
1100
0000
0010
0100
0011
0000
0000
0000
1010
0000
0000
0000
1100
0000
0000
0000
,  // measure 46
0001
0010
1001
0100
0010
0100
1001
0010
0100
1000
0110
0001
0100
0010
1001
0100
,  // measure 47
0010
0100
1001
0010
0100
0001
1100
0010
0100
0010
1100
0001
0100
0010
1100
0001
,  // measure 48
0010
0100
1001
0100
0010
0001
1100
0010
1000
0001
1010
0001
0100
0010
1100
0010
,  // measure 49
1000
0100
0011
0100
1000
0001
1010
0100
0001
0100
1010
0100
1000
0001
1100
0001
,  // measure 50
1010
0000
0100
0000
0001
0010
0001
0000
1100
0000
0010
0000
0100
0001
0010
0000
,  // measure 51
1001
0000
0100
0000
0010
1000
0010
0000
0110
0000
1000
0000
0001
0100
0001
0000
,  // measure 52
1100
0000
0001
0000
1000
0001
1000
0000
0101
0000
0000
1010
0000
0000
2200
0000
,  // measure 53
0000
0000
0000
0000
0000
0000
0000
0000
0000
0000
0000
0000
0000
0000
0000
3300
,  // measure 54
1001
0000
0110
0110
0000
1010
1010
0000
0001
1000
0001
1000
0001
0000
2020
3030
,  // measure 55
1001
0000
0101
0101
0000
1100
1100
0000
0001
0010
0001
0010
0001
0000
0220
0330
,  // measure 56
0101
0000
1001
1001
0000
0101
0101
0000
1000
0100
1000
0100
1000
0000
0202
0303
,  // measure 57
1001
0000
0100
0010
1001
0000
1000
0100
0000
0100
0010
0000
1001
0000
0100
0000
,  // measure 58
0011
0101
1001
1010
1100
0010
1001
0110
,  // measure 59
1000
0000
0101
0000
0010
0000
1000
0000
0100
0000
1000
0000
0001
0010
1000
0000
,  // measure 60
0101
1010
1001
0110
0011
0100
1001
0101
,  // measure 61
0010
0000
1010
0000
0100
1000
0100
0000
0010
0000
1001
0000
0110
0000
0101
0000
,  // measure 62
1001
0000
0100
0000
0010
0000
1010
0000
0110
0000
0000
1001
0000
0000
0110
0000
,  // measure 63
1000
0000
0001
0000
0100
0001
0010
0000
0100
0000
0011
0000
1010
0000
1100
0000
,  // measure 64
0101
0011
1010
0100
0011
1001
1100
1010
,  // measure 65
0101
0000
0010
0000
0011
0000
0100
0000
0001
0000
0010
0000
1000
0100
0010
0001
,  // measure 66
1010
0100
0011
1010
1100
0100
1001
0110
,  // measure 67
0001
0000
1010
0000
0100
0000
0010
0000
0100
0000
1000
0000
0001
0010
0001
0000
,  // measure 68
1100
1000
0101
0011
1001
0010
1100
1010
,  // measure 69
0100
0000
0101
0000
0010
1000
0010
0000
1000
0000
0101
0000
0110
0000
1010
0000
,  // measure 70
1100
0000
0010
0000
1000
0000
0101
0000
0011
0000
0000
1001
0000
0000
1100
0000
,  // measure 71
0010
0000
0100
0000
1000
0100
1000
0000
0010
0000
0101
0000
1001
0000
1010
0000
,  // measure 72
1001
0000
0110
0000
0011
0000
1100
0000
0010
0100
0010
1000
0010
1000
0010
1000
,  // measure 73
0110
0101
0110
1010
,  // measure 74
0001
0100
0011
1000
0001
0010
0101
1000
0100
0010
0101
1000
0001
1000
0101
0010
,  // measure 75
0001
0100
1010
0100
1000
0001
1010
0100
0001
0100
1010
0100
1000
0001
0110
0001
,  // measure 76
1000
0100
0011
0100
1000
0010
1100
0001
0010
0100
1010
0100
0010
0100
1001
0010
,  // measure 77
0100
0010
1001
0100
0010
0001
1100
0001
1000
0001
0110
0001
0010
0100
1001
0100
,  // measure 78
1001
0000
0010
0000
0001
0100
0001
0000
1100
0000
0010
0000
0100
1000
0010
0000
,  // measure 79
1001
0000
0100
0000
0001
0010
0001
0000
1010
0000
0100
0000
0001
0010
0001
0000
,  // measure 80
1100
0000
0000
0011
0000
0000
0101
0000
0110
0000
1010
0000
0100
0001
0100
0001
,  // measure 81
1010
0000
0100
0010
1001
0000
0000
0000
0101
0000
0000
0000
1010
0000
0000
0000
,  // measure 82
1000
0010
0101
0010
1000
0100
0011
0100
1000
0010
1001
0100
1000
0100
1001
0010
,  // measure 83
0100
0010
1001
0100
1000
0010
0101
0010
1000
0001
1010
0100
1000
0001
0110
0001
,  // measure 84
1000
0100
0011
0100
1000
0100
1001
0010
0100
0010
1100
0001
0010
0100
0011
0100
,  // measure 85
1000
0100
0011
0100
1000
0010
1100
0010
0100
0010
0101
1000
0100
1000
0101
0010
,  // measure 86
1001
0000
0100
0000
0010
1000
0010
0000
0101
0000
1000
0000
0010
0100
0010
0000
,  // measure 87
1100
0000
0001
0000
0100
1000
0100
0000
0011
0000
0100
0000
1000
0010
1000
0000
,  // measure 88
0101
0000
0010
0000
0001
0010
0001
0000
1100
0000
0000
0101
0000
0000
0022
0000
,  // measure 89
0000
0000
0000
0000
0000
0000
0000
0000
0000
0000
0000
0000
0000
0000
0000
0033
,  // measure 90
1001
0000
0011
0100
0000
0100
1010
0000
1000
0001
1000
0001
1000
0000
2002
3003
,  // measure 91
0101
0000
1010
0001
0000
0001
0110
0000
0001
1000
0001
1000
0001
0000
2020
3030
,  // measure 92
1100
0000
0011
0100
0000
0100
1001
0000
0100
0001
0100
0001
0100
0001
0220
0330
,  // measure 93
0101
0000
0110
1000
0000
1000
0101
0000
1100
0000
0000
0001
0010
0100
1000
0100
,  // measure 94
0001
0010
0101
0010
1000
0010
0101
1000
0001
0100
1010
0100
0001
1000
0101
0010
,  // measure 95
0100
0001
1010
0100
0010
0100
1001
0010
0100
0010
1001
0100
1000
0010
1001
0100
,  // measure 96
0010
0100
1001
0010
1000
0100
1010
0001
0010
0001
1010
0100
1000
0100
1010
0001
,  // measure 97
0100
0000
0000
0010
1100
0001
0100
0001
0100
0010
0100
0010
0100
0010
0100
0010
,  // measure 98
0100
1000
0100
1000
0100
0001
0100
0001
0100
0010
0100
0010
0001
0010
0001
0010
,  // measure 99
1000
0010
1000
0010
1000
0100
1000
0100
0001
0100
0001
0100
0001
1000
0001
1000
,  // measure 100
0010
0100
0010
0100
0010
1000
0010
1000
0100
1000
0100
1000
0001
0010
0001
0010
,  // measure 101
0100
1000
0100
1000
0001
0100
0001
0100
0010
1000
0010
1000
0100
1000
0100
1000
,  // measure 102
0001
0010
0001
0010
1000
0010
1000
0010
1000
0100
1000
0100
0001
1000
0001
1000
,  // measure 103
0010
0100
0010
0100
0001
1000
0001
1000
0100
1000
0100
1000
0001
1000
0001
1000
,  // measure 104
0001
0100
0001
0100
0010
0100
0010
0100
0010
1000
0010
1000
0100
1000
0100
1000
,  // measure 105
0202
0000
0000
0000
0000
0000
0000
0000
0000
0000
0000
0000
0000
0000
0000
0303
,  // measure 106
1001
0110
1000
0011
0100
1010
1000
0101
,  // measure 107
0010
1100
1000
0011
0100
1010
1000
0101
,  // measure 108
1000
0000
0000
0011
0000
0000
0100
0000
0000
1010
0000
0000
1100
0000
0000
0001
0010
0100
0010
0000
0000
1010
0000
0000
,  // measure 109
1100
0000
0011
0000
2002
0000
0000
3003
1100
0000
0101
0000
0011
0000
1001
0000
,  // measure 110
2100
0000
0000
0000
0000
0000
0000
0000
0000
0000
0000
0000
0000
0000
0000
0000
0000
0000
3100
0000
0010
0000
0001
0000
0010
0000
0000
0000
0000
0000
1100
0000
0000
0000
0000
0000
0000
0000
0000
0000
0000
0000
0001
0000
0000
0010
0000
0000
,  // measure 111
1000
0100
0010
0001
0010
0000
0100
0000
1000
0000
0100
0000
0010
0000
0001
0000
1000
0000
0100
0000
0010
0000
0100
0000
1000
0000
0010
0000
0100
0000
0010
0000
,  // measure 112
0200
0000
0000
0302
0000
0000
0023
0000
0000
0000
0130
1000
0100
0001
0100
0001
,  // measure 113
0110
1010
1100
1001
,  // measure 114
0001
1000
0011
0100
0001
0010
1001
0010
0100
1000
0110
1000
0001
0010
0101
1000
,  // measure 115
0100
0010
1001
0100
0010
0100
1001
0010
0100
0010
1001
0100
0010
0100
1001
0010
,  // measure 116
0100
0010
0101
1000
0010
0100
1001
0010
1000
0100
1010
0001
0100
1000
0110
0001
,  // measure 117
0010
1000
0101
1000
0001
0010
1001
0010
0100
1000
0101
0010
0001
0010
0101
1000
,  // measure 118
0101
0011
1010
1100
0101
1001
1100
0101
,  // measure 119
1001
0110
1001
1100
0011
1100
0101
1010
,  // measure 120
1001
0000
0000
0101
0000
0000
0110
0000
1010
0000
1100
0010
0100
1000
0100
1000
,  // measure 121
0110
0000
0001
1000
0101
0000
0000
0000
0011
0000
0000
0000
1001
0000
0000
0000
,  // measure 122
1000
0010
0101
1000
0100
0001
1100
0010
0001
0010
1001
0100
0001
0100
1001
0100
,  // measure 123
0010
0100
1001
0010
0100
0010
1001
0100
0010
0100
0011
0100
1000
0100
1001
0010
,  // measure 124
0100
0010
1100
0001
1000
0100
0011
0100
1000
0001
0110
0001
1000
0100
1001
0100
,  // measure 125
0010
0001
1100
0001
0100
0001
1010
0100
1000
0010
1100
0001
0010
0100
1001
0100
,  // measure 126
0011
1001
1010
1001
0101
0110
1001
0110
,  // measure 127
1010
0101
1010
1001
0110
1001
0101
1010
,  // measure 128
2002
0000
0000
0000
0000
0000
3003
0000
1001
0000
0000
1001
0000
0000
2002
0000
,  // measure 129
0000
0000
0000
0000
0000
0000
0000
0000
0000
3003
1010
0000
0000
0000
0010
0000
,  // measure 130
1100
0000
0000
0000
0010
0000
0000
0000
0202
0000
0000
0000
0000
0303
2002
0000
,  // measure 131
0000
0000
0000
0000
0000
0000
0000
0000
0000
0000
0000
0000
0000
0000
0000
3003
,  // measure 132
1001
0000
0010
0010
0000
0100
0100
0000
0001
0001
0010
0100
1000
1000
0202
0303
,  // measure 133
1001
0000
0010
0010
0000
0001
0001
0000
0100
0100
1000
0100
0012
0000
2000
3003
,  // measure 134
1010
0000
0100
0100
0000
1000
1000
0000
0001
0001
1000
0100
0010
0010
2002
3003
,  // measure 135
0101
0000
0010
0010
0000
1000
1000
0000
0001
0010
0001
1000
0001
1000
0001
1100
;
