#TITLE:Night of Fire;
#SUBTITLE:;
#ARTIST:NIKO;
#TITLETRANSLIT:;
#SUBTITLETRANSLIT:;
#ARTISTTRANSLIT:;
#CREDIT:owenviau1 & Zespread;
#BANNER:../owenviau1 Simfiles 5-bn.png;
#BACKGROUND:../owenviau1 Simfiles 5-bg.png;
#LYRICSPATH:;
#CDTITLE:../ov1_title.png;
#MUSIC:Night Of Fire.mp3;
#OFFSET:-0.284;
#SAMPLESTART:99.307;
#SAMPLELENGTH:29.999;
#SELECTABLE:YES;
#DISPLAYBPM:155.100;
#BPMS:0.000=155.100,21.000=155.109,22.000=155.100,41.000=155.109,42.000=155.100,57.000=155.109,58.000=155.100;
#STOPS:;
#BGCHANGES:;
// cache tags:
#FIRSTBEAT:6.000;
#LASTBEAT:392.000;
#SONGFILENAME:Songs/owenviau1 Simfiles 5/Night of Fire - [owenviau1] v1.3/Night Of Fire.sm;
#HASMUSIC:1;
#HASBANNER:1;
#MUSICLENGTH:155.062;
// end cache tags

//---------------dance-single - ----------------
#NOTES:
     dance-single:
     :
     Hard:
     13:
     1.000,1.000,1.000,0.013,0.790,924.000,234.000,2.000,0.000,0.000:
0000
0000
0000
0000
,
0000
0000
1001
0000
,
0000
0000
1010
0000
,
0101
0000
0000
0000
1001
1000
0001
1000
,
0001
1000
0001
1000
0001
0010
0100
0010
,
0100
0010
0100
0010
1001
0000
0000
0000
,
0000
0000
0110
0000
,
0101
0000
0000
0000
1010
0010
0100
0010
,
0100
0000
0010
0000
0100
0000
0010
0000
1001
0000
0000
0101
0000
0000
1010
0000
,
0000
0110
0000
0000
0101
0000
1001
0000
0110
0000
1000
0000
0100
0010
0010
0100
,
0100
0010
0010
0100
0100
0010
0010
0100
0100
0010
0001
1000
0100
0010
0001
0100
,
0001
1000
0010
0100
0001
0010
0100
1000
0001
0000
0010
0000
0100
0100
1000
1000
,
0001
0010
0010
0100
1000
1000
0010
0010
0100
0001
1000
0001
0010
0100
1000
0010
,
0100
0001
1000
0100
1000
0010
0100
0001
0010
0000
1000
0000
0001
0100
0100
0010
,
0010
0100
0100
0010
0010
0100
0100
0010
0010
0100
1000
0100
0010
0001
0100
0001
,
1000
0100
0010
0001
0100
0001
1000
0100
0010
0000
0001
0000
1000
0001
0001
0010
,
0010
0100
0100
1000
1000
0001
0001
1000
1001
0000
0000
0110
0000
0000
1100
0000
,
0000
1001
0000
0000
0011
0000
0110
0000
1001
0000
0100
0000
0011
0000
1000
0000
,
0110
0001
1100
0010
1001
0100
1010
0001
,
0110
0000
1000
0000
0101
0000
0010
0000
0110
0000
1000
0000
1000
0100
0100
0010
,
0010
0100
0100
0010
0010
0100
0100
0010
0001
0010
0100
1000
0001
1000
0010
0100
,
0001
0010
0100
1000
0001
0001
0001
0001
0110
0000
1000
0000
1010
0000
0010
0000
,
0101
0010
1001
0100
1010
0001
0110
1000
,
0011
0000
0010
0000
1100
0000
0001
0000
1010
0000
0100
0000
0001
1000
1000
0001
,
0001
0100
0100
0001
0001
0100
0100
0001
0001
1000
0001
1000
0100
0010
0001
0100
,
0001
1000
0010
0100
0001
0010
0100
1000
0001
0000
0100
0000
1010
0000
0100
0000
,
1001
1000
0110
0001
1010
0001
1100
1000
,
0011
1000
0110
0001
1010
0001
1100
0100
,
0011
1000
0101
0100
1010
0001
1100
1000
,
0011
0001
0110
0001
1010
0100
1001
0010
,
0011
1000
0110
0001
1010
0010
0101
1000
,
0110
0001
1010
0100
1001
0000
0000
0000
,
1010
0000
0000
0101
0000
1001
0110
0101
,
1100
0120
0000
0030
1100
0010
1001
0001
,
0110
1000
0011
0001
1100
0001
0110
0010
,
0101
0100
1001
0100
1010
0001
1100
1000
,
0011
1000
0110
0001
1010
0100
1001
0100
,
0011
1000
0110
0001
1100
0010
0011
0100
,
1010
0010
0101
1000
0011
0010
1100
0001
,
1010
0100
1001
0010
0110
1000
0101
1000
,
0011
0001
1100
0001
0110
0100
1001
0010
,
1100
0000
0010
0000
0001
0010
0100
1000
1001
0000
0100
0000
0011
0000
1000
0000
,
0110
0001
1010
0100
1001
0010
0101
1000
,
0011
0010
1100
0001
0110
0100
1001
0010
,
0101
1000
0110
0010
1001
0010
1100
1000
,
0011
1000
0110
0001
1010
0100
1001
0010
,
1100
0001
0110
1000
0011
0010
1100
0001
,
0110
0010
0101
0010
1001
1000
0110
0001
,
1010
0010
0101
1100
0000
1010
1001
0101
,
0110
0000
0000
0000
0010
1000
0100
0010
1001
0000
0001
0000
0100
0010
0010
0100
,
0100
0010
0010
0100
0100
0010
0010
0100
0100
0010
0001
1000
0100
0010
0001
0100
,
0001
1000
0010
0100
0001
0010
0100
1000
0001
0000
0010
0000
0100
0100
1000
1000
,
0001
0010
0010
0100
1000
1000
0010
0010
0100
0001
1000
0001
0010
0100
1000
0010
,
0100
0001
1000
0100
1000
0010
0100
0001
0010
0000
1000
0000
0001
0100
0100
0010
,
0010
0100
0100
0010
0010
0100
0100
0010
0010
0100
1000
0100
0010
0001
0100
0001
,
1000
0100
0010
0001
0100
0001
1000
0100
0010
0000
0001
0000
1000
0001
0001
0010
,
0010
0100
0100
1000
1000
0001
0001
1000
1001
0000
0000
0110
0000
0000
1100
0000
,
0000
1001
0000
0000
0011
0000
0110
0000
1001
0000
0000
0000
0000
0000
0000
0000
,
0000
0000
1100
0000
,
0110
0000
0000
0000
0000
0000
0000
0000
0101
0000
1000
0000
0001
0100
0100
0010
,
0010
0100
0100
0010
0010
0100
0100
0010
0010
0100
1000
0100
0010
0001
0100
0001
,
1000
0100
0010
0001
0100
0001
1000
0100
1001
0000
0000
0000
0000
0000
0000
0000
,
0000
0000
0101
0000
,
1100
0000
0000
0000
0000
0000
0000
0000
0010
0000
1000
0000
0001
0100
0100
1000
,
1000
0010
0010
0001
0001
0100
0100
1000
1000
0001
1000
0100
0010
0001
0100
0001
,
1000
0100
0010
0001
0100
0001
1000
0100
1001
0000
0010
0000
1100
0000
0001
0000
,
0110
1000
0101
0010
1001
0100
1010
0001
,
0110
1000
0011
1000
1100
0001
1010
0100
,
0101
0010
1001
0100
0110
0001
1100
1000
,
0011
0100
1010
0001
0101
0010
1001
0010
,
1100
1000
0011
0001
1100
0010
0101
0001
,
1010
0001
0101
0010
1001
0000
0000
0000
,
1100
0000
0000
0101
0000
1100
0011
1001
,
0101
0000
1100
0000
0000
0000
0001
0100
0010
0000
1000
0000
0011
0000
1000
0000
,
0110
0001
1100
0010
1001
0100
1010
0001
,
0110
0000
1000
0000
0101
0000
0010
0000
0110
0000
1000
0000
1000
0100
0100
0010
,
0010
0100
0100
0010
0010
0100
0100
0010
0001
0010
0100
1000
0001
1000
0010
0100
,
0001
0010
0100
1000
0001
0001
0001
0001
0110
0000
1000
0000
1010
0000
0010
0000
,
0101
0010
1001
0100
1010
0001
0110
1000
,
0011
0000
0010
0000
1100
0000
0001
0000
1010
0000
0100
0000
0001
1000
1000
0001
,
0001
0100
0100
0001
0001
0100
0100
0001
0001
1000
0001
1000
0100
0010
0001
0100
,
0001
1000
0010
0100
0001
0010
0100
1000
0001
0000
0000
0000
1010
0000
0100
0000
,
1001
1000
0110
0001
1010
0001
1100
1000
,
0011
1000
0110
0001
1010
0001
1100
0100
,
0011
1000
0101
0100
1010
0001
1100
1000
,
0011
0001
0110
0001
1010
0000
1001
0010
,
0011
1000
0110
0001
1010
0010
0101
1000
,
0110
0001
1010
0100
1001
0000
0000
0000
,
1010
0000
0000
0101
0000
1001
0110
0101
,
1100
0120
0000
0030
1100
0000
0110
0000
,
1001
0000
0101
0000
1000
0001
0001
0100
0100
0010
0010
0100
0100
0010
0010
0100
,
0100
0010
0001
1000
0100
0010
0001
0100
0001
1000
0010
0100
0001
0010
0100
1000
,
0001
0000
0010
0000
0100
0100
1000
1000
0001
0010
0010
0100
1000
1000
0010
0010
,
0100
0001
1000
0001
0010
0100
1000
0010
0100
0001
1000
0100
1000
0010
0100
0001
,
0010
0000
1000
0000
0001
1000
1000
0010
0010
0001
0001
0010
0010
0001
0001
0010
,
0010
0100
1000
0100
0010
0001
0100
0001
1000
0100
0010
0001
0100
0001
1000
0100
,
0010
0000
0001
0000
1000
0001
0001
0010
0010
0100
0100
1000
1000
0001
0001
1000
,
1001
0001
1000
0001
1000
0001
1000
0001
1000
0000
0000
0000
0001
0010
0100
1000
,
1001
0000
0000
0000
,
0000
0000
0000
0000
,
0000
0000
0000
0000
;

//---------------dance-single - ----------------
#NOTES:
     dance-single:
     :
     Challenge:
     17:
     1.000,1.000,1.000,0.000,1.000,1240.000,367.000,0.000,0.000,8.000:
0000
0000
0000
0000
,
0000
0000
1001
0000
,
0000
0000
1010
0000
,
0101
0000
0000
0000
0011
1000
0100
1000
,
0100
1000
0100
1000
0100
0010
0001
0010
,
0001
0010
0001
0010
1001
0000
0000
0000
,
0000
0000
1010
0000
,
0110
0000
0000
0000
0101
0010
0100
0010
,
0100
0000
0010
0000
0100
0000
0010
0000
1001
0000
0000
0101
0000
0000
1010
0000
,
0000
0110
0000
0000
0101
0000
1001
0000
0110
0000
1000
0000
0110
0010
0010
0100
,
1100
0010
0010
0100
1100
0010
0010
0100
1100
0010
0001
1100
0010
0001
1100
0010
,
0001
1100
0010
0001
1100
0010
0001
1100
0011
0000
0100
0000
1000
1000
0100
0100
,
0011
0010
0010
0100
1100
0100
0010
0010
0011
0100
1000
0011
0100
1000
0011
0100
,
1000
0011
0100
1000
0011
0100
1000
0011
1000
0000
0100
0000
0110
0100
0100
0010
,
0011
0100
0100
0010
0011
0100
0100
0010
0011
0100
1000
0110
0001
1000
0110
0001
,
1000
0110
0001
1000
0110
0001
1000
0110
1000
0000
0010
0000
0101
0001
0001
0010
,
0110
0001
0001
0010
0110
0001
0001
0010
0110
1000
0001
0110
1000
0001
0110
1000
,
0001
0110
1000
0001
0110
1000
0110
0001
1100
0010
0100
1000
0110
0001
0010
0100
,
0011
0100
1000
0100
1010
0100
0010
0100
0011
0100
1000
0010
0101
0010
0100
1000
,
0110
0001
0010
0100
0011
0100
1000
0010
0101
0000
1000
0000
1100
0100
0100
0010
,
0011
0100
0100
0010
0011
0100
0100
0010
0011
0100
1000
0011
0100
1000
0011
0100
,
1000
0011
0100
1000
0001
0001
0001
0001
1001
0100
0010
0001
1100
0010
0001
0100
,
0011
0100
1000
0010
0101
0010
0100
0010
0101
0010
0100
1000
0011
0100
1000
0001
,
0110
1000
0100
0010
0101
0010
0100
1000
0011
0000
1000
0000
0011
0010
0010
0100
,
1100
0010
0010
0100
1100
0010
0010
0100
1100
0010
0001
1100
0010
0001
1100
0010
,
0001
1100
0010
0001
1000
1000
1000
1000
1100
0001
0010
0100
0011
0100
1000
0100
,
0011
0100
0010
0001
0110
1000
0100
1000
0101
0010
0100
1000
0011
0100
1000
0100
,
0011
0100
0010
0001
0110
1000
0100
0010
1100
0010
0001
0010
1101
0010
0100
1000
,
0101
0010
0100
1000
0111
1000
0100
0010
0101
0010
0100
1000
0011
0100
1000
0100
,
0010
0010
0010
0010
0010
0010
0010
0010
1010
0100
0010
0001
1100
0010
0001
0100
,
0011
0100
1000
0010
0101
0010
0100
1000
0011
0100
1000
0100
0011
0100
0010
0100
,
0011
0100
1000
0001
0110
1000
0100
0010
0101
0000
0000
0000
0000
0000
0000
0000
,
1010
0000
0000
0101
0000
1000
0100
1000
,
0011
0100
1000
0001
0110
1000
0001
0010
1100
0010
0100
1000
0011
0100
1000
0100
,
0011
0100
0010
0100
0011
0100
0010
0001
1100
0010
0001
0100
1010
0001
0010
0100
,
0011
0100
1000
0100
1010
0001
0010
0100
1010
0100
1000
0100
0011
0100
0010
0001
,
0110
1000
0100
0010
0101
0010
0100
1000
0110
0001
0010
0100
0011
0100
1000
0100
,
1001
0010
0100
1000
0001
0001
0001
0001
1001
0100
0010
0001
1100
0010
0001
0100
,
0011
0100
1000
0100
0011
0100
1000
0001
0110
1000
0100
0001
1010
0100
0010
0001
,
1100
0010
0100
1000
0011
0100
1000
0010
1100
0010
0001
0010
0101
1000
0100
0010
,
1100
0010
0001
0010
1100
0010
0100
1000
0011
0100
1000
0010
0101
0010
0100
1000
,
0110
0001
0010
0100
1000
1000
1000
1000
1001
0100
0010
0001
1010
0100
1000
0100
,
0011
0100
1000
0001
0110
1000
0100
0010
1100
0010
0001
0100
0011
0100
0010
0100
,
0011
0100
0010
0100
1010
0100
0010
0001
1010
0100
0010
1000
0110
0001
0010
0100
,
0011
0100
1000
0100
1010
0001
0010
0100
0011
0100
1000
0100
1010
0001
0010
0100
,
1010
0100
0010
1000
0101
0010
1000
0001
1100
0010
0100
0001
1010
0100
0010
0001
,
1010
0100
0010
0001
1100
0010
0001
0100
0011
0100
1000
0010
1100
0001
0010
0100
,
0011
0100
0010
0001
0110
1000
0100
0001
1010
0100
0001
1000
0011
0100
1000
0001
,
0110
1000
0001
0100
0011
0000
1100
0000
0000
0000
0001
0000
1000
0000
0001
0000
,
1000
1000
1000
1000
1000
1000
1000
1000
1001
0000
0100
0000
0011
0010
0010
0100
,
1100
0010
0010
0100
1100
0010
0010
0100
1100
0010
0001
1100
0010
0001
1100
0010
,
0001
1100
0010
0001
1100
0010
0001
1100
0010
0000
0001
0000
0011
0001
0001
0010
,
0110
0001
0001
0010
0110
0001
0001
0010
0110
0001
1000
0110
0001
1000
0110
0001
,
1000
0110
0001
1000
0100
0100
0100
0100
0110
0000
0001
0000
1100
0100
0100
0010
,
0011
0100
0100
0010
0011
0100
0100
0010
0011
0100
1000
0011
0100
1000
0011
0100
,
1000
0011
0100
1000
0011
0100
1000
0011
0100
0000
0010
0000
0011
0010
0010
1000
,
1001
0010
0010
1000
1001
0010
0010
1000
1001
0100
0010
1001
0100
0010
1001
0100
,
0010
1001
0100
0010
1001
0100
0010
1001
0000
0000
0000
0000
0000
0000
0000
0000
,
0000
0000
1001
0000
,
0101
0000
0000
0000
0000
0000
0000
0000
1010
0000
0100
0000
0011
0010
0010
0100
,
1100
0010
0010
0100
1100
0010
0010
0100
1100
0010
0001
1100
0010
0001
1100
0010
,
0001
1100
0010
0001
1100
0010
0001
0100
1001
0000
0000
0000
0000
0000
0000
0000
,
0000
0000
1001
0000
,
1010
0000
0000
0000
0000
0000
0000
0000
0101
0000
0010
0000
1100
0100
0100
0010
,
0011
0100
0100
0010
0011
0100
0100
0010
0011
1000
0100
0011
1000
0100
0011
1000
,
0100
0011
1000
0100
0011
1000
0100
0011
1111
0010
0100
1000
0011
0100
1000
0100
,
0011
1000
0100
0010
1100
0010
0001
0010
1100
0010
0100
1000
0011
0100
1000
0010
,
0101
0010
0100
1000
0011
0100
1000
0100
1011
0100
0010
0001
1010
0100
1000
0010
,
1101
0010
0100
1000
0110
0001
0100
1000
0111
1000
0100
0010
0101
0010
0100
1000
,
0011
0100
1000
0010
1000
1000
1000
1000
1001
0100
0010
0001
1100
0010
0001
0100
,
0011
0100
1000
0010
1100
0001
0010
0100
0011
0100
1000
0010
0101
0010
0100
1000
,
0110
0001
0010
0001
0110
1000
0100
0010
1001
0000
0000
0000
0000
0000
0000
0000
,
1001
0000
0000
1010
0000
1010
0101
1010
,
0101
0001
0001
0001
0001
0001
0001
0001
1001
0100
0010
0001
1100
0010
0001
0100
,
0011
0100
1000
0100
1010
0001
0010
0100
0011
0100
1000
0010
1100
0001
0010
0100
,
1001
0010
0100
1000
0011
0100
1000
0010
0101
0000
1000
0000
0110
0100
0100
1000
,
1001
0100
0100
1000
1001
0100
0100
1000
1001
0100
0010
1001
0100
0010
1001
0100
,
0010
1001
0100
0010
1001
0100
0010
1001
0010
0100
1000
0100
0011
0100
1000
0001
,
0110
1000
0001
0010
1001
0100
0010
0001
1100
0010
0001
1000
0101
0010
0100
1000
,
0011
0100
1000
0100
1010
0100
0010
0001
1100
0000
0011
0000
1100
0100
0100
0010
,
1010
0100
0100
0010
1010
0100
0100
0010
1010
0100
0001
1010
0100
0001
1010
0100
,
0001
1010
0100
0001
1010
0100
0001
1010
0100
0000
0010
0000
1001
0000
0110
0000
,
0001
1010
0100
1001
0100
1010
1100
0101
,
1010
0100
0011
1000
0110
0011
1110
0000
,
0011
0000
1100
0000
1011
0000
0000
0000
1001
0000
0011
0000
0110
0000
1100
1000
,
1000
1000
1000
1000
1000
1000
1000
1000
1001
0000
0010
0000
1100
0000
0011
0000
,
0100
1001
0010
1100
0001
0110
1100
0011
,
0101
1000
1010
0001
0110
0000
0000
0000
,
1001
0000
0000
0110
0000
1001
0110
1001
,
0010
0010
0010
0010
0010
0010
0010
0010
1010
0000
0000
0000
0101
0000
0000
0000
,
1010
0000
0100
0000
0011
0010
0010
0100
1100
0010
0010
0100
1100
0010
0010
0100
,
1100
0010
0001
1100
0010
0001
1100
0010
0001
1100
0010
0001
1100
0010
0001
1100
,
0010
0000
0100
0000
1100
0100
0100
0010
0011
0100
0100
0010
0011
0100
0100
0010
,
0011
0100
1000
0011
0100
1000
0011
0100
1000
0011
0100
1000
0011
0100
1000
0011
,
0100
0000
1000
0000
0101
0001
0001
0010
1100
0001
0001
0010
1100
0001
0001
0010
,
1100
0010
0001
1100
0010
0001
1100
0010
0001
1100
0010
0001
1100
0010
0001
1100
,
0001
0000
1000
0000
1001
0001
0001
0010
1100
0001
0001
0010
1100
0001
0001
0010
,
1100
1000
1000
1000
1000
1000
1000
1000
1001
0000
0000
0000
0110
0000
0000
0000
,
1001
0000
0000
0000
,
0000
0000
0000
0000
,
0000
0000
0000
0000
;
